TAIFUN With Song
Classical В этом разделе релизы на классическую музыку.

А знаете ли Вы, что...
Какое совпадение связало смерти солиста Boney M и Григория Распутина?
«Бобби Фаррелл, единственный мужчина в диско-группе Boney M, во время исполнения одного из главных хитов группы «Rasputin» часто гримировался в образ Распутина. Фаррелл умер от остановки сердца во время гастролей в Санкт-Петербурге 30 декабря 2010 года — того же числа и в том же городе, что и сам Распутин.»
 
Опции темы

  #1
Старый 09.01.2014, 19:15
sergych
Координатор
Досье
 
Аватар для sergych
Релиз J.S. Bach - Brandenburg Concertos


2000 - Johann Sebastian Bach - Brandenburg Concertos




Исполнитель/Artist: Slovak Chamber Orchestra (Conductor: Bohdan Warchal)
Альбом/Album: Bach. Brandenburg Concertos 1, 2, 3
Год/Year: 2000
Жанр/Genre: Inctrumental
Страна/Country: Европа
Рекорд-лейбл/Record label: Galaxy Music
Номер в каталоге/Catalogue #: 3511262
Формат/Format: Free Lossless Audio Codec (*.flac)
Качество/Quality: Lossless
Тип рипа/RIP Type: image+.cue
Продолжительность/Length: 00:48:33
Источник/Source: Собственный рип
Размер/Size: 259.2 MB

Сканы в комплекте

Треклист

01. Brandenburg Concerto No. 1 in F major, BWV 1046: Allegro [0:04:11.57]
02. Brandenburg Concerto No. 1 in F major, BWV 1046: Adagio [0:05:20.05]
03. Brandenburg Concerto No. 1 in F major, BWV 1046: Allegro [0:04:38.65]
04. Brandenburg Concerto No. 1 in F major, BWV 1046: Menuetto / Trio I / Polacca / Trio II [0:08:35.48]
05. Brandenburg Concerto No. 2 in F major, BWV 1047: Allegro [0:05:58.52]
06. Brandenburg Concerto No. 2 in F major, BWV 1047: Andante [0:04:02.28]
07. Brandenburg Concerto No. 2 in F major, BWV 1047: Allegro assai [0:03:23.70]
08. Brandenburg Concerto No. 3 in G major, BWV 1048 [0:07:15.70]
09. Brandenburg Concerto No. 3 in G major, BWV 1048 [0:05:05.72]
[свернуть]

youtube.com

[свернуть]

EAC лог

Exact Audio Copy V1.0 beta 3 from 29. August 2011

EAC extraction logfile from 8. January 2014, 19:14

Bohdan Warchal: Slovak Chamber Orchestra / Bach: Brandenburg Concertos [Disc 1]

Used drive : ATAPI iHAS124 D Adapter: 0 ID: 2

Read mode : Secure
Utilize accurate stream : Yes
Defeat audio cache : Yes
Make use of C2 pointers : Yes

Read offset correction : 6
Overread into Lead-In and Lead-Out : No
Fill up missing offset samples with silence : Yes
Delete leading and trailing silent blocks : No
Null samples used in CRC calculations : Yes
Used interface : Installed external ASPI interface

Used output format : User Defined Encoder
Selected bitrate : 1024 kBit/s
Quality : High
Add ID3 tag : No
Command line compressor : C:\Program Files (x86)\Exact Audio Copy\Flac\flac.exe
Additional command line options : -6 -V -T "ARTIST=%artist%" -T "TITLE=%title%" -T "ALBUM=%albumtitle%" -T "DATE=%year%" -T "TRACKNUMBER=%tracknr%" -T "GENRE=%genre%" -T "COMMENT=%comment%" -T "BAND=%albuminterpret%" -T "COMPOSER=%composer%" %haslyrics%--tag-from-file=LYRICS="%lyricsfile%"%haslyrics% -T "DISCNUMBER=%cdnumber%" -T "TOTALDISCS=%totalcds%" -T "TOTALTRACKS=%numtracks%" %hascover%--picture="%coverfile%"%hascover% %source% -o %dest%


TOC of the extracted CD

Track | Start | Length | Start sector | End sector
---------------------------------------------------------
1 | 0:00.33 | 4:11.57 | 33 | 18914
2 | 4:12.15 | 5:20.05 | 18915 | 42919
3 | 9:32.20 | 4:38.65 | 42920 | 63834
4 | 14:11.10 | 8:35.48 | 63835 | 102507
5 | 22:46.58 | 5:58.52 | 102508 | 129409
6 | 28:45.35 | 4:02.28 | 129410 | 147587
7 | 32:47.63 | 3:23.70 | 147588 | 162882
8 | 36:11.58 | 7:15.70 | 162883 | 195577
9 | 43:27.53 | 5:05.72 | 195578 | 218524


Range status and errors

Selected range

Filename C:\mm\Bach\2004 - Brandenburg Concertos\Bohdan Warchal- Slovak Chamber Orchestra - Bach- Brandenburg Concertos [Disc 1].wav

Peak level 75.9 %
Extraction speed 5.0 X
Range quality 100.0 %
Test CRC E284963B
Copy CRC E284963B
Copy OK

No errors occurred


AccurateRip summary

Track 1 cannot be verified as accurate (confidence 4) [CC5E6691], AccurateRip returned [5F257DA3] (AR v2)
Track 2 cannot be verified as accurate (confidence 4) [35E6BD46], AccurateRip returned [0CED559A] (AR v2)
Track 3 cannot be verified as accurate (confidence 4) [4A3241F0], AccurateRip returned [A4688F9B] (AR v2)
Track 4 cannot be verified as accurate (confidence 4) [E6F805BB], AccurateRip returned [BBEBB96A] (AR v2)
Track 5 cannot be verified as accurate (confidence 4) [2C57226C], AccurateRip returned [A26E8E75] (AR v2)
Track 6 cannot be verified as accurate (confidence 4) [CF3E59AE], AccurateRip returned [33069828] (AR v2)
Track 7 cannot be verified as accurate (confidence 4) [FDB39421], AccurateRip returned [E7E19C3E] (AR v2)
Track 8 cannot be verified as accurate (confidence 4) [D7FFA870], AccurateRip returned [0FC7D744] (AR v2)
Track 9 cannot be verified as accurate (confidence 4) [2D71B1FD], AccurateRip returned [2169F911] (AR v2)

No tracks could be verified as accurate
You may have a different pressing from the one(s) in the database

End of status report
[свернуть]

Файл CUE

REM GENRE Classical
REM DATE 2006
REM DISCID 870B6109
REM COMMENT "ExactAudioCopy v1.0b3"
PERFORMER "Bohdan Warchal: Slovak Chamber Orchestra"
TITLE "Bach: Brandenburg Concertos [Disc 1]"
FILE "Bohdan Warchal- Slovak Chamber Orchestra - Bach- Brandenburg Concertos [Disc 1].flac" WAVE
TRACK 01 AUDIO
TITLE "Brandenburg Concerto No. 1 in F major, BWV 1046: Allegro"
PERFORMER "Bohdan Warchal: Slovak Chamber Orchestra"
INDEX 00 00:00:00
INDEX 01 00:00:33
TRACK 02 AUDIO
TITLE "Brandenburg Concerto No. 1 in F major, BWV 1046: Adagio"
PERFORMER "Bohdan Warchal: Slovak Chamber Orchestra"
INDEX 00 04:09:68
INDEX 01 04:12:15
TRACK 03 AUDIO
TITLE "Brandenburg Concerto No. 1 in F major, BWV 1046: Allegro"
PERFORMER "Bohdan Warchal: Slovak Chamber Orchestra"
INDEX 01 09:32:20
TRACK 04 AUDIO
TITLE "Brandenburg Concerto No. 1 in F major, BWV 1046: Menuetto / Trio I / Polacca ..."
PERFORMER "Bohdan Warchal: Slovak Chamber Orchestra"
INDEX 00 14:10:15
INDEX 01 14:11:10
TRACK 05 AUDIO
TITLE "Brandenburg Concerto No. 2 in F major, BWV 1047: Allegro"
PERFORMER "Bohdan Warchal: Slovak Chamber Orchestra"
INDEX 00 22:40:63
INDEX 01 22:46:58
TRACK 06 AUDIO
TITLE "Brandenburg Concerto No. 2 in F major, BWV 1047: Andante"
PERFORMER "Bohdan Warchal: Slovak Chamber Orchestra"
INDEX 00 28:43:33
INDEX 01 28:45:35
TRACK 07 AUDIO
TITLE "Brandenburg Concerto No. 2 in F major, BWV 1047: Allegro assai"
PERFORMER "Bohdan Warchal: Slovak Chamber Orchestra"
INDEX 00 32:46:18
INDEX 01 32:47:63
TRACK 08 AUDIO
TITLE "Brandenburg Concerto No. 3 in G major, BWV 1048"
PERFORMER "Bohdan Warchal: Slovak Chamber Orchestra"
INDEX 00 36:05:60
INDEX 01 36:11:58
TRACK 09 AUDIO
TITLE "Brandenburg Concerto No. 3 in G major, BWV 1048"
PERFORMER "Bohdan Warchal: Slovak Chamber Orchestra"
INDEX 01 43:27:53
[свернуть]

Лог проверки качества

AUDIOCHECKER v2.0 beta (build 457) - by Dester -
~~~~~~~~~~~~~~~~~~~~~~~~~~~~~~~~~~
-=== НЕ РЕДАКТИРУЙТЕ ЭТОТ ФАЙЛ! ===-

Путь: ...\2004 - Brandenburg Concertos

1 -=- Bohdan Warchal- Slovak Chamber Orchestra - Bach- Brandenburg Concertos [Disc 1].flac -=- CDDA (100%)

159836980
[свернуть]

Спектр частот

[свернуть]

Скачать J.S. Bach - Brandenburg Concertos 1, 2, 3



password: sergych
[свернуть]
My opinion of release: 10/10
__________________
TAIFUN.Wings of Soul

Вверх
Пользователь сказал cпасибо:
TAIFUN (10.01.2014)
  #2
Старый 09.01.2014, 19:30
sergych
Координатор
Досье
 
Аватар для sergych
Релиз Re: J.S. Bach - Brandenburg Concertos 4, 5, 6


1999 - Johann Sebastian Bach - Brandenburg Concertos 4, 5, 6




Исполнитель/Artist: Slovak Chamber Orchestra (Conductor: Bohdan Warchal)
Альбом/Album: Bach. Brandenburg Concertos 4, 5, 6
Год/Year: 1999
Жанр/Genre: Inctrumental
Страна/Country: Европа
Рекорд-лейбл/Record label: Luxury Multimedia
Номер в каталоге/Catalogue #: 3511272
Формат/Format: Free Lossless Audio Codec (*.flac)
Качество/Quality: Lossless
Тип рипа/RIP Type: image+.cue
Продолжительность/Length: 00:57:36
Источник/Source: Собственный рип
Размер/Size: 311.2 MB

Сканы в комплекте

Треклист

01. Concerto in G major No. 4, BWV 1049 - Allegro [0:07:16.30]
02. Concerto in G major No. 4, BWV 1049 - Andante [0:04:17.67]
03. Concerto in G major No. 4, BWV 1049 - Presto [0:05:23.03]
04. Concerto in D major No. 5, BWV 1050 - Allegro [0:10:17.72]
05. Concerto in D major No. 5, BWV 1050 - Affettuso [0:06:05.28]
06. Concerto in D major No. 5, BWV 1050 - Allegro [0:05:48.50]
07. Concerto in B flat major No. 6, BWV 1051 - (Untitled) [0:06:43.47]
08. Concerto in B flat major No. 6, BWV 1051 - Adagio, ma non troppo [0:05:49.00]
09. Concerto in B flat major No. 6, BWV 1051 - Allegro [0:05:54.30]
[свернуть]

youtube.com

[свернуть]

EAC лог

Exact Audio Copy V1.0 beta 3 from 29. August 2011

EAC extraction logfile from 8. January 2014, 21:00

Bohdan Warchal- Slovak Chamber Orchestra / Bach- Brandenburg Concertos [Disc 2]

Used drive : ATAPI iHAS124 D Adapter: 0 ID: 2

Read mode : Secure
Utilize accurate stream : Yes
Defeat audio cache : Yes
Make use of C2 pointers : Yes

Read offset correction : 6
Overread into Lead-In and Lead-Out : No
Fill up missing offset samples with silence : Yes
Delete leading and trailing silent blocks : No
Null samples used in CRC calculations : Yes
Used interface : Installed external ASPI interface

Used output format : User Defined Encoder
Selected bitrate : 1024 kBit/s
Quality : High
Add ID3 tag : No
Command line compressor : C:\Program Files (x86)\Exact Audio Copy\Flac\flac.exe
Additional command line options : -6 -V -T "ARTIST=%artist%" -T "TITLE=%title%" -T "ALBUM=%albumtitle%" -T "DATE=%year%" -T "TRACKNUMBER=%tracknr%" -T "GENRE=%genre%" -T "COMMENT=%comment%" -T "BAND=%albuminterpret%" -T "COMPOSER=%composer%" %haslyrics%--tag-from-file=LYRICS="%lyricsfile%"%haslyrics% -T "DISCNUMBER=%cdnumber%" -T "TOTALDISCS=%totalcds%" -T "TOTALTRACKS=%numtracks%" %hascover%--picture="%coverfile%"%hascover% %source% -o %dest%


TOC of the extracted CD

Track | Start | Length | Start sector | End sector
---------------------------------------------------------
1 | 0:00.33 | 7:16.30 | 33 | 32762
2 | 7:16.63 | 4:17.67 | 32763 | 52104
3 | 11:34.55 | 5:23.03 | 52105 | 76332
4 | 16:57.58 | 10:17.72 | 76333 | 122679
5 | 27:15.55 | 6:05.28 | 122680 | 150082
6 | 33:21.08 | 5:48.50 | 150083 | 176232
7 | 39:09.58 | 6:43.47 | 176233 | 206504
8 | 45:53.30 | 5:49.00 | 206505 | 232679
9 | 51:42.30 | 5:54.30 | 232680 | 259259


Range status and errors

Selected range

Filename C:\mm\Bach\2004 - Brandenburg Concertos\CD2 - 4,5,6_\Bohdan Warchal- Slovak Chamber Orchestra - Bach- Brandenburg Concertos [Disc 2].wav

Peak level 80.9 %
Extraction speed 12.4 X
Range quality 99.9 %
Test CRC 16CDB148
Copy CRC 16CDB148
Copy OK

No errors occurred


AccurateRip summary

Track 1 cannot be verified as accurate (confidence 4) [E3757C8D], AccurateRip returned [78C54BA8] (AR v2)
Track 2 cannot be verified as accurate (confidence 4) [788B6374], AccurateRip returned [E089D2CB] (AR v2)
Track 3 cannot be verified as accurate (confidence 4) [D49E1DCE], AccurateRip returned [769B08A5] (AR v2)
Track 4 cannot be verified as accurate (confidence 4) [EE5AFAFA], AccurateRip returned [38FB4718] (AR v2)
Track 5 cannot be verified as accurate (confidence 4) [39E5B3D5], AccurateRip returned [ED6827E2] (AR v2)
Track 6 cannot be verified as accurate (confidence 4) [F783DB78], AccurateRip returned [F45E6FCD] (AR v2)
Track 7 cannot be verified as accurate (confidence 4) [1D6746CB], AccurateRip returned [13E4E4B9] (AR v2)
Track 8 cannot be verified as accurate (confidence 4) [B8DD1A1F], AccurateRip returned [825EFB20] (AR v2)
Track 9 cannot be verified as accurate (confidence 4) [0D652746], AccurateRip returned [F40B47C2] (AR v2)

No tracks could be verified as accurate
You may have a different pressing from the one(s) in the database

End of status report
[свернуть]

Файл CUE

REM GENRE Classical
REM DATE 1978
REM DISCID 6D0D8009
REM COMMENT "ExactAudioCopy v1.0b3"
PERFORMER "Bohdan Warchal- Slovak Chamber Orchestra"
TITLE "Bach- Brandenburg Concertos [Disc 2]"
FILE "Bohdan Warchal- Slovak Chamber Orchestra - Bach- Brandenburg Concertos [Disc 2].flac" WAVE
TRACK 01 AUDIO
TITLE "Concerto in G major No. 4, BWV 1049 - Allegro"
PERFORMER "Bohdan Warchal- Slovak Chamber Orchestra"
INDEX 00 00:00:00
INDEX 01 00:00:33
TRACK 02 AUDIO
TITLE "Concerto in G major No. 4, BWV 1049 - Andante"
PERFORMER "Bohdan Warchal- Slovak Chamber Orchestra"
INDEX 00 07:14:60
INDEX 01 07:16:63
TRACK 03 AUDIO
TITLE "Concerto in G major No. 4, BWV 1049 - Presto"
PERFORMER "Bohdan Warchal- Slovak Chamber Orchestra"
INDEX 00 11:34:43
INDEX 01 11:34:55
TRACK 04 AUDIO
TITLE "Concerto in D major No. 5, BWV 1050 - Allegro"
PERFORMER "Bohdan Warchal- Slovak Chamber Orchestra"
INDEX 00 16:52:43
INDEX 01 16:57:58
TRACK 05 AUDIO
TITLE "Concerto in D major No. 5, BWV 1050 - Affettuso"
PERFORMER "Bohdan Warchal- Slovak Chamber Orchestra"
INDEX 00 27:14:00
INDEX 01 27:15:55
TRACK 06 AUDIO
TITLE "Concerto in D major No. 5, BWV 1050 - Allegro"
PERFORMER "Bohdan Warchal- Slovak Chamber Orchestra"
INDEX 00 33:18:63
INDEX 01 33:21:08
TRACK 07 AUDIO
TITLE "Concerto in B flat major No. 6, BWV 1051 - (Untitled)"
PERFORMER "Bohdan Warchal- Slovak Chamber Orchestra"
INDEX 00 39:04:33
INDEX 01 39:09:58
TRACK 08 AUDIO
TITLE "Concerto in B flat major No. 6, BWV 1051 - Adagio, ma non troppo"
PERFORMER "Bohdan Warchal- Slovak Chamber Orchestra"
INDEX 00 45:50:35
INDEX 01 45:53:30
TRACK 09 AUDIO
TITLE "Concerto in B flat major No. 6, BWV 1051 - Allegro"
PERFORMER "Bohdan Warchal- Slovak Chamber Orchestra"
INDEX 01 51:42:30
[свернуть]

Лог проверки качества

AUDIOCHECKER v2.0 beta (build 457) - by Dester -
~~~~~~~~~~~~~~~~~~~~~~~~~~~~~~~~~~
-=== НЕ РЕДАКТИРУЙТЕ ЭТОТ ФАЙЛ! ===-

Путь: ...\CD2 - 4,5,6

1 -=- Bohdan Warchal- Slovak Chamber Orchestra - Bach- Brandenburg Concertos [Disc 2].flac -=- CDDA (100%)

156887860
[свернуть]

Спектр частот

[свернуть]

Скачать J.S. Bach - Brandenburg Concertos 4, 5, 6



password: sergych
[свернуть]
My opinion of release: 10/10
__________________
TAIFUN.Wings of Soul

Вверх
Пользователь сказал cпасибо:
TAIFUN (10.01.2014)
Похожие темы
Тема Автор Раздел Ответов Последнее сообщение
Альбом Antonio Vivaldi - The Four Seasons And Violin Concertos PUPOKIN Classical 0 27.02.2011 10:51
Релиз Janine Jansen - Beethoven Britten Violin Concertos PUPOKIN Classical 0 12.11.2009 11:13
Альбом Heinz Holliger -Virtuoso Oboe Concertos PUPOKIN Classical 0 16.08.2009 10:07
Альбом Mstislav Rostropovich - Cello Concertos PUPOKIN Classical 0 20.02.2009 13:43
Релиз Julia Fischer - Bach Concertos PUPOKIN Classical 0 26.01.2009 14:31


Метки
2000 , bach , bohdan warchal , brandenburg concertos 1 2 3 , inctrumental , slovak chamber orchestra

Опции темы

Ваши права в разделе
Вы не можете создавать новые темы
Вы не можете отвечать в темах
Вы не можете прикреплять вложения
Вы не можете редактировать свои сообщения

Быстрый переход



Текущее время: 20:16. Часовой пояс GMT +3.
Powered by vBulletin® Version 3.8.7
Copyright ©2000 - 2017, vBulletin Solutions, Inc. Перевод: zCarot
© 2008 - 2017 Taifun With Song
Яндекс.Метрика