TAIFUN With Song
Навигация
Вернуться   TAIFUN With Song > Music (обменник) > Rock > Blues Rock
Расширенный поиск
Blues Rock К концу сороковых годов прошлого столетия в блюзе окончательно обосновалась электрогитара. Трудно сказать, что подтолкнуло многих блюзменов перейти с привычной акустической гитары на электрическую, но блюз с тех пор очень сильно изменился.

А знаете ли Вы, что...
Какой рок-вокалист ещё в школьные годы откусил себе кусочек языка?
«Характерному тембру своего голоса солист Rolling Stones Мик Джаггер отчасти обязан баскетболу, которым он увлекался в школе. На одном из матчей Мик с такой силой врезался в соперника, что откусил себе кусочек языка. После этого он не говорил неделю, а когда заговорил, то понял, что голос изменился.»
 
Опции темы

  #1
Старый 04.01.2014, 13:16
sergych
Координатор
Досье
 
Аватар для sergych
Релиз Eric Clapton - Eric Clapton


2006(2008) - Eric Clapton - Eric Clapton {Deluxe Edition Japan SHM-CD}




Исполнитель/Artist: Eric Clapton
Альбом/Album: Eric Clapton {Deluxe Edition Japan SHM-CD}
Год/Year: 2006
Ремастеринг/Remaster: 2008
Жанр/Genre: blues rock, Blues, electric blues, British blues, soul blues
Страна/Country: Япония
Рекорд-лейбл/Record label: Polydor
Номер в каталоге/Catalogue #: UICY-93628
Формат/Format: Free Lossless Audio Codec (*.flac)
Качество/Quality: Lossless
Тип рипа/RIP Type: tracks+.cue
Продолжительность/Length: 01:49:05
Источник/Source: Из интернета
Размер/Size: 800.1 MB

Сканы в комплекте

Треклист

CD1
01 - Slunky [03:35]
02 - Bad Boy [03:35]
03 - Lonesome And A Long Way From Home [03:31]
04 - After Midnight [02:52]
05 - Easy Now [02:59]
06 - Blues Power [03:10]
07 - Bottle Of Red Wine [03:08]
08 - Lovin' You Lovin' Me [03:21]
09 - I've Told You For The Last Time [02:32]
10 - Don't Know Why [03:12]
11 - Let It Rain [05:05]
12 - Blues In "A" [10:27]
13 - Teasin' / King Curtis with Delaney Bramlett, Eric Clapton & Friends [02:16]
14 - She Rides ("Let It Rain" Original Version) [05:08]

CD2
01 - Slunky [03:35]
02 - Bad Boy [03:42]
03 - Easy Now [02:59]
04 - After Midnight [03:18]
05 - Blues Power [03:21]
06 - Bottle Of Red Wine [03:08]
07 - Lovin' You Lovin' Me [04:07]
08 - Lonesome And A Long Way From Home [03:51]
09 - Don't Know Why [03:45]
10 - Let It Rain [05:05]
11 - Don't Know Why (Previously Unreleased Olympic Studios Version) [05:14]
12 - I've Told You For The Last Time (Previously Unreleased Olympic Studios Version) [06:49]
13 - Comin' Home / Delaney & Bonnie and Friends featuring Eric Clapton [03:14]
14 - Groupie (Superstar) / Delaney & Bonnie and Friends featuring Eric Clapton [02:47]
[свернуть]

youtube.com

[свернуть]

EAC лог

CD1

X Lossless Decoder version 20100218 (116.4)

XLD extraction logfile from 2010-02-27 17:57:29 +0500

Eric Clapton / Eric Clapton

Used drive : OPTIARC DVD RW AD-5670S (revision 2AHH)

Use cdparanoia mode : YES (CDParanoia III 10.2 engine)
Disable audio cache : OK for the drive with cache less than 2750KB
Make use of C2 pointers : NO
Read offset correction : 48
Max retry count : 100

TOC of the extracted CD
Track | Start | Length | Start sector | End sector
---------------------------------------------------------
1 | 00:00:00 | 03:35:51 | 0 | 16175
2 | 03:35:51 | 03:35:35 | 16176 | 32335
3 | 07:11:11 | 03:31:58 | 32336 | 48218
4 | 10:42:69 | 02:52:52 | 48219 | 61170
5 | 13:35:46 | 02:59:19 | 61171 | 74614
6 | 16:34:65 | 03:10:65 | 74615 | 88929
7 | 19:45:55 | 03:08:39 | 88930 | 103068
8 | 22:54:19 | 03:21:16 | 103069 | 118159
9 | 26:15:35 | 02:32:38 | 118160 | 129597
10 | 28:47:73 | 03:12:16 | 129598 | 144013
11 | 32:00:14 | 05:05:05 | 144014 | 166893
12 | 37:05:19 | 10:27:65 | 166894 | 213983
13 | 47:33:09 | 02:16:55 | 213984 | 224238
14 | 49:49:64 | 05:08:34 | 224239 | 247372


Track 01
Filename : /Users/gubarenko/Desktop/Eric Clapton - Eric Clapton/01 - Slunky.flac

Pre-gap length : 00:02:00

CRC32 hash (test run) : BB6A9AEB
CRC32 hash : BB6A9AEB
CRC32 hash (skip zero) : 9F794C4F
AccurateRip signature : 0CDF6456
->Accurately ripped! (confidence 45)
Statistics
Read error : 0
Skipped (treated as error) : 0
Edge jitter error (maybe fixed) : 0
Atom jitter error (maybe fixed) : 0
Drift error (maybe fixed) : 0
Dropped bytes error (maybe fixed) : 0
Duplicated bytes error (maybe fixed) : 0
Inconsistency in error sectors : 0

Track 02
Filename : /Users/gubarenko/Desktop/Eric Clapton - Eric Clapton/02 - Bad Boy.flac

Pre-gap length : 00:01:68

CRC32 hash (test run) : 7B0FC5E5
CRC32 hash : 7B0FC5E5
CRC32 hash (skip zero) : 67B47CBB
AccurateRip signature : 610CE465
->Accurately ripped! (confidence 46)
Statistics
Read error : 0
Skipped (treated as error) : 0
Edge jitter error (maybe fixed) : 0
Atom jitter error (maybe fixed) : 0
Drift error (maybe fixed) : 0
Dropped bytes error (maybe fixed) : 0
Duplicated bytes error (maybe fixed) : 0
Inconsistency in error sectors : 0

Track 03
Filename : /Users/gubarenko/Desktop/Eric Clapton - Eric Clapton/03 - Lonesome and a Long Way From Home.flac

Pre-gap length : 00:01:53

CRC32 hash (test run) : DC1A83AA
CRC32 hash : DC1A83AA
CRC32 hash (skip zero) : 549DEC76
AccurateRip signature : 0D688DA8
->Accurately ripped! (confidence 46)
Statistics
Read error : 0
Skipped (treated as error) : 0
Edge jitter error (maybe fixed) : 0
Atom jitter error (maybe fixed) : 0
Drift error (maybe fixed) : 0
Dropped bytes error (maybe fixed) : 0
Duplicated bytes error (maybe fixed) : 0
Inconsistency in error sectors : 0

Track 04
Filename : /Users/gubarenko/Desktop/Eric Clapton - Eric Clapton/04 - After Midnight.flac

Pre-gap length : 00:02:06

CRC32 hash (test run) : 13AF0B7A
CRC32 hash : 13AF0B7A
CRC32 hash (skip zero) : 01AADF19
AccurateRip signature : 589765DD
->Accurately ripped! (confidence 46)
Statistics
Read error : 0
Skipped (treated as error) : 0
Edge jitter error (maybe fixed) : 0
Atom jitter error (maybe fixed) : 0
Drift error (maybe fixed) : 0
Dropped bytes error (maybe fixed) : 0
Duplicated bytes error (maybe fixed) : 0
Inconsistency in error sectors : 0

Track 05
Filename : /Users/gubarenko/Desktop/Eric Clapton - Eric Clapton/05 - Easy Now.flac

Pre-gap length : 00:01:51

CRC32 hash (test run) : DF0F61D6
CRC32 hash : DF0F61D6
CRC32 hash (skip zero) : F0037F0C
AccurateRip signature : 75C4474B
->Accurately ripped! (confidence 46)
Statistics
Read error : 0
Skipped (treated as error) : 0
Edge jitter error (maybe fixed) : 0
Atom jitter error (maybe fixed) : 0
Drift error (maybe fixed) : 0
Dropped bytes error (maybe fixed) : 0
Duplicated bytes error (maybe fixed) : 0
Inconsistency in error sectors : 0

Track 06
Filename : /Users/gubarenko/Desktop/Eric Clapton - Eric Clapton/06 - Blues Power.flac

Pre-gap length : 00:02:09

CRC32 hash (test run) : 11F4546D
CRC32 hash : 11F4546D
CRC32 hash (skip zero) : 4983A812
AccurateRip signature : 3FE5AC45
->Accurately ripped! (confidence 46)
Statistics
Read error : 0
Skipped (treated as error) : 0
Edge jitter error (maybe fixed) : 0
Atom jitter error (maybe fixed) : 0
Drift error (maybe fixed) : 0
Dropped bytes error (maybe fixed) : 0
Duplicated bytes error (maybe fixed) : 0
Inconsistency in error sectors : 0

Track 07
Filename : /Users/gubarenko/Desktop/Eric Clapton - Eric Clapton/07 - Bottle of Red Wine.flac

Pre-gap length : 00:01:61

CRC32 hash (test run) : 9257EFF4
CRC32 hash : 9257EFF4
CRC32 hash (skip zero) : 7A51B971
AccurateRip signature : C379DFBE
->Accurately ripped! (confidence 46)
Statistics
Read error : 0
Skipped (treated as error) : 0
Edge jitter error (maybe fixed) : 0
Atom jitter error (maybe fixed) : 0
Drift error (maybe fixed) : 0
Dropped bytes error (maybe fixed) : 0
Duplicated bytes error (maybe fixed) : 0
Inconsistency in error sectors : 0

Track 08
Filename : /Users/gubarenko/Desktop/Eric Clapton - Eric Clapton/08 - Lovin' You Lovin' Me.flac

Pre-gap length : 00:02:02

CRC32 hash (test run) : 93CB64D5
CRC32 hash : 93CB64D5
CRC32 hash (skip zero) : 7D040D9F
AccurateRip signature : 66F19DBE
->Accurately ripped! (confidence 46)
Statistics
Read error : 0
Skipped (treated as error) : 0
Edge jitter error (maybe fixed) : 0
Atom jitter error (maybe fixed) : 0
Drift error (maybe fixed) : 0
Dropped bytes error (maybe fixed) : 0
Duplicated bytes error (maybe fixed) : 0
Inconsistency in error sectors : 0

Track 09
Filename : /Users/gubarenko/Desktop/Eric Clapton - Eric Clapton/09 - I've Told You for the Last Time.flac

Pre-gap length : 00:01:66

CRC32 hash (test run) : 320D74EE
CRC32 hash : 320D74EE
CRC32 hash (skip zero) : 68F1A506
AccurateRip signature : ACF2D90F
->Accurately ripped! (confidence 47)
Statistics
Read error : 0
Skipped (treated as error) : 0
Edge jitter error (maybe fixed) : 0
Atom jitter error (maybe fixed) : 0
Drift error (maybe fixed) : 0
Dropped bytes error (maybe fixed) : 0
Duplicated bytes error (maybe fixed) : 0
Inconsistency in error sectors : 0

Track 10
Filename : /Users/gubarenko/Desktop/Eric Clapton - Eric Clapton/10 - Don't Know Why.flac

Pre-gap length : 00:02:02

CRC32 hash (test run) : 1A8B1902
CRC32 hash : 1A8B1902
CRC32 hash (skip zero) : BACB022C
AccurateRip signature : 6229137C
->Accurately ripped! (confidence 46)
Statistics
Read error : 0
Skipped (treated as error) : 0
Edge jitter error (maybe fixed) : 0
Atom jitter error (maybe fixed) : 0
Drift error (maybe fixed) : 0
Dropped bytes error (maybe fixed) : 0
Duplicated bytes error (maybe fixed) : 0
Inconsistency in error sectors : 0

Track 11
Filename : /Users/gubarenko/Desktop/Eric Clapton - Eric Clapton/11 - Let It Rain.flac

Pre-gap length : 00:01:62

CRC32 hash (test run) : 87CA2434
CRC32 hash : 87CA2434
CRC32 hash (skip zero) : A47D8DD7
AccurateRip signature : DBD59537
->Accurately ripped! (confidence 46)
Statistics
Read error : 0
Skipped (treated as error) : 0
Edge jitter error (maybe fixed) : 0
Atom jitter error (maybe fixed) : 0
Drift error (maybe fixed) : 0
Dropped bytes error (maybe fixed) : 0
Duplicated bytes error (maybe fixed) : 0
Inconsistency in error sectors : 0

Track 12
Filename : /Users/gubarenko/Desktop/Eric Clapton - Eric Clapton/12 - Blues in 'A' (session outtake).flac

Pre-gap length : 00:02:43

CRC32 hash (test run) : A090C346
CRC32 hash : A090C346
CRC32 hash (skip zero) : 2D1CD96A
AccurateRip signature : E70F9195
->Accurately ripped! (confidence 46)
Statistics
Read error : 0
Skipped (treated as error) : 0
Edge jitter error (maybe fixed) : 0
Atom jitter error (maybe fixed) : 0
Drift error (maybe fixed) : 0
Dropped bytes error (maybe fixed) : 0
Duplicated bytes error (maybe fixed) : 0
Inconsistency in error sectors : 0

Track 13
Filename : /Users/gubarenko/Desktop/Eric Clapton - Eric Clapton/13 - Teasin'.flac

Pre-gap length : 00:02:43

CRC32 hash (test run) : A99BAFFA
CRC32 hash : A99BAFFA
CRC32 hash (skip zero) : 33368BA8
AccurateRip signature : 901F3CC8
->Accurately ripped! (confidence 46)
Statistics
Read error : 0
Skipped (treated as error) : 0
Edge jitter error (maybe fixed) : 0
Atom jitter error (maybe fixed) : 0
Drift error (maybe fixed) : 0
Dropped bytes error (maybe fixed) : 0
Duplicated bytes error (maybe fixed) : 0
Inconsistency in error sectors : 0

Track 14
Filename : /Users/gubarenko/Desktop/Eric Clapton - Eric Clapton/14 - She Rides (Let It Rain) (original version).flac

Pre-gap length : 00:02:42

CRC32 hash (test run) : B66EE762
CRC32 hash : B66EE762
CRC32 hash (skip zero) : 7D071F89
AccurateRip signature : CAD5384E
->Accurately ripped! (confidence 43)
Statistics
Read error : 0
Skipped (treated as error) : 0
Edge jitter error (maybe fixed) : 0
Atom jitter error (maybe fixed) : 0
Drift error (maybe fixed) : 0
Dropped bytes error (maybe fixed) : 0
Duplicated bytes error (maybe fixed) : 0
Inconsistency in error sectors : 0

No errors occurred

End of status report
[свернуть]

CD2

X Lossless Decoder version 20100218 (116.4)

XLD extraction logfile from 2010-02-27 18:46:26 +0500

Eric Clapton / Eric Clapton

Used drive : OPTIARC DVD RW AD-5670S (revision 2AHH)

Use cdparanoia mode : YES (CDParanoia III 10.2 engine)
Disable audio cache : OK for the drive with cache less than 2750KB
Make use of C2 pointers : NO
Read offset correction : 48
Max retry count : 100

TOC of the extracted CD
Track | Start | Length | Start sector | End sector
---------------------------------------------------------
1 | 00:00:00 | 03:35:63 | 0 | 16187
2 | 03:35:63 | 03:42:72 | 16188 | 32909
3 | 07:18:60 | 02:59:45 | 32910 | 46379
4 | 10:18:30 | 03:18:49 | 46380 | 61278
5 | 13:37:04 | 03:21:71 | 61279 | 76424
6 | 16:59:00 | 03:08:68 | 76425 | 90592
7 | 20:07:68 | 04:07:03 | 90593 | 109120
8 | 24:14:71 | 03:51:38 | 109121 | 126483
9 | 28:06:34 | 03:45:51 | 126484 | 143409
10 | 31:52:10 | 05:05:37 | 143410 | 166321
11 | 36:57:47 | 05:14:13 | 166322 | 189884
12 | 42:11:60 | 06:49:30 | 189885 | 220589
13 | 49:01:15 | 03:14:03 | 220590 | 235142
14 | 52:15:18 | 02:47:52 | 235143 | 247719


Track 01
Filename : /Users/gubarenko/Desktop/Eric Clapton - Eric Clapton/01 - Slunky.flac

Pre-gap length : 00:02:00

CRC32 hash (test run) : C8BD894D
CRC32 hash : C8BD894D
CRC32 hash (skip zero) : 73B62457
AccurateRip signature : A7440AF8
->Accurately ripped! (confidence 44)
Statistics
Read error : 0
Skipped (treated as error) : 0
Edge jitter error (maybe fixed) : 0
Atom jitter error (maybe fixed) : 0
Drift error (maybe fixed) : 0
Dropped bytes error (maybe fixed) : 0
Duplicated bytes error (maybe fixed) : 0
Inconsistency in error sectors : 0

Track 02
Filename : /Users/gubarenko/Desktop/Eric Clapton - Eric Clapton/02 - Bad Boy.flac

Pre-gap length : 00:02:05

CRC32 hash (test run) : 3DA7E969
CRC32 hash : 3DA7E969
CRC32 hash (skip zero) : EBF779D4
AccurateRip signature : 80240EB2
->Accurately ripped! (confidence 45)
Statistics
Read error : 0
Skipped (treated as error) : 0
Edge jitter error (maybe fixed) : 0
Atom jitter error (maybe fixed) : 0
Drift error (maybe fixed) : 0
Dropped bytes error (maybe fixed) : 0
Duplicated bytes error (maybe fixed) : 0
Inconsistency in error sectors : 0

Track 03
Filename : /Users/gubarenko/Desktop/Eric Clapton - Eric Clapton/03 - Easy Now.flac

Pre-gap length : 00:01:64

CRC32 hash (test run) : 19F32FA0
CRC32 hash : 19F32FA0
CRC32 hash (skip zero) : 263528AC
AccurateRip signature : FEE82B63
->Accurately ripped! (confidence 46)
Statistics
Read error : 0
Skipped (treated as error) : 0
Edge jitter error (maybe fixed) : 0
Atom jitter error (maybe fixed) : 0
Drift error (maybe fixed) : 0
Dropped bytes error (maybe fixed) : 0
Duplicated bytes error (maybe fixed) : 0
Inconsistency in error sectors : 0

Track 04
Filename : /Users/gubarenko/Desktop/Eric Clapton - Eric Clapton/04 - After Midnight.flac

Pre-gap length : 00:01:62

CRC32 hash (test run) : 458257FF
CRC32 hash : 458257FF
CRC32 hash (skip zero) : BB7451EB
AccurateRip signature : 4D67E386
->Accurately ripped! (confidence 47)
Statistics
Read error : 0
Skipped (treated as error) : 0
Edge jitter error (maybe fixed) : 0
Atom jitter error (maybe fixed) : 0
Drift error (maybe fixed) : 0
Dropped bytes error (maybe fixed) : 0
Duplicated bytes error (maybe fixed) : 0
Inconsistency in error sectors : 0

Track 05
Filename : /Users/gubarenko/Desktop/Eric Clapton - Eric Clapton/05 - Blues Power.flac

Pre-gap length : 00:01:44

CRC32 hash (test run) : A1E29543
CRC32 hash : A1E29543
CRC32 hash (skip zero) : D90ED80B
AccurateRip signature : E446C1A6
->Accurately ripped! (confidence 46)
Statistics
Read error : 0
Skipped (treated as error) : 0
Edge jitter error (maybe fixed) : 0
Atom jitter error (maybe fixed) : 0
Drift error (maybe fixed) : 0
Dropped bytes error (maybe fixed) : 0
Duplicated bytes error (maybe fixed) : 0
Inconsistency in error sectors : 0

Track 06
Filename : /Users/gubarenko/Desktop/Eric Clapton - Eric Clapton/06 - Bottle of Red Wine.flac

Pre-gap length : 00:02:43

CRC32 hash (test run) : 7488BF1C
CRC32 hash : 7488BF1C
CRC32 hash (skip zero) : 9654E468
AccurateRip signature : 63CFD10A
->Accurately ripped! (confidence 45)
Statistics
Read error : 0
Skipped (treated as error) : 0
Edge jitter error (maybe fixed) : 0
Atom jitter error (maybe fixed) : 0
Drift error (maybe fixed) : 0
Dropped bytes error (maybe fixed) : 0
Duplicated bytes error (maybe fixed) : 0
Inconsistency in error sectors : 0

Track 07
Filename : /Users/gubarenko/Desktop/Eric Clapton - Eric Clapton/07 - Lovin' You Lovin' Me.flac

Pre-gap length : 00:02:07

CRC32 hash (test run) : A6E5EC4E
CRC32 hash : A6E5EC4E
CRC32 hash (skip zero) : DCDAF8D9
AccurateRip signature : 21BCC88D
->Accurately ripped! (confidence 46)
Statistics
Read error : 0
Skipped (treated as error) : 0
Edge jitter error (maybe fixed) : 0
Atom jitter error (maybe fixed) : 0
Drift error (maybe fixed) : 0
Dropped bytes error (maybe fixed) : 0
Duplicated bytes error (maybe fixed) : 0
Inconsistency in error sectors : 0

Track 08
Filename : /Users/gubarenko/Desktop/Eric Clapton - Eric Clapton/08 - Lonesome and a Long Way From Home.flac

Pre-gap length : 00:03:12

CRC32 hash (test run) : A0FB2A48
CRC32 hash : A0FB2A48
CRC32 hash (skip zero) : 53E81DA0
AccurateRip signature : 9BFCADB8
->Accurately ripped! (confidence 46)
Statistics
Read error : 0
Skipped (treated as error) : 0
Edge jitter error (maybe fixed) : 0
Atom jitter error (maybe fixed) : 0
Drift error (maybe fixed) : 0
Dropped bytes error (maybe fixed) : 0
Duplicated bytes error (maybe fixed) : 0
Inconsistency in error sectors : 0

Track 09
Filename : /Users/gubarenko/Desktop/Eric Clapton - Eric Clapton/09 - Don't Know Why.flac

Pre-gap length : 00:03:35

CRC32 hash (test run) : DCBF741E
CRC32 hash : DCBF741E
CRC32 hash (skip zero) : 0A00BA83
AccurateRip signature : 8CF3F36A
->Accurately ripped! (confidence 46)
Statistics
Read error : 0
Skipped (treated as error) : 0
Edge jitter error (maybe fixed) : 0
Atom jitter error (maybe fixed) : 0
Drift error (maybe fixed) : 0
Dropped bytes error (maybe fixed) : 0
Duplicated bytes error (maybe fixed) : 0
Inconsistency in error sectors : 0

Track 10
Filename : /Users/gubarenko/Desktop/Eric Clapton - Eric Clapton/10 - Let It Rain.flac

Pre-gap length : 00:01:54

CRC32 hash (test run) : 3277D59D
CRC32 hash : 3277D59D
CRC32 hash (skip zero) : 9AE48DC3
AccurateRip signature : B18A88AB
->Accurately ripped! (confidence 46)
Statistics
Read error : 0
Skipped (treated as error) : 0
Edge jitter error (maybe fixed) : 0
Atom jitter error (maybe fixed) : 0
Drift error (maybe fixed) : 0
Dropped bytes error (maybe fixed) : 0
Duplicated bytes error (maybe fixed) : 0
Inconsistency in error sectors : 0

Track 11
Filename : /Users/gubarenko/Desktop/Eric Clapton - Eric Clapton/11 - Don't Know Why (Olympic Studios version).flac

Pre-gap length : 00:02:42

CRC32 hash (test run) : 215D2209
CRC32 hash : 215D2209
CRC32 hash (skip zero) : 5AB79715
AccurateRip signature : 86F68A10
->Accurately ripped! (confidence 46)
Statistics
Read error : 0
Skipped (treated as error) : 0
Edge jitter error (maybe fixed) : 0
Atom jitter error (maybe fixed) : 0
Drift error (maybe fixed) : 0
Dropped bytes error (maybe fixed) : 0
Duplicated bytes error (maybe fixed) : 0
Inconsistency in error sectors : 0

Track 12
Filename : /Users/gubarenko/Desktop/Eric Clapton - Eric Clapton/12 - I've Told You for the Last Time (Olympic Studios version).flac

Pre-gap length : 00:01:45

CRC32 hash (test run) : 3E0E8B57
CRC32 hash : 3E0E8B57
CRC32 hash (skip zero) : F0D4A2AF
AccurateRip signature : 90498429
->Accurately ripped! (confidence 46)
Statistics
Read error : 0
Skipped (treated as error) : 0
Edge jitter error (maybe fixed) : 0
Atom jitter error (maybe fixed) : 0
Drift error (maybe fixed) : 0
Dropped bytes error (maybe fixed) : 0
Duplicated bytes error (maybe fixed) : 0
Inconsistency in error sectors : 0

Track 13
Filename : /Users/gubarenko/Desktop/Eric Clapton - Eric Clapton/13 - Comin' Home.flac

Pre-gap length : 00:02:43

CRC32 hash (test run) : EF932633
CRC32 hash : EF932633
CRC32 hash (skip zero) : 12CEAEFA
AccurateRip signature : 7D62C009
->Accurately ripped! (confidence 47)
Statistics
Read error : 0
Skipped (treated as error) : 0
Edge jitter error (maybe fixed) : 0
Atom jitter error (maybe fixed) : 0
Drift error (maybe fixed) : 0
Dropped bytes error (maybe fixed) : 0
Duplicated bytes error (maybe fixed) : 0
Inconsistency in error sectors : 0

Track 14
Filename : /Users/gubarenko/Desktop/Eric Clapton - Eric Clapton/14 - Groupie (Superstar).flac

Pre-gap length : 00:01:53

CRC32 hash (test run) : 443822C0
CRC32 hash : 443822C0
CRC32 hash (skip zero) : B893608E
AccurateRip signature : E4D1A3A8
->Accurately ripped! (confidence 43)
Statistics
Read error : 0
Skipped (treated as error) : 0
Edge jitter error (maybe fixed) : 0
Atom jitter error (maybe fixed) : 0
Drift error (maybe fixed) : 0
Dropped bytes error (maybe fixed) : 0
Duplicated bytes error (maybe fixed) : 0
Inconsistency in error sectors : 0

No errors occurred

End of status report
[свернуть]
[свернуть]

Файл CUE

CD1

TITLE "Eric Clapton"
PERFORMER "Eric Clapton"
CATALOG 0602498396087
REM DATE "2006-05-23"
FILE "01 - Slunky.wav" WAVE
TRACK 01 AUDIO
TITLE "Slunky"
ISRC NLF057090017
INDEX 01 00:00:00
TRACK 02 AUDIO
TITLE "Bad Boy"
ISRC NLF057090018
INDEX 00 03:33:58
FILE "02 - Bad Boy.wav" WAVE
INDEX 01 00:00:00
TRACK 03 AUDIO
TITLE "Lonesome and a Long Way From Home"
ISRC NLF057090019
INDEX 00 03:33:57
FILE "03 - Lonesome and a Long Way From Home.wav" WAVE
INDEX 01 00:00:00
TRACK 04 AUDIO
TITLE "After Midnight"
ISRC NLF057090020
INDEX 00 03:29:52
FILE "04 - After Midnight.wav" WAVE
INDEX 01 00:00:00
TRACK 05 AUDIO
TITLE "Easy Now"
ISRC NLF057090021
INDEX 00 02:51:01
FILE "05 - Easy Now.wav" WAVE
INDEX 01 00:00:00
TRACK 06 AUDIO
TITLE "Blues Power"
ISRC NLF057090006
INDEX 00 02:57:10
FILE "06 - Blues Power.wav" WAVE
INDEX 01 00:00:00
TRACK 07 AUDIO
TITLE "Bottle of Red Wine"
ISRC NLF057090022
INDEX 00 03:09:04
FILE "07 - Bottle of Red Wine.wav" WAVE
INDEX 01 00:00:00
TRACK 08 AUDIO
TITLE "Lovin' You Lovin' Me"
ISRC NLF057090023
INDEX 00 03:06:37
FILE "08 - Lovin' You Lovin' Me.wav" WAVE
INDEX 01 00:00:00
TRACK 09 AUDIO
TITLE "I've Told You for the Last Time"
ISRC NLF057090024
INDEX 00 03:19:25
FILE "09 - I've Told You for the Last Time.wav" WAVE
INDEX 01 00:00:00
TRACK 10 AUDIO
TITLE "Don't Know Why"
ISRC NLF057090025
INDEX 00 02:30:36
FILE "10 - Don't Know Why.wav" WAVE
INDEX 01 00:00:00
TRACK 11 AUDIO
TITLE "Let It Rain"
ISRC NLF057090007
INDEX 00 03:10:29
FILE "11 - Let It Rain.wav" WAVE
INDEX 01 00:00:00
TRACK 12 AUDIO
TITLE "Blues in 'A' (session outtake)"
ISRC NLF050690008
INDEX 00 05:02:37
FILE "12 - Blues in 'A' (session outtake).wav" WAVE
INDEX 01 00:00:00
TRACK 13 AUDIO
TITLE "Teasin'"
ISRC USAT20501052
INDEX 00 10:25:22
FILE "13 - Teasin'.wav" WAVE
INDEX 01 00:00:00
TRACK 14 AUDIO
TITLE "She Rides (Let It Rain) (original version)"
ISRC NLF050690021
INDEX 00 02:14:13
FILE "14 - She Rides (Let It Rain) (original version).wav" WAVE
INDEX 01 00:00:00
[свернуть]

CD2

TITLE "Eric Clapton"
PERFORMER "Eric Clapton"
CATALOG 0602498396094
REM DATE "2006-05-23"
FILE "01 - Slunky.wav" WAVE
TRACK 01 AUDIO
TITLE "Slunky"
ISRC NLF050690009
INDEX 01 00:00:00
TRACK 02 AUDIO
TITLE "Bad Boy"
ISRC NLF050690010
INDEX 00 03:33:58
FILE "02 - Bad Boy.wav" WAVE
INDEX 01 00:00:00
TRACK 03 AUDIO
TITLE "Easy Now"
ISRC NLF050690011
INDEX 00 03:41:08
FILE "03 - Easy Now.wav" WAVE
INDEX 01 00:00:00
TRACK 04 AUDIO
TITLE "After Midnight"
ISRC NLF050690012
INDEX 00 02:57:58
FILE "04 - After Midnight.wav" WAVE
INDEX 01 00:00:00
TRACK 05 AUDIO
TITLE "Blues Power"
ISRC NLF050690013
INDEX 00 03:17:05
FILE "05 - Blues Power.wav" WAVE
INDEX 01 00:00:00
TRACK 06 AUDIO
TITLE "Bottle of Red Wine"
ISRC NLF050690014
INDEX 00 03:19:28
FILE "06 - Bottle of Red Wine.wav" WAVE
INDEX 01 00:00:00
TRACK 07 AUDIO
TITLE "Lovin' You Lovin' Me"
ISRC NLF050690015
INDEX 00 03:06:61
FILE "07 - Lovin' You Lovin' Me.wav" WAVE
INDEX 01 00:00:00
TRACK 08 AUDIO
TITLE "Lonesome and a Long Way From Home"
ISRC NLF050690016
INDEX 00 04:03:66
FILE "08 - Lonesome and a Long Way From Home.wav" WAVE
INDEX 01 00:00:00
TRACK 09 AUDIO
TITLE "Don't Know Why"
ISRC NLF050690017
INDEX 00 03:48:03
FILE "09 - Don't Know Why.wav" WAVE
INDEX 01 00:00:00
TRACK 10 AUDIO
TITLE "Let It Rain"
ISRC NLF050690018
INDEX 00 03:43:72
FILE "10 - Let It Rain.wav" WAVE
INDEX 01 00:00:00
TRACK 11 AUDIO
TITLE "Don't Know Why (Olympic Studios version)"
ISRC NLF050690019
INDEX 00 05:02:70
FILE "11 - Don't Know Why (Olympic Studios version).wav" WAVE
INDEX 01 00:00:00
TRACK 12 AUDIO
TITLE "I've Told You for the Last Time (Olympic Studios version)"
ISRC NLF050690020
INDEX 00 05:12:43
FILE "12 - I've Told You for the Last Time (Olympic Studios version).wav" WAVE
INDEX 01 00:00:00
TRACK 13 AUDIO
TITLE "Comin' Home"
ISRC USSM19910308
INDEX 00 06:46:62
FILE "13 - Comin' Home.wav" WAVE
INDEX 01 00:00:00
TRACK 14 AUDIO
TITLE "Groupie (Superstar)"
ISRC USSM19910304
INDEX 00 03:12:25
FILE "14 - Groupie (Superstar).wav" WAVE
INDEX 01 00:00:00
[свернуть]
[свернуть]

Лог проверки качества

CD1

AUDIOCHECKER v2.0 beta (build 457) - by Dester -
~~~~~~~~~~~~~~~~~~~~~~~~~~~~~~~~~~
-=== НЕ РЕДАКТИРУЙТЕ ЭТОТ ФАЙЛ! ===-

Путь: ...\CD1

01 -=- 01 - Slunky.flac -=- CDDA (100%)
02 -=- 02 - Bad Boy.flac -=- CDDA (100%)
03 -=- 03 - Lonesome and a Long Way From Home.flac -=- CDDA (100%)
04 -=- 04 - After Midnight.flac -=- CDDA (99%)
05 -=- 05 - Easy Now.flac -=- CDDA (99%)
06 -=- 06 - Blues Power.flac -=- CDDA (100%)
07 -=- 07 - Bottle of Red Wine.flac -=- CDDA (100%)
08 -=- 08 - Lovin' You Lovin' Me.flac -=- CDDA (100%)
09 -=- 09 - I've Told You for the Last Time.flac -=- CDDA (100%)
10 -=- 10 - Don't Know Why.flac -=- CDDA (100%)
11 -=- 11 - Let It Rain.flac -=- CDDA (100%)
12 -=- 12 - Blues in 'A' (session outtake).flac -=- CDDA (100%)
13 -=- 13 - Teasin'.flac -=- CDDA (100%)
14 -=- 14 - She Rides (Let It Rain) (original version).flac -=- CDDA (100%)

Сводка 99,86% CDDA

170437860
[свернуть]

CD2

AUDIOCHECKER v2.0 beta (build 457) - by Dester -
~~~~~~~~~~~~~~~~~~~~~~~~~~~~~~~~~~
-=== НЕ РЕДАКТИРУЙТЕ ЭТОТ ФАЙЛ! ===-

Путь: ...\CD2

01 -=- 01 - Slunky.flac -=- CDDA (100%)
02 -=- 02 - Bad Boy.flac -=- CDDA (100%)
03 -=- 03 - Easy Now.flac -=- CDDA (100%)
04 -=- 04 - After Midnight.flac -=- CDDA (100%)
05 -=- 05 - Blues Power.flac -=- CDDA (100%)
06 -=- 06 - Bottle of Red Wine.flac -=- CDDA (100%)
07 -=- 07 - Lovin' You Lovin' Me.flac -=- CDDA (100%)
08 -=- 08 - Lonesome and a Long Way From Home.flac -=- CDDA (100%)
09 -=- 09 - Don't Know Why.flac -=- CDDA (100%)
10 -=- 10 - Let It Rain.flac -=- CDDA (100%)
11 -=- 11 - Don't Know Why (Olympic Studios version).flac -=- CDDA (100%)
12 -=- 12 - I've Told You for the Last Time (Olympic Studios version).flac -=- CDDA (100%)
13 -=- 13 - Comin' Home.flac -=- CDDA (99%)
14 -=- 14 - Groupie (Superstar).flac -=- CDDA (100%)

Сводка 99,93% CDDA

7975732
[свернуть]
[свернуть]

Скачать Eric Clapton - Eric Clapton



password: sergych
[свернуть]
My opinion of release: 10/10
__________________
TAIFUN.Wings of Soul

Вверх
Похожие темы
Тема Автор Раздел Ответов Последнее сообщение
Сборник Eric Clapton - The Cream of Clapton sergych Blues Rock 0 01.01.2014 11:38
Сборник Eric Clapton - Lexus Presents. Clapton Unleaded sergych Blues Rock 0 31.12.2013 20:21
Альбом Eric Clapton - Clapton rus.lan Blues Rock 1 21.05.2013 13:48
Альбом Eric Clapton - E.C. Was Here PUPOKIN Blues Rock 0 20.01.2009 10:44


Метки
2006 , blues , blues rock , british blues , electric blues , eric clapton , eric clapton {deluxe edition japan shm-cd} , soul blues

Опции темы

Ваши права в разделе
Вы не можете создавать новые темы
Вы не можете отвечать в темах
Вы не можете прикреплять вложения
Вы не можете редактировать свои сообщения

Быстрый переход



Текущее время: 17:32. Часовой пояс GMT +3.
Powered by vBulletin® Version 3.8.10
Copyright ©2000 - 2017, vBulletin Solutions, Inc. Перевод: zCarot
© 2008 - 2017 Taifun With Song
Яндекс.Метрика