TAIFUN With Song
Вернуться   TAIFUN With Song > Music (обменник) > Rock > Blues Rock
Расширенный поиск
Blues Rock К концу сороковых годов прошлого столетия в блюзе окончательно обосновалась электрогитара. Трудно сказать, что подтолкнуло многих блюзменов перейти с привычной акустической гитары на электрическую, но блюз с тех пор очень сильно изменился.

А знаете ли Вы, что...
Почему в английском хит-параде 1965 года песню ‘Yesterday’ исполняли не Beatles?
«Когда Пол Маккартни записывал песню ‘Yesterday’, профессиональные музыканты из аккомпанирующего ему струнного квартета назвали композицию семитактным неквадратным построением и сказали, что музыку так не пишут.»
 
Опции темы

  #1
Старый 01.01.2014, 12:38
sergych
Координатор
Досье
 
Аватар для sergych
Релиз Eric Clapton - The Cream of Clapton


1995 - Eric Clapton - The Cream of Clapton




Исполнитель/Artist: Eric Clapton
Альбом/Album: The Cream of Clapton
Год/Year: 1995
Жанр/Genre: Blues rock, rock
Страна/Country: Соединённые Штаты
Рекорд-лейбл/Record label: Polydor
Номер в каталоге/Catalogue #: 31452 7116-2
Формат/Format: Free Lossless Audio Codec (*.flac)
Качество/Quality: Lossless
Тип рипа/RIP Type: image+.cue
Продолжительность/Length: 01:19:12
Источник/Source: Собственный рип
Размер/Size: 566.5 MB

Сканы в комплекте

Треклист

01. Cream / I Feel Free [0:02:52.70]
02. Cream / Sunshine of Your Love [0:04:11.63]
03. Cream / White Room [0:05:00.35]
04. Cream / Crossroads [0:04:16.47]
05. Cream / Badge [0:02:46.53]
06. Blind Faith / Presence of the Lord [0:04:50.25]
07. Blues Power [0:03:10.55]
08. After Midnight [0:02:53.60]
09. Let It Rain [0:05:03.70]
10. Derek and the Dominos / Bell Bottom Blues [0:05:03.40]
11. Derek and the Dominos / Layla [0:07:05.47]
12. I Shot the Sheriff [0:04:24.08]
13. Let It Grow [0:05:00.22]
14. Knockin' on Heaven's Door [0:04:23.18]
15. Hello Old Friend [0:03:36.22]
16. Cocaine [0:03:39.53]
17. Wonderful Tonight [0:03:42.05]
18. Promises [0:03:01.17]
19. I Can't Stand It [0:04:09.25]
[свернуть]

youtube.com

[свернуть]

EAC лог

Exact Audio Copy V1.0 beta 3 from 29. August 2011

EAC extraction logfile from 1. January 2014, 13:33

Eric Clapton / The Cream of Clapton

Used drive : ATAPI iHAS124 D Adapter: 0 ID: 2

Read mode : Secure
Utilize accurate stream : Yes
Defeat audio cache : Yes
Make use of C2 pointers : Yes

Read offset correction : 6
Overread into Lead-In and Lead-Out : No
Fill up missing offset samples with silence : Yes
Delete leading and trailing silent blocks : No
Null samples used in CRC calculations : Yes
Used interface : Installed external ASPI interface

Used output format : User Defined Encoder
Selected bitrate : 1024 kBit/s
Quality : High
Add ID3 tag : No
Command line compressor : C:\Program Files (x86)\Exact Audio Copy\Flac\flac.exe
Additional command line options : -6 -V -T "ARTIST=%artist%" -T "TITLE=%title%" -T "ALBUM=%albumtitle%" -T "DATE=%year%" -T "TRACKNUMBER=%tracknr%" -T "GENRE=%genre%" -T "COMMENT=%comment%" -T "BAND=%albuminterpret%" -T "COMPOSER=%composer%" %haslyrics%--tag-from-file=LYRICS="%lyricsfile%"%haslyrics% -T "DISCNUMBER=%cdnumber%" -T "TOTALDISCS=%totalcds%" -T "TOTALTRACKS=%numtracks%" %hascover%--picture="%coverfile%"%hascover% %source% -o %dest%


TOC of the extracted CD

Track | Start | Length | Start sector | End sector
---------------------------------------------------------
1 | 0:00.00 | 2:52.70 | 0 | 12969
2 | 2:52.70 | 4:11.63 | 12970 | 31857
3 | 7:04.58 | 5:00.35 | 31858 | 54392
4 | 12:05.18 | 4:16.47 | 54393 | 73639
5 | 16:21.65 | 2:46.53 | 73640 | 86142
6 | 19:08.43 | 4:50.25 | 86143 | 107917
7 | 23:58.68 | 3:10.55 | 107918 | 122222
8 | 27:09.48 | 2:53.60 | 122223 | 135257
9 | 30:03.33 | 5:03.70 | 135258 | 158052
10 | 35:07.28 | 5:03.40 | 158053 | 180817
11 | 40:10.68 | 7:05.47 | 180818 | 212739
12 | 47:16.40 | 4:24.08 | 212740 | 232547
13 | 51:40.48 | 5:00.22 | 232548 | 255069
14 | 56:40.70 | 4:23.18 | 255070 | 274812
15 | 61:04.13 | 3:36.22 | 274813 | 291034
16 | 64:40.35 | 3:39.53 | 291035 | 307512
17 | 68:20.13 | 3:42.05 | 307513 | 324167
18 | 72:02.18 | 3:01.17 | 324168 | 337759
19 | 75:03.35 | 4:09.25 | 337760 | 356459


Range status and errors

Selected range

Filename C:\mm\Eric Clapton\1995 - The Cream Of Clapton (Promo) [31452 7116-2]\Eric Clapton - The Cream of Clapton.wav

Peak level 100.0 %
Extraction speed 15.6 X
Range quality 100.0 %
Test CRC CEEF5D45
Copy CRC CEEF5D45
Copy OK

No errors occurred


AccurateRip summary

Track 1 accurately ripped (confidence 29) [8EEEBB57] (AR v2)
Track 2 accurately ripped (confidence 29) [88EA3F8A] (AR v2)
Track 3 accurately ripped (confidence 29) [5F50B093] (AR v2)
Track 4 accurately ripped (confidence 29) [79F7A479] (AR v2)
Track 5 accurately ripped (confidence 29) [CBED6E88] (AR v2)
Track 6 accurately ripped (confidence 27) [4FD3DBCE] (AR v2)
Track 7 accurately ripped (confidence 28) [196F7481] (AR v2)
Track 8 accurately ripped (confidence 28) [A42ED26E] (AR v2)
Track 9 accurately ripped (confidence 28) [0F4EA946] (AR v2)
Track 10 accurately ripped (confidence 26) [E2DFF8F0] (AR v2)
Track 11 accurately ripped (confidence 28) [F6E06D12] (AR v2)
Track 12 accurately ripped (confidence 28) [9C5C9221] (AR v2)
Track 13 accurately ripped (confidence 28) [FA405430] (AR v2)
Track 14 accurately ripped (confidence 28) [50F168DD] (AR v2)
Track 15 accurately ripped (confidence 27) [B4F99D80] (AR v2)
Track 16 accurately ripped (confidence 29) [69C8E314] (AR v2)
Track 17 accurately ripped (confidence 27) [71ADC114] (AR v2)
Track 18 accurately ripped (confidence 27) [12224373] (AR v2)
Track 19 accurately ripped (confidence 24) [88A1E1AC] (AR v2)

All tracks accurately ripped

End of status report
[свернуть]

Файл CUE

REM DATE 1994
REM DISCID EC129013
REM COMMENT "ExactAudioCopy v1.0b3"
PERFORMER "Eric Clapton"
TITLE "The Cream of Clapton"
FILE "Eric Clapton - The Cream of Clapton.flac" WAVE
TRACK 01 AUDIO
TITLE "I Feel Free"
PERFORMER "Cream"
INDEX 01 00:00:00
TRACK 02 AUDIO
TITLE "Sunshine of Your Love"
PERFORMER "Cream"
INDEX 00 02:51:35
INDEX 01 02:52:70
TRACK 03 AUDIO
TITLE "White Room"
PERFORMER "Cream"
INDEX 00 07:03:45
INDEX 01 07:04:58
TRACK 04 AUDIO
TITLE "Crossroads"
PERFORMER "Cream"
INDEX 00 12:02:55
INDEX 01 12:05:18
TRACK 05 AUDIO
TITLE "Badge"
PERFORMER "Cream"
INDEX 00 16:20:60
INDEX 01 16:21:65
TRACK 06 AUDIO
TITLE "Presence of the Lord"
PERFORMER "Blind Faith"
INDEX 00 19:06:35
INDEX 01 19:08:43
TRACK 07 AUDIO
TITLE "Blues Power"
PERFORMER "Eric Clapton"
INDEX 00 23:57:20
INDEX 01 23:58:68
TRACK 08 AUDIO
TITLE "After Midnight"
PERFORMER "Eric Clapton"
INDEX 00 27:07:45
INDEX 01 27:09:48
TRACK 09 AUDIO
TITLE "Let It Rain"
PERFORMER "Eric Clapton"
INDEX 00 30:00:28
INDEX 01 30:03:33
TRACK 10 AUDIO
TITLE "Bell Bottom Blues"
PERFORMER "Derek and the Dominos"
INDEX 00 35:04:35
INDEX 01 35:07:28
TRACK 11 AUDIO
TITLE "Layla"
PERFORMER "Derek and the Dominos"
INDEX 00 40:08:30
INDEX 01 40:10:68
TRACK 12 AUDIO
TITLE "I Shot the Sheriff"
PERFORMER "Eric Clapton"
INDEX 00 47:13:60
INDEX 01 47:16:40
TRACK 13 AUDIO
TITLE "Let It Grow"
PERFORMER "Eric Clapton"
INDEX 00 51:39:70
INDEX 01 51:40:48
TRACK 14 AUDIO
TITLE "Knockin' on Heaven's Door"
PERFORMER "Eric Clapton"
INDEX 00 56:38:40
INDEX 01 56:40:70
TRACK 15 AUDIO
TITLE "Hello Old Friend"
PERFORMER "Eric Clapton"
INDEX 00 61:02:60
INDEX 01 61:04:13
TRACK 16 AUDIO
TITLE "Cocaine"
PERFORMER "Eric Clapton"
INDEX 00 64:39:00
INDEX 01 64:40:35
TRACK 17 AUDIO
TITLE "Wonderful Tonight"
PERFORMER "Eric Clapton"
INDEX 00 68:19:50
INDEX 01 68:20:13
TRACK 18 AUDIO
TITLE "Promises"
PERFORMER "Eric Clapton"
INDEX 00 72:02:10
INDEX 01 72:02:18
TRACK 19 AUDIO
TITLE "I Can't Stand It"
PERFORMER "Eric Clapton"
INDEX 00 75:03:30
INDEX 01 75:03:35
[свернуть]

Лог проверки качества

AUDIOCHECKER v2.0 beta (build 457) - by Dester - [Ссылки могут видеть только зарегистрированные пользователи. ]
~~~~~~~~~~~~~~~~~~~~~~~~~~~~~~~~~~
-=== НЕ РЕДАКТИРУЙТЕ ЭТОТ ФАЙЛ! ===-

Путь: ...\1995 - The Cream Of Clapton (Promo) [31452 7116-2]

1 -=- Eric Clapton - The Cream of Clapton.flac -=- CDDA (100%)

90580052
[свернуть]

Спектр частот

[свернуть]

Скачать Eric Clapton - The Cream of Clapton

[Ссылки могут видеть только зарегистрированные пользователи. ]

password: sergych
[свернуть]
My opinion of release: 9/10
__________________
TAIFUN.Wings of Soul

Вверх
Похожие темы
Тема Автор Раздел Ответов Последнее сообщение
Альбом Eric Clapton - Reptile sergych Blues Rock 0 01.01.2014 00:22
Сборник Eric Clapton - Lexus Presents. Clapton Unleaded sergych Blues Rock 0 31.12.2013 21:21
Альбом Eric Clapton - Clapton rus.lan Blues Rock 1 21.05.2013 13:48
Альбом Eric Clapton - E.C. Was Here PUPOKIN Blues Rock 0 20.01.2009 10:44


Метки
1995 , blues rock , eric clapton , rock , the cream of clapton

Опции темы

Ваши права в разделе
Вы не можете создавать новые темы
Вы не можете отвечать в темах
Вы не можете прикреплять вложения
Вы не можете редактировать свои сообщения

Быстрый переход



Текущее время: 20:15. Часовой пояс GMT +3.
Powered by vBulletin® Version 3.8.7
Copyright ©2000 - 2017, vBulletin Solutions, Inc. Перевод: zCarot
© 2008 - 2017 Taifun With Song
Яндекс.Метрика