TAIFUN With Song
Вернуться   TAIFUN With Song > Music (обменник) > Rock > Blues Rock
Расширенный поиск
Blues Rock К концу сороковых годов прошлого столетия в блюзе окончательно обосновалась электрогитара. Трудно сказать, что подтолкнуло многих блюзменов перейти с привычной акустической гитары на электрическую, но блюз с тех пор очень сильно изменился.

А знаете ли Вы, что...
Почему песня «Nothing Else Matters» начинается перебором на открытых струнах?
«В начале песни «Nothing Else Matters» группы Metallica слышен перебор на открытых первой, второй, третьей и шестой струнах. Такое композиционное решение появилось благодаря тому, что её автор Джеймс Хэтфилд, когда начинал сочинять песню, одной рукой держал телефонную трубку и разговаривал со своей девушкой.»
 
Опции темы

  #1
Старый 31.12.2013, 21:21
sergych
Координатор
Досье
 
Аватар для sergych
Релиз Eric Clapton - Lexus Presents. Clapton Unleaded


1998 - Eric Clapton - Lexus Presents. Clapton Unleaded




Исполнитель/Artist: Eric Clapton
Альбом/Album: Lexus Presents. Clapton Unleaded
Год/Year: 1998
Жанр/Genre: blues, Blues rock, rock
Страна/Country: Соединённые Штаты
Рекорд-лейбл/Record label: PolyMedia
Номер в каталоге/Catalogue #: DPSM 5250
Формат/Format: Free Lossless Audio Codec (*.flac)
Качество/Quality: Lossless
Тип рипа/RIP Type: image+.cue
Продолжительность/Length: 00:52:36
Источник/Source: Собственный рип
Размер/Size: 408.9 MB

Сканы в комплекте

Треклист

01. Badge [0:02:45.00]
02. After Midgnight [0:02:52.15]
03. Let it Rain [0:05:03.10]
04. Bell Bottom Blues [0:05:02.20]
05. Tell the Truth [0:06:39.68]
06. Layla [0:07:04.60]
07. Let it Grow [0:04:57.22]
08. Give Me Strength [0:02:52.73]
09. Hello Old Friend [0:03:35.02]
10. Wonderful Tonight [0:03:41.73]
11. Lay Down Sally [0:03:52.22]
12. I Can't Stand it [0:04:09.13]
[свернуть]

youtube.com

[свернуть]

EAC лог

Exact Audio Copy V1.0 beta 3 from 29. August 2011

EAC extraction logfile from 31. December 2013, 22:31

Eric Clapton / Lexus Presents - Clapton Unleaded

Used drive : ATAPI iHAS124 D Adapter: 0 ID: 2

Read mode : Secure
Utilize accurate stream : Yes
Defeat audio cache : Yes
Make use of C2 pointers : Yes

Read offset correction : 6
Overread into Lead-In and Lead-Out : No
Fill up missing offset samples with silence : Yes
Delete leading and trailing silent blocks : No
Null samples used in CRC calculations : Yes
Used interface : Installed external ASPI interface

Used output format : User Defined Encoder
Selected bitrate : 1024 kBit/s
Quality : High
Add ID3 tag : No
Command line compressor : C:\Program Files (x86)\Exact Audio Copy\Flac\flac.exe
Additional command line options : -6 -V -T "ARTIST=%artist%" -T "TITLE=%title%" -T "ALBUM=%albumtitle%" -T "DATE=%year%" -T "TRACKNUMBER=%tracknr%" -T "GENRE=%genre%" -T "COMMENT=%comment%" -T "BAND=%albuminterpret%" -T "COMPOSER=%composer%" %haslyrics%--tag-from-file=LYRICS="%lyricsfile%"%haslyrics% -T "DISCNUMBER=%cdnumber%" -T "TOTALDISCS=%totalcds%" -T "TOTALTRACKS=%numtracks%" %hascover%--picture="%coverfile%"%hascover% %source% -o %dest%


TOC of the extracted CD

Track | Start | Length | Start sector | End sector
---------------------------------------------------------
1 | 0:00.32 | 2:45.00 | 32 | 12406
2 | 2:45.32 | 2:52.15 | 12407 | 25321
3 | 5:37.47 | 5:03.10 | 25322 | 48056
4 | 10:40.57 | 5:02.20 | 48057 | 70726
5 | 15:43.02 | 6:39.68 | 70727 | 100719
6 | 22:22.70 | 7:04.60 | 100720 | 132579
7 | 29:27.55 | 4:57.22 | 132580 | 154876
8 | 34:25.02 | 2:52.73 | 154877 | 167849
9 | 37:18.00 | 3:35.02 | 167850 | 183976
10 | 40:53.02 | 3:41.73 | 183977 | 200624
11 | 44:35.00 | 3:52.22 | 200625 | 218046
12 | 48:27.22 | 4:09.13 | 218047 | 236734


Range status and errors

Selected range

Filename C:\mm\Eric Clapton\1998 - Clapton Unleaded\Eric Clapton - Lexus Presents - Clapton Unleaded.wav

Peak level 100.0 %
Extraction speed 4.7 X
Range quality 100.0 %
Test CRC B109D6C3
Copy CRC B109D6C3
Copy OK

No errors occurred


AccurateRip summary

Track 1 accurately ripped (confidence 3) [B7E67E39] (AR v1)
Track 2 accurately ripped (confidence 4) [9DF21DC5] (AR v1)
Track 3 accurately ripped (confidence 4) [F2D600C6] (AR v1)
Track 4 accurately ripped (confidence 2) [DE2C0557] (AR v1)
Track 5 accurately ripped (confidence 2) [D96E522C] (AR v1)
Track 6 accurately ripped (confidence 4) [E827E8C1] (AR v1)
Track 7 accurately ripped (confidence 3) [5A4FF779] (AR v1)
Track 8 accurately ripped (confidence 2) [BE24A56D] (AR v1)
Track 9 accurately ripped (confidence 3) [629F5190] (AR v1)
Track 10 accurately ripped (confidence 3) [E3085C02] (AR v1)
Track 11 accurately ripped (confidence 4) [DBC0CA60] (AR v1)
Track 12 accurately ripped (confidence 4) [0F79E03E] (AR v1)

All tracks accurately ripped

End of status report
[свернуть]

Файл CUE

REM GENRE Rock
REM DATE 1998
REM DISCID B10C540C
REM COMMENT "ExactAudioCopy v1.0b3"
PERFORMER "Eric Clapton"
TITLE "Lexus Presents - Clapton Unleaded"
FILE "Eric Clapton - Lexus Presents - Clapton Unleaded.flac" WAVE
TRACK 01 AUDIO
TITLE "Badge"
PERFORMER "Eric Clapton"
INDEX 00 00:00:00
INDEX 01 00:00:32
TRACK 02 AUDIO
TITLE "After Midgnight"
PERFORMER "Eric Clapton"
INDEX 00 02:45:05
INDEX 01 02:45:32
TRACK 03 AUDIO
TITLE "Let it Rain"
PERFORMER "Eric Clapton"
INDEX 00 05:36:40
INDEX 01 05:37:47
TRACK 04 AUDIO
TITLE "Bell Bottom Blues"
PERFORMER "Eric Clapton"
INDEX 00 10:39:50
INDEX 01 10:40:57
TRACK 05 AUDIO
TITLE "Tell the Truth"
PERFORMER "Eric Clapton"
INDEX 00 15:42:07
INDEX 01 15:43:02
TRACK 06 AUDIO
TITLE "Layla"
PERFORMER "Eric Clapton"
INDEX 00 22:21:52
INDEX 01 22:22:70
TRACK 07 AUDIO
TITLE "Let it Grow"
PERFORMER "Eric Clapton"
INDEX 00 29:26:40
INDEX 01 29:27:55
TRACK 08 AUDIO
TITLE "Give Me Strength"
PERFORMER "Eric Clapton"
INDEX 00 34:24:32
INDEX 01 34:25:02
TRACK 09 AUDIO
TITLE "Hello Old Friend"
PERFORMER "Eric Clapton"
INDEX 00 37:17:02
INDEX 01 37:18:00
TRACK 10 AUDIO
TITLE "Wonderful Tonight"
PERFORMER "Eric Clapton"
INDEX 00 40:52:55
INDEX 01 40:53:02
TRACK 11 AUDIO
TITLE "Lay Down Sally"
PERFORMER "Eric Clapton"
INDEX 00 44:34:67
INDEX 01 44:35:00
TRACK 12 AUDIO
TITLE "I Can't Stand it"
PERFORMER "Eric Clapton"
INDEX 00 48:27:15
INDEX 01 48:27:22
[свернуть]

Лог проверки качества

AUDIOCHECKER v2.0 beta (build 457) - by Dester - [Ссылки могут видеть только зарегистрированные пользователи. ]
~~~~~~~~~~~~~~~~~~~~~~~~~~~~~~~~~~
-=== НЕ РЕДАКТИРУЙТЕ ЭТОТ ФАЙЛ! ===-

Путь: ...\1998 - Clapton Unleaded

1 -=- Eric Clapton - Lexus Presents - Clapton Unleaded.flac -=- CDDA (100%)

101709188
[свернуть]

Спектр частот

[свернуть]

Скачать Eric Clapton - Lexus Presents. Clapton Unleaded

[Ссылки могут видеть только зарегистрированные пользователи. ]

password: sergych
[свернуть]
My opinion of release: 10/10
__________________
TAIFUN.Wings of Soul

Вверх
Похожие темы
Тема Автор Раздел Ответов Последнее сообщение
Альбом Eric Clapton - Clapton rus.lan Blues Rock 1 21.05.2013 13:48
Релиз Eric Clapton - Old Sock sergych Blues Rock 0 16.05.2013 14:11
Альбом Eric Clapton - With A Little Help From My Friends PUPOKIN Blues Rock 0 09.01.2010 12:42
Альбом Eric Clapton - E.C. Was Here PUPOKIN Blues Rock 0 20.01.2009 10:44


Метки
1998 , blues , blues rock , eric clapton , lexus presents. clapton unleaded , rock

Опции темы

Ваши права в разделе
Вы не можете создавать новые темы
Вы не можете отвечать в темах
Вы не можете прикреплять вложения
Вы не можете редактировать свои сообщения

Быстрый переход



Текущее время: 20:15. Часовой пояс GMT +3.
Powered by vBulletin® Version 3.8.7
Copyright ©2000 - 2017, vBulletin Solutions, Inc. Перевод: zCarot
© 2008 - 2017 Taifun With Song
Яндекс.Метрика