TAIFUN With Song
Саундтреки Саундтреки к фильмам, анимации, играм, сериалам

А знаете ли Вы, что...
Какой отработанный медицинский материал использовался советскими изготовителями кустарных пластинок?
«В СССР для изготовления кустарных пластинок, на которые записывалась нелегальная музыка, широко использовали старые рентгеновские снимки. Их называли «пластинки на костях» или «пластинки на рёбрах». Этот материал обходился бесплатно, медперсонал даже благодарил тех, кто помогал разгружать архивы.»
 
Опции темы

  #1
Старый 30.11.2013, 23:10
sergych
Координатор
Досье
 
Аватар для sergych
Релиз Mark Knopfler - Last Exit to Brooklyn


1997 - Mark Knopfler - Last Exit to Brooklyn




Исполнитель/Artist: Mark Knopfler
Альбом/Album: Last Exit to Brooklyn
Год/Year: 1997
Жанр/Genre: instrumental
Страна/Country: Германия
Рекорд-лейбл/Record label: Vertigo / Mercury Records
Номер в каталоге/Catalogue #: 838 725-2
Формат/Format: Free Lossless Audio Codec (*.flac)
Качество/Quality: Lossless
Тип рипа/RIP Type: image+.cue
Продолжительность/Length: 00:41:23
Источник/Source: Собственный рип
Размер/Size: 298.1 MB

Сканы в комплекте

Треклист

01. Last Exit to Brooklyn [0:05:03.10]
02. Victims [0:03:31.65]
03. Think Fast [0:02:46.65]
04. A Love Idea [0:03:05.03]
05. Tralala [0:05:32.17]
06. Riot [0:06:22.13]
07. The Reckoning [0:07:12.50]
08. As Low as it Gets [0:01:29.70]
09. Finale: Last Exit to Brooklyn [0:06:19.22]
[свернуть]

youtube.com

[свернуть]

EAC лог

Exact Audio Copy V1.0 beta 3 from 29. August 2011

EAC extraction logfile from 1. December 2013, 0:37

Mark Knopfler / Last Exit to Brooklyn

Used drive : ATAPI iHAS124 D Adapter: 0 ID: 2

Read mode : Secure
Utilize accurate stream : Yes
Defeat audio cache : Yes
Make use of C2 pointers : No

Read offset correction : 6
Overread into Lead-In and Lead-Out : No
Fill up missing offset samples with silence : Yes
Delete leading and trailing silent blocks : No
Null samples used in CRC calculations : Yes
Used interface : Installed external ASPI interface

Used output format : User Defined Encoder
Selected bitrate : 1024 kBit/s
Quality : High
Add ID3 tag : No
Command line compressor : C:\Program Files (x86)\Exact Audio Copy\Flac\flac.exe
Additional command line options : -6 -V -T "ARTIST=%artist%" -T "TITLE=%title%" -T "ALBUM=%albumtitle%" -T "DATE=%year%" -T "TRACKNUMBER=%tracknr%" -T "GENRE=%genre%" -T "COMMENT=%comment%" -T "BAND=%albuminterpret%" -T "COMPOSER=%composer%" %haslyrics%--tag-from-file=LYRICS="%lyricsfile%"%haslyrics% -T "DISCNUMBER=%cdnumber%" -T "TOTALDISCS=%totalcds%" -T "TOTALTRACKS=%numtracks%" %hascover%--picture="%coverfile%"%hascover% %source% -o %dest%


TOC of the extracted CD

Track | Start | Length | Start sector | End sector
---------------------------------------------------------
1 | 0:00.32 | 5:03.10 | 32 | 22766
2 | 5:03.42 | 3:31.65 | 22767 | 38656
3 | 8:35.32 | 2:46.65 | 38657 | 51171
4 | 11:22.22 | 3:05.03 | 51172 | 65049
5 | 14:27.25 | 5:32.17 | 65050 | 89966
6 | 19:59.42 | 6:22.13 | 89967 | 118629
7 | 26:21.55 | 7:12.50 | 118630 | 151079
8 | 33:34.30 | 1:29.70 | 151080 | 157824
9 | 35:04.25 | 6:19.22 | 157825 | 186271


Range status and errors

Selected range

Filename D:\MultiMedia\Mp3\_Redo\_ENG\Dire Straits\Mark Knopfler\1997 - Last Exit To Brooklyn [838 725-2]\Mark Knopfler - Last Exit to Brooklyn.wav

Peak level 96.6 %
Extraction speed 3.0 X
Range quality 100.0 %
Test CRC 893BE82A
Copy CRC 893BE82A
Copy OK

No errors occurred


AccurateRip summary

Track 1 accurately ripped (confidence 26) [BDD01413] (AR v2)
Track 2 accurately ripped (confidence 26) [96BFE885] (AR v2)
Track 3 accurately ripped (confidence 26) [31113263] (AR v2)
Track 4 accurately ripped (confidence 26) [89237862] (AR v2)
Track 5 accurately ripped (confidence 26) [EED4C7EA] (AR v2)
Track 6 accurately ripped (confidence 26) [22C701AE] (AR v2)
Track 7 accurately ripped (confidence 26) [AA8EB280] (AR v2)
Track 8 accurately ripped (confidence 26) [199255F6] (AR v2)
Track 9 accurately ripped (confidence 26) [B06AB4FF] (AR v2)

All tracks accurately ripped

End of status report
[свернуть]

Файл CUE

REM DATE 1989
REM DISCID 6709B309
REM COMMENT "ExactAudioCopy v1.0b3"
PERFORMER "Mark Knopfler"
TITLE "Last Exit to Brooklyn"
FILE "Mark Knopfler - Last Exit to Brooklyn.flac" WAVE
TRACK 01 AUDIO
TITLE "Last Exit to Brooklyn"
PERFORMER "Mark Knopfler"
INDEX 00 00:00:00
INDEX 01 00:00:32
TRACK 02 AUDIO
TITLE "Victims"
PERFORMER "Mark Knopfler"
INDEX 00 05:00:40
INDEX 01 05:03:42
TRACK 03 AUDIO
TITLE "Think Fast"
PERFORMER "Mark Knopfler"
INDEX 00 08:33:67
INDEX 01 08:35:32
TRACK 04 AUDIO
TITLE "A Love Idea"
PERFORMER "Mark Knopfler"
INDEX 00 11:21:35
INDEX 01 11:22:22
TRACK 05 AUDIO
TITLE "Tralala"
PERFORMER "Mark Knopfler"
INDEX 00 14:26:50
INDEX 01 14:27:25
TRACK 06 AUDIO
TITLE "Riot"
PERFORMER "Mark Knopfler"
INDEX 00 19:56:15
INDEX 01 19:59:42
TRACK 07 AUDIO
TITLE "The Reckoning"
PERFORMER "Mark Knopfler"
INDEX 00 26:20:30
INDEX 01 26:21:55
TRACK 08 AUDIO
TITLE "As Low as it Gets"
PERFORMER "Mark Knopfler"
INDEX 00 33:33:40
INDEX 01 33:34:30
TRACK 09 AUDIO
TITLE "Finale: Last Exit to Brooklyn"
PERFORMER "Mark Knopfler"
INDEX 00 35:03:12
INDEX 01 35:04:25
[свернуть]

Лог проверки качества

AUDIOCHECKER v2.0 beta (build 457) - by Dester -
~~~~~~~~~~~~~~~~~~~~~~~~~~~~~~~~~~
-=== НЕ РЕДАКТИРУЙТЕ ЭТОТ ФАЙЛ! ===-

Путь: ...\1997 - Last Exit To Brooklyn [838 725-2]

1 -=- Mark Knopfler - Last Exit to Brooklyn.flac -=- CDDA (100%)

89590484
[свернуть]

Спектр частот

[свернуть]

Скачать Mark Knopfler - Last Exit to Brooklyn



password: sergych
[свернуть]
My opinion of release: 10/10
__________________
TAIFUN.Wings of Soul

Вверх
Похожие темы
Тема Автор Раздел Ответов Последнее сообщение
Альбом Mark Knopfler - Privateering sergych Blues Rock 0 12.09.2012 12:14
Саундтрек Wag The Dog (music by Mark Knopfler) sergych Саундтреки 0 26.08.2012 01:40
Саундтрек Cal (music by Mark Knopfler) sergych Саундтреки 0 16.09.2010 11:40
Сборник Mark Knopfler - Screenplaying sergych Blues Rock 0 23.07.2010 18:25


Метки
1997 , instrumental , last exit to brooklyn , mark knopfler

Опции темы

Ваши права в разделе
Вы не можете создавать новые темы
Вы не можете отвечать в темах
Вы не можете прикреплять вложения
Вы не можете редактировать свои сообщения

Быстрый переход



Текущее время: 02:25. Часовой пояс GMT +3.
Powered by vBulletin® Version 3.8.7
Copyright ©2000 - 2017, vBulletin Solutions, Inc. Перевод: zCarot
© 2008 - 2017 Taifun With Song
Яндекс.Метрика