TAIFUN With Song
Ретро Музыка ушедших лет

А знаете ли Вы, что...
Где недавно был совершён акт каннибализма с согласия жертвы?
«В 2001 году в немецком Ротенбурге Армин Майвес поместил в интернете серию каннибальских объявлений в поисках молодого парня в возрасте от 18 до 30 лет, желающего умереть и быть съеденным. На одно из объявлений откликнулся Бернд Брандес. Он, по своему собственному согласию, был убит и частично съеден Майвесом, позже приговорённым к пожизненному заключению. На этот сюжет написана песня «Mein Teil» группы Rammstein.»
 
Опции темы

  #1
Старый 12.11.2013, 19:09
sergych
Координатор
Досье
 
Аватар для sergych
Релиз Sting - Songs From The Labyrinth


2006(2008) - Sting - Songs From The Labyrinth




Исполнитель/Artist: Sting
Альбом/Album: Songs From The Labyrinth (Special Edition)
Год/Year: 2006
Ремастеринг/Remaster: 2008
Жанр/Genre: Renaissance music
Страна/Country: Германия
Рекорд-лейбл/Record label: Deutsche Grammophon / Decca
Номер в каталоге/Catalogue #: 06025 177 9890
Формат/Format: Free Lossless Audio Codec (*.flac)
Качество/Quality: Lossless
Тип рипа/RIP Type: tracks+.cue
Продолжительность/Length: 01:00:31
Источник/Source: Собственный рип
Размер/Size: 610.6 MB

Сканы в комплекте

Треклист

01 - Walsingham
02 - Can She Excuse My Wrongs
03 - ''Ryght Honorable- As I Have Bin Most Bounde Unto Your Honor...''
04 - Flow My Tears (Lachrimae)
05 - Have You Seen The Bright Lily Grow
06 - ''...Then In Time Passing One Mr. Johnson Died...''
07 - The Most High And Mighty Christianus The Fourth, King Of Denmark, His Galliard
08 - The Lowest Trees Have Tops
09 - ''... And Accordinge As I Desired Ther Cam A Letter..''
10 - Fine Knacks For Ladies
11 - ''...From Thenc I Went To Landgrave Of Hessen...''
12 - Fantasy
13 - Come, Heavy Sleep
14 - Forlorn Hope Fancy
15 - ''...And From Thence I Had Great Desire To See Italy...''
16 - Come Again
17 - Wilt Thou Unkind Thus Reave Me
18 - ''...After My Departures I Caled To Mynde Our Conference...''
19 - Weep You No More, Sad Fountains
20 - My Lord Willoughby's Welcome Home
21 - Clear Or Cloudy
22 - ''...Men Say That The Kinge Of Spain Is Making Great Preparation...''
23 - In Darkness Let Me Dwell
24 - Fields Of Gold
25 - Message In A Bottle
26 - Have Youn Seen The Bright Lily Grow (Live Recording)
[свернуть]

youtube.com

[свернуть]

Исполнители/Performers

Sting
Edin Karamazov
[свернуть]

EAC лог

Exact Audio Copy V1.0 beta 3 from 29. August 2011

EAC extraction logfile from 12. November 2013, 17:37

Sting / Songs From The Labyrinth

Used drive : HL-DT-STDVDRAM GH22NS50 Adapter: 3 ID: 0

Read mode : Secure
Utilize accurate stream : Yes
Defeat audio cache : Yes
Make use of C2 pointers : No

Read offset correction : 667
Overread into Lead-In and Lead-Out : No
Fill up missing offset samples with silence : Yes
Delete leading and trailing silent blocks : No
Null samples used in CRC calculations : Yes
Used interface : Installed external ASPI interface
Gap handling : Appended to previous track

Used output format : User Defined Encoder
Selected bitrate : 1024 kBit/s
Quality : High
Add ID3 tag : No
Command line compressor : C:\MMProgram\Exact Audio Copy\FLAC\FLAC.EXE
Additional command line options : -6 -V -T "ARTIST=%artist%" -T "TITLE=%title%" -T "ALBUM=%albumtitle%" -T "DATE=%year%" -T "TRACKNUMBER=%tracknr%" -T "GENRE=%genre%" -T "COMMENT=%comment%" -T "BAND=%albuminterpret%" -T "ALBUMARTIST=%albuminterpret%" -T "COMPOSER=%composer%" %haslyrics%--tag-from-file=LYRICS="%lyricsfile%"%haslyrics% -T "DISCNUMBER=%cdnumber%" -T "TOTALDISCS=%totalcds%" -T "TOTALTRACKS=%numtracks%" %hascover%--picture="%coverfile%"%hascover% %source% -o %dest%


TOC of the extracted CD

Track | Start | Length | Start sector | End sector
---------------------------------------------------------
1 | 0:00.00 | 0:38.33 | 0 | 2882
2 | 0:38.33 | 2:35.55 | 2883 | 14562
3 | 3:14.13 | 0:40.38 | 14563 | 17600
4 | 3:54.51 | 4:42.12 | 17601 | 38762
5 | 8:36.63 | 2:35.40 | 38763 | 50427
6 | 11:12.28 | 0:32.15 | 50428 | 52842
7 | 11:44.43 | 3:01.10 | 52843 | 66427
8 | 14:45.53 | 2:16.23 | 66428 | 76650
9 | 17:02.01 | 0:55.54 | 76651 | 80829
10 | 17:57.55 | 1:50.43 | 80830 | 89122
11 | 19:48.23 | 0:24.63 | 89123 | 90985
12 | 20:13.11 | 2:42.60 | 90986 | 103195
13 | 22:55.71 | 3:45.70 | 103196 | 120140
14 | 26:41.66 | 3:07.73 | 120141 | 134238
15 | 29:49.64 | 0:28.64 | 134239 | 136402
16 | 30:18.53 | 2:56.13 | 136403 | 149615
17 | 33:14.66 | 2:40.31 | 149616 | 161646
18 | 35:55.22 | 0:29.46 | 161647 | 163867
19 | 36:24.68 | 2:38.63 | 163868 | 175780
20 | 39:03.56 | 1:34.43 | 175781 | 182873
21 | 40:38.24 | 2:47.47 | 182874 | 195445
22 | 43:25.71 | 1:01.23 | 195446 | 200043
23 | 44:27.19 | 4:16.01 | 200044 | 219244
24 | 48:43.20 | 3:36.28 | 219245 | 235472
25 | 52:19.48 | 5:40.31 | 235473 | 261003
26 | 58:00.04 | 2:41.71 | 261004 | 273149


Track 1

Filename D:\mm\Sting\2008 - Songs From The Labyrinth [06025 177 9890]\01 - Walsingham.wav

Pre-gap length 0:00:02.00

Peak level 98.8 %
Extraction speed 0.5 X
Track quality 100.0 %
Test CRC F5E016D6
Copy CRC F5E016D6
Accurately ripped (confidence 17) [68F2DD53] (AR v2)
Copy OK

Track 2

Filename D:\mm\Sting\2008 - Songs From The Labyrinth [06025 177 9890]\02 - Can She Excuse My Wrongs.wav

Peak level 98.9 %
Extraction speed 0.9 X
Track quality 100.0 %
Test CRC 576F6EC2
Copy CRC 576F6EC2
Accurately ripped (confidence 17) [EBF30238] (AR v2)
Copy OK

Track 3

Filename D:\mm\Sting\2008 - Songs From The Labyrinth [06025 177 9890]\03 - ''Ryght Honorable- As I Have Bin Most Bounde Unto Your Honor...''.wav

Peak level 87.5 %
Extraction speed 0.4 X
Track quality 99.7 %
Test CRC B082EBDE
Copy CRC B082EBDE
Accurately ripped (confidence 17) [DFDF1D01] (AR v2)
Copy OK

Track 4

Filename D:\mm\Sting\2008 - Songs From The Labyrinth [06025 177 9890]\04 - Flow My Tears (Lachrimae).wav

Peak level 98.9 %
Extraction speed 1.0 X
Track quality 99.9 %
Test CRC FC93937D
Copy CRC FC93937D
Accurately ripped (confidence 17) [20DC56DF] (AR v2)
Copy OK

Track 5

Filename D:\mm\Sting\2008 - Songs From The Labyrinth [06025 177 9890]\05 - Have You Seen The Bright Lily Grow.wav

Peak level 85.3 %
Extraction speed 1.2 X
Track quality 100.0 %
Test CRC 3FA13E6D
Copy CRC 3FA13E6D
Accurately ripped (confidence 17) [E7208CC1] (AR v2)
Copy OK

Track 6

Filename D:\mm\Sting\2008 - Songs From The Labyrinth [06025 177 9890]\06 - ''...Then In Time Passing One Mr. Johnson Died...''.wav

Peak level 98.8 %
Extraction speed 0.4 X
Track quality 99.6 %
Test CRC E1051E37
Copy CRC E1051E37
Accurately ripped (confidence 17) [20C776B8] (AR v2)
Copy OK

Track 7

Filename D:\mm\Sting\2008 - Songs From The Labyrinth [06025 177 9890]\07 - The Most High And Mighty Christianus The Fourth, King Of Denmark, His Galliard.wav

Peak level 98.9 %
Extraction speed 1.2 X
Track quality 100.0 %
Test CRC 5DAA1598
Copy CRC 5DAA1598
Accurately ripped (confidence 17) [FBFDC4B1] (AR v2)
Copy OK

Track 8

Filename D:\mm\Sting\2008 - Songs From The Labyrinth [06025 177 9890]\08 - The Lowest Trees Have Tops.wav

Peak level 98.8 %
Extraction speed 1.2 X
Track quality 100.0 %
Test CRC A295E905
Copy CRC A295E905
Accurately ripped (confidence 17) [12C2BA73] (AR v2)
Copy OK

Track 9

Filename D:\mm\Sting\2008 - Songs From The Labyrinth [06025 177 9890]\09 - ''... And Accordinge As I Desired Ther Cam A Letter..''.wav

Peak level 64.9 %
Extraction speed 0.9 X
Track quality 100.0 %
Test CRC AFF9F097
Copy CRC AFF9F097
Accurately ripped (confidence 17) [FDA21EE6] (AR v2)
Copy OK

Track 10

Filename D:\mm\Sting\2008 - Songs From The Labyrinth [06025 177 9890]\10 - Fine Knacks For Ladies.wav

Peak level 98.9 %
Extraction speed 1.1 X
Track quality 99.9 %
Test CRC C9B019BB
Copy CRC C9B019BB
Accurately ripped (confidence 17) [0F795587] (AR v2)
Copy OK

Track 11

Filename D:\mm\Sting\2008 - Songs From The Labyrinth [06025 177 9890]\11 - ''...From Thenc I Went To Landgrave Of Hessen...''.wav

Peak level 71.4 %
Extraction speed 0.7 X
Track quality 100.0 %
Test CRC 099FDE27
Copy CRC 099FDE27
Accurately ripped (confidence 17) [B5EB4605] (AR v2)
Copy OK

Track 12

Filename D:\mm\Sting\2008 - Songs From The Labyrinth [06025 177 9890]\12 - Fantasy.wav

Peak level 98.8 %
Extraction speed 1.6 X
Track quality 100.0 %
Test CRC E39D8821
Copy CRC E39D8821
Accurately ripped (confidence 17) [9CFF7F5E] (AR v2)
Copy OK

Track 13

Filename D:\mm\Sting\2008 - Songs From The Labyrinth [06025 177 9890]\13 - Come, Heavy Sleep.wav

Peak level 98.9 %
Extraction speed 1.8 X
Track quality 100.0 %
Test CRC FB470D0B
Copy CRC FB470D0B
Accurately ripped (confidence 17) [716AE995] (AR v2)
Copy OK

Track 14

Filename D:\mm\Sting\2008 - Songs From The Labyrinth [06025 177 9890]\14 - Forlorn Hope Fancy.wav

Peak level 98.9 %
Extraction speed 1.8 X
Track quality 100.0 %
Test CRC 8423F55B
Copy CRC 8423F55B
Accurately ripped (confidence 17) [8E4CB609] (AR v2)
Copy OK

Track 15

Filename D:\mm\Sting\2008 - Songs From The Labyrinth [06025 177 9890]\15 - ''...And From Thence I Had Great Desire To See Italy...''.wav

Peak level 59.7 %
Extraction speed 0.5 X
Track quality 99.6 %
Test CRC CD0292DB
Copy CRC CD0292DB
Accurately ripped (confidence 17) [E8679F55] (AR v2)
Copy OK

Track 16

Filename D:\mm\Sting\2008 - Songs From The Labyrinth [06025 177 9890]\16 - Come Again.wav

Peak level 98.9 %
Extraction speed 1.8 X
Track quality 100.0 %
Test CRC 024142A3
Copy CRC 024142A3
Accurately ripped (confidence 17) [8F15714B] (AR v2)
Copy OK

Track 17

Filename D:\mm\Sting\2008 - Songs From The Labyrinth [06025 177 9890]\17 - Wilt Thou Unkind Thus Reave Me.wav

Peak level 98.9 %
Extraction speed 1.9 X
Track quality 100.0 %
Test CRC BD1101EE
Copy CRC BD1101EE
Accurately ripped (confidence 17) [7FA9E2EE] (AR v2)
Copy OK

Track 18

Filename D:\mm\Sting\2008 - Songs From The Labyrinth [06025 177 9890]\18 - ''...After My Departures I Caled To Mynde Our Conference...''.wav

Peak level 60.0 %
Extraction speed 1.0 X
Track quality 100.0 %
Test CRC B851D812
Copy CRC B851D812
Accurately ripped (confidence 17) [4BF7E7D0] (AR v2)
Copy OK

Track 19

Filename D:\mm\Sting\2008 - Songs From The Labyrinth [06025 177 9890]\19 - Weep You No More, Sad Fountains.wav

Peak level 98.8 %
Extraction speed 1.9 X
Track quality 100.0 %
Test CRC BF7E08D8
Copy CRC BF7E08D8
Accurately ripped (confidence 17) [E3372DBE] (AR v2)
Copy OK

Track 20

Filename D:\mm\Sting\2008 - Songs From The Labyrinth [06025 177 9890]\20 - My Lord Willoughby's Welcome Home.wav

Peak level 95.3 %
Extraction speed 1.3 X
Track quality 99.8 %
Test CRC 2CA7F4CA
Copy CRC 2CA7F4CA
Accurately ripped (confidence 17) [247FA7AD] (AR v2)
Copy OK

Track 21

Filename D:\mm\Sting\2008 - Songs From The Labyrinth [06025 177 9890]\21 - Clear Or Cloudy.wav

Peak level 98.9 %
Extraction speed 1.7 X
Track quality 99.9 %
Test CRC D12F771C
Copy CRC D12F771C
Accurately ripped (confidence 17) [5EBE7064] (AR v2)
Copy OK

Track 22

Filename D:\mm\Sting\2008 - Songs From The Labyrinth [06025 177 9890]\22 - ''...Men Say That The Kinge Of Spain Is Making Great Preparation...''.wav

Peak level 82.0 %
Extraction speed 1.4 X
Track quality 100.0 %
Test CRC 676B4DC9
Copy CRC 676B4DC9
Accurately ripped (confidence 17) [C31DC78B] (AR v2)
Copy OK

Track 23

Filename D:\mm\Sting\2008 - Songs From The Labyrinth [06025 177 9890]\23 - In Darkness Let Me Dwell.wav

Peak level 98.9 %
Extraction speed 2.3 X
Track quality 100.0 %
Test CRC 80F4F19A
Copy CRC 80F4F19A
Accurately ripped (confidence 17) [70DFE58C] (AR v2)
Copy OK

Track 24

Filename D:\mm\Sting\2008 - Songs From The Labyrinth [06025 177 9890]\24 - Fields Of Gold.wav

Pre-gap length 0:00:08.12

Peak level 99.3 %
Extraction speed 2.2 X
Track quality 100.0 %
Test CRC 2B68F797
Copy CRC 2B68F797
Accurately ripped (confidence 17) [5935ECC5] (AR v2)
Copy OK

Track 25

Filename D:\mm\Sting\2008 - Songs From The Labyrinth [06025 177 9890]\25 - Message In A Bottle.wav

Pre-gap length 0:00:02.34

Peak level 99.1 %
Extraction speed 2.5 X
Track quality 100.0 %
Test CRC 657D1611
Copy CRC 657D1611
Accurately ripped (confidence 17) [1B2ACDA1] (AR v2)
Copy OK

Track 26

Filename D:\mm\Sting\2008 - Songs From The Labyrinth [06025 177 9890]\26 - Have Youn Seen The Bright Lily Grow (Live Recording).wav

Peak level 98.8 %
Extraction speed 2.3 X
Track quality 100.0 %
Test CRC 53002920
Copy CRC 53002920
Accurately ripped (confidence 17) [CE9F0F47] (AR v2)
Copy OK


All tracks accurately ripped

No errors occurred

End of status report
[свернуть]

Файл CUE

REM DATE 2006
REM DISCID 6D0E3A1A
REM COMMENT "ExactAudioCopy v1.0b3"
PERFORMER "Sting"
TITLE "Songs From The Labyrinth"
FILE "01 - Walsingham.wav" WAVE
TRACK 01 AUDIO
TITLE "Walsingham"
PERFORMER "Sting"
INDEX 01 00:00:00
FILE "02 - Can She Excuse My Wrongs.wav" WAVE
TRACK 02 AUDIO
TITLE "Can She Excuse My Wrongs?"
PERFORMER "Sting"
INDEX 01 00:00:00
FILE "03 - ''Ryght Honorable- As I Have Bin Most Bounde Unto Your Honor...''.wav" WAVE
TRACK 03 AUDIO
TITLE "'Ryght Honorable: As I Have Bin Most Bounde Unto Your Honor...'"
PERFORMER "Sting"
INDEX 01 00:00:00
FILE "04 - Flow My Tears (Lachrimae).wav" WAVE
TRACK 04 AUDIO
TITLE "Flow My Tears (Lachrimae)"
PERFORMER "Sting"
INDEX 01 00:00:00
FILE "05 - Have You Seen The Bright Lily Grow.wav" WAVE
TRACK 05 AUDIO
TITLE "Have You Seen The Bright Lily Grow"
PERFORMER "Sting"
INDEX 01 00:00:00
FILE "06 - ''...Then In Time Passing One Mr. Johnson Died...''.wav" WAVE
TRACK 06 AUDIO
TITLE "'...Then In Time Passing One Mr. Johnson Died...'"
PERFORMER "Sting"
INDEX 01 00:00:00
FILE "07 - The Most High And Mighty Christianus The Fourth, King Of Denmark, His Galliard.wav" WAVE
TRACK 07 AUDIO
TITLE "The Most High And Mighty Christianus The Fourth, King Of Denmark, His Galliard"
PERFORMER "Sting"
INDEX 01 00:00:00
FILE "08 - The Lowest Trees Have Tops.wav" WAVE
TRACK 08 AUDIO
TITLE "The Lowest Trees Have Tops"
PERFORMER "Sting"
INDEX 01 00:00:00
FILE "09 - ''... And Accordinge As I Desired Ther Cam A Letter..''.wav" WAVE
TRACK 09 AUDIO
TITLE "'... And Accordinge As I Desired Ther Cam A Letter..'"
PERFORMER "Sting"
INDEX 01 00:00:00
FILE "10 - Fine Knacks For Ladies.wav" WAVE
TRACK 10 AUDIO
TITLE "Fine Knacks For Ladies"
PERFORMER "Sting"
INDEX 01 00:00:00
FILE "11 - ''...From Thenc I Went To Landgrave Of Hessen...''.wav" WAVE
TRACK 11 AUDIO
TITLE "'...From Thenc I Went To Landgrave Of Hessen...'"
PERFORMER "Sting"
INDEX 01 00:00:00
FILE "12 - Fantasy.wav" WAVE
TRACK 12 AUDIO
TITLE "Fantasy"
PERFORMER "Sting"
INDEX 01 00:00:00
FILE "13 - Come, Heavy Sleep.wav" WAVE
TRACK 13 AUDIO
TITLE "Come, Heavy Sleep"
PERFORMER "Sting"
INDEX 01 00:00:00
FILE "14 - Forlorn Hope Fancy.wav" WAVE
TRACK 14 AUDIO
TITLE "Forlorn Hope Fancy"
PERFORMER "Sting"
INDEX 01 00:00:00
FILE "15 - ''...And From Thence I Had Great Desire To See Italy...''.wav" WAVE
TRACK 15 AUDIO
TITLE "'...And From Thence I Had Great Desire To See Italy...'"
PERFORMER "Sting"
INDEX 01 00:00:00
FILE "16 - Come Again.wav" WAVE
TRACK 16 AUDIO
TITLE "Come Again"
PERFORMER "Sting"
INDEX 01 00:00:00
FILE "17 - Wilt Thou Unkind Thus Reave Me.wav" WAVE
TRACK 17 AUDIO
TITLE "Wilt Thou Unkind Thus Reave Me"
PERFORMER "Sting"
INDEX 01 00:00:00
FILE "18 - ''...After My Departures I Caled To Mynde Our Conference...''.wav" WAVE
TRACK 18 AUDIO
TITLE "'...After My Departures I Caled To Mynde Our Conference...'"
PERFORMER "Sting"
INDEX 01 00:00:00
FILE "19 - Weep You No More, Sad Fountains.wav" WAVE
TRACK 19 AUDIO
TITLE "Weep You No More, Sad Fountains"
PERFORMER "Sting"
INDEX 01 00:00:00
FILE "20 - My Lord Willoughby's Welcome Home.wav" WAVE
TRACK 20 AUDIO
TITLE "My Lord Willoughby's Welcome Home"
PERFORMER "Sting"
INDEX 01 00:00:00
FILE "21 - Clear Or Cloudy.wav" WAVE
TRACK 21 AUDIO
TITLE "Clear Or Cloudy"
PERFORMER "Sting"
INDEX 01 00:00:00
FILE "22 - ''...Men Say That The Kinge Of Spain Is Making Great Preparation...''.wav" WAVE
TRACK 22 AUDIO
TITLE "'...Men Say That The Kinge Of Spain Is Making Great Preparation...'"
PERFORMER "Sting"
INDEX 01 00:00:00
FILE "23 - In Darkness Let Me Dwell.wav" WAVE
TRACK 23 AUDIO
TITLE "In Darkness Let Me Dwell"
PERFORMER "Sting"
INDEX 01 00:00:00
TRACK 24 AUDIO
TITLE "Fields Of Gold"
PERFORMER "Sting"
INDEX 00 04:07:64
FILE "24 - Fields Of Gold.wav" WAVE
INDEX 01 00:00:00
TRACK 25 AUDIO
TITLE "Message In A Bottle"
PERFORMER "Sting"
INDEX 00 03:33:69
FILE "25 - Message In A Bottle.wav" WAVE
INDEX 01 00:00:00
FILE "26 - Have Youn Seen The Bright Lily Grow (Live Recording).wav" WAVE
TRACK 26 AUDIO
TITLE "Have Youn Seen The Bright Lily Grow (Live Recording)"
PERFORMER "Sting"
INDEX 01 00:00:00
[свернуть]

Лог проверки качества

AUDIOCHECKER v2.0 beta (build 457) - by Dester - [Ссылки могут видеть только зарегистрированные пользователи. ]
~~~~~~~~~~~~~~~~~~~~~~~~~~~~~~~~~~
-=== НЕ РЕДАКТИРУЙТЕ ЭТОТ ФАЙЛ! ===-

Путь: ...\2008 - Songs From The Labyrinth (Special Edition) [06025 177 9890]

01 -=- 01 - Walsingham.flac -=- MPEG (80%)
02 -=- 02 - Can She Excuse My Wrongs.flac -=- CDDA (100%)
03 -=- 03 - ''Ryght Honorable- As I Have Bin Most Bounde Unto Your Honor...''.flac -=- CDDA (100%)
04 -=- 04 - Flow My Tears (Lachrimae).flac -=- CDDA (100%)
05 -=- 05 - Have You Seen The Bright Lily Grow.flac -=- CDDA (100%)
06 -=- 06 - ''...Then In Time Passing One Mr. Johnson Died...''.flac -=- CDDA (100%)
07 -=- 07 - The Most High And Mighty Christianus The Fourth, King Of Denmark, His Galliard.flac -=- CDDA (94%)
08 -=- 08 - The Lowest Trees Have Tops.flac -=- CDDA (100%)
09 -=- 09 - ''... And Accordinge As I Desired Ther Cam A Letter..''.flac -=- CDDA (94%)
10 -=- 10 - Fine Knacks For Ladies.flac -=- CDDA (100%)
11 -=- 11 - ''...From Thenc I Went To Landgrave Of Hessen...''.flac -=- CDDA (100%)
12 -=- 12 - Fantasy.flac -=- CDDA (100%)
13 -=- 13 - Come, Heavy Sleep.flac -=- CDDA (100%)
14 -=- 14 - Forlorn Hope Fancy.flac -=- CDDA (62%)
15 -=- 15 - ''...And From Thence I Had Great Desire To See Italy...''.flac -=- CDDA (100%)
16 -=- 16 - Come Again.flac -=- CDDA (100%)
17 -=- 17 - Wilt Thou Unkind Thus Reave Me.flac -=- CDDA (99%)
18 -=- 18 - ''...After My Departures I Caled To Mynde Our Conference...''.flac -=- CDDA (100%)
19 -=- 19 - Weep You No More, Sad Fountains.flac -=- CDDA (100%)
20 -=- 20 - My Lord Willoughby's Welcome Home.flac -=- CDDA (100%)
21 -=- 21 - Clear Or Cloudy.flac -=- CDDA (100%)
22 -=- 22 - ''...Men Say That The Kinge Of Spain Is Making Great Preparation...''.flac -=- CDDA (87%)
23 -=- 23 - In Darkness Let Me Dwell.flac -=- CDDA (99%)
24 -=- 24 - Fields Of Gold.flac -=- CDDA (100%)
25 -=- 25 - Message In A Bottle.flac -=- CDDA (100%)
26 -=- 26 - Have Youn Seen The Bright Lily Grow (Live Recording).flac -=- CDDA (100%)

Сводка 94,42% CDDA

26429732
[свернуть]

Скачать Sting - Songs From The Labyrinth

[Ссылки могут видеть только зарегистрированные пользователи. ]

password: sergych
[свернуть]
My opinion of release: 10/10
__________________
TAIFUN.Wings of Soul

Вверх
2 пользователя(ей) сказали cпасибо:
swint68 (28.05.2016), TAIFUN (24.03.2014)
  #2
Старый 25.05.2016, 19:07
sergych
Координатор
Досье
 
Аватар для sergych
Релиз Re: Sting - Songs From The Labyrinth


2006(2013) - Sting - Songs From The Labyrinth {Dowland Anniversary Edition}




Исполнитель/Artist: Sting
Альбом/Album: Songs From The Labyrinth {Dowland Anniversary Edition}
Год/Year: 2006
Ремастеринг/Remaster: 2013
Жанр/Genre: Renaissance music
Страна/Country: Германия
Рекорд-лейбл/Record label: Deutsche Grammophon
Номер в каталоге/Catalogue #: 06025 374 1453
Формат/Format: Free Lossless Audio Codec (*.flac)
Качество/Quality: Lossless
Тип рипа/RIP Type: image+.cue
Продолжительность/Length: 01:20:55
Источник/Source: Собственный рип
Размер/Size: 701.8 MB

Сканы в комплекте

Треклист

01. Walsingham [0:00:38.63]
02. Can she excuse my wrongs [0:02:35.25]
03. "Ryght honorable: as I have bin most bounde unto your honor..." [0:00:40.38]
04. Flow my tears (Lachrimae) [0:04:42.12]
05. Have you seen the bright lily grow (R. Johnson) [0:02:35.40]
06. "...Then in time passing on Mr. Johnson died..." [0:00:32.15]
07. The Most High and Mighty Christianus the Fourth, King of Denmark, His G [0:03:01.10]
08. The lowest trees have tops [0:02:16.23]
09. "...And accordinge as I desired ther cam a letter to me out of Germany" [0:00:55.35]
10. Fine knacks for ladies [0:01:50.70]
11. "...From thence I went to the Landgrave of Hessen..." [0:00:24.55]
12. Fantasy [0:02:42.60]
13. Come, heavy sleep [0:03:45.70]
14. Forlorn Hope Fancy [0:03:07.73]
15. "...And from thence I had great desire to see Italy..." [0:00:28.64]
16. Come again [0:02:56.13]
17. Wilt thou unkind thus reave me [0:02:40.31]
18. "...After my departure I called to mynde our conference..." [0:00:29.46]
19. Weep you no more, sad fountains [0:02:38.63]
20. My Lord Willoughby's Welcome Home [0:01:34.43]
21. Clear or cloudy [0:02:47.47]
22. "...men say that the Kinge of Spain is making gret preparation..." [0:01:01.23]
23. In darkness let me dwell [0:04:12.00]
24. Flow my tears (Lachrimae) [Live] [0:04:41.45]
25. The lowest trees have tops [Live] [0:02:25.38]
26. Fantasy [Live] [0:02:45.21]
27. Come again [Live] [0:02:52.47]
28. Have you seen the bright lily grow [Live] [0:02:38.01]
29. In darkness let me dwell [Live] [0:04:05.19]
30. Hellhound On My Trail [Live] [0:03:15.26]
31. Message In A Bottle [Live] [0:06:00.19]
32. Fields of Gold [Live] [0:03:31.54]
[свернуть]

youtube.com

[свернуть]

Исполнители/Performers

Sting
Edin Karamazov
[свернуть]

EAC лог

Exact Audio Copy V1.1 from 23. June 2015

EAC extraction logfile from 22. May 2016, 11:39

Sting / Songs from the Labyrinth (CD1)

Used drive : ATAPI iHAS124 D Adapter: 0 ID: 2

Read mode : Secure
Utilize accurate stream : Yes
Defeat audio cache : Yes
Make use of C2 pointers : No

Read offset correction : 6
Overread into Lead-In and Lead-Out : No
Fill up missing offset samples with silence : Yes
Delete leading and trailing silent blocks : No
Null samples used in CRC calculations : Yes
Used interface : Installed external ASPI interface

Used output format : User Defined Encoder
Selected bitrate : 1024 kBit/s
Quality : High
Add ID3 tag : Yes
Command line compressor : C:\Program Files (x86)\Exact Audio Copy\Flac\flac.exe
Additional command line options : -6 -V -T "ARTIST=%artist%" -T "TITLE=%title%" -T "ALBUM=%albumtitle%" -T "DATE=%year%" -T "TRACKNUMBER=%tracknr%" -T "GENRE=%genre%" -T "COMMENT=%comment%" -T "BAND=%albuminterpret%" -T "COMPOSER=%composer%" %haslyrics%--tag-from-file=LYRICS="%lyricsfile%"%haslyrics% -T "DISCNUMBER=%cdnumber%" -T "TOTALDISCS=%totalcds%" -T "TOTALTRACKS=%numtracks%" %hascover%--picture="%coverfile%"%hascover% %source% -o %dest%


TOC of the extracted CD

Track | Start | Length | Start sector | End sector
---------------------------------------------------------
1 | 0:00.00 | 0:38.63 | 0 | 2912
2 | 0:38.63 | 2:35.25 | 2913 | 14562
3 | 3:14.13 | 0:40.38 | 14563 | 17600
4 | 3:54.51 | 4:42.12 | 17601 | 38762
5 | 8:36.63 | 2:35.40 | 38763 | 50427
6 | 11:12.28 | 0:32.15 | 50428 | 52842
7 | 11:44.43 | 3:01.10 | 52843 | 66427
8 | 14:45.53 | 2:16.23 | 66428 | 76650
9 | 17:02.01 | 0:55.35 | 76651 | 80810
10 | 17:57.36 | 1:50.70 | 80811 | 89130
11 | 19:48.31 | 0:24.55 | 89131 | 90985
12 | 20:13.11 | 2:42.60 | 90986 | 103195
13 | 22:55.71 | 3:45.70 | 103196 | 120140
14 | 26:41.66 | 3:07.73 | 120141 | 134238
15 | 29:49.64 | 0:28.64 | 134239 | 136402
16 | 30:18.53 | 2:56.13 | 136403 | 149615
17 | 33:14.66 | 2:40.31 | 149616 | 161646
18 | 35:55.22 | 0:29.46 | 161647 | 163867
19 | 36:24.68 | 2:38.63 | 163868 | 175780
20 | 39:03.56 | 1:34.43 | 175781 | 182873
21 | 40:38.24 | 2:47.47 | 182874 | 195445
22 | 43:25.71 | 1:01.23 | 195446 | 200043
23 | 44:27.19 | 4:12.00 | 200044 | 218943
24 | 48:39.19 | 4:41.45 | 218944 | 240063
25 | 53:20.64 | 2:25.38 | 240064 | 250976
26 | 55:46.27 | 2:45.21 | 250977 | 263372
27 | 58:31.48 | 2:52.47 | 263373 | 276319
28 | 61:24.20 | 2:38.01 | 276320 | 288170
29 | 64:02.21 | 4:05.19 | 288171 | 306564
30 | 68:07.40 | 3:15.26 | 306565 | 321215
31 | 71:22.66 | 6:00.19 | 321216 | 348234
32 | 77:23.10 | 3:31.54 | 348235 | 364113


Range status and errors

Selected range

Filename C:\mm\Sting\Songs From The Labyrinth {Special CD & DVD Edition} [06025 374 1453]\Sting - Songs from the Labyrinth (CD1).wav

Peak level 100.0 %
Extraction speed 10.0 X
Range quality 99.9 %
Test CRC 5B7CDA5A
Copy CRC 5B7CDA5A
Copy OK

No errors occurred


AccurateRip summary

Track 1 accurately ripped (confidence 4) [1D191387] (AR v2)
Track 2 accurately ripped (confidence 4) [2B77048E] (AR v2)
Track 3 accurately ripped (confidence 4) [250E37AF] (AR v2)
Track 4 accurately ripped (confidence 4) [B88DFC4D] (AR v2)
Track 5 accurately ripped (confidence 4) [9A6A90B5] (AR v2)
Track 6 accurately ripped (confidence 4) [F04A4368] (AR v2)
Track 7 accurately ripped (confidence 4) [E4E6FFBF] (AR v2)
Track 8 accurately ripped (confidence 4) [A9D7F03E] (AR v2)
Track 9 accurately ripped (confidence 4) [B9FE9445] (AR v2)
Track 10 accurately ripped (confidence 4) [EB7E6BB2] (AR v2)
Track 11 accurately ripped (confidence 4) [8768F26A] (AR v2)
Track 12 accurately ripped (confidence 4) [C6A79BDA] (AR v2)
Track 13 accurately ripped (confidence 4) [0907BC3B] (AR v2)
Track 14 accurately ripped (confidence 4) [5FA36B29] (AR v2)
Track 15 accurately ripped (confidence 4) [10D66116] (AR v2)
Track 16 accurately ripped (confidence 4) [B4AA26A7] (AR v2)
Track 17 accurately ripped (confidence 4) [0F2C84C8] (AR v2)
Track 18 accurately ripped (confidence 4) [2BFA26BE] (AR v2)
Track 19 accurately ripped (confidence 4) [F8970998] (AR v2)
Track 20 accurately ripped (confidence 4) [D13AA635] (AR v2)
Track 21 accurately ripped (confidence 4) [AD003383] (AR v2)
Track 22 accurately ripped (confidence 4) [6605AE86] (AR v2)
Track 23 accurately ripped (confidence 4) [99F821AF] (AR v2)
Track 24 accurately ripped (confidence 4) [8E2F71F9] (AR v2)
Track 25 accurately ripped (confidence 4) [882FCF77] (AR v2)
Track 26 accurately ripped (confidence 4) [78FC120D] (AR v2)
Track 27 accurately ripped (confidence 4) [B659A6EE] (AR v2)
Track 28 accurately ripped (confidence 4) [9C824B2E] (AR v2)
Track 29 accurately ripped (confidence 4) [D2B747F9] (AR v2)
Track 30 accurately ripped (confidence 4) [3D603280] (AR v2)
Track 31 accurately ripped (confidence 4) [9C98568E] (AR v2)
Track 32 accurately ripped (confidence 4) [09D5B3CA] (AR v2)

All tracks accurately ripped

End of status report
[свернуть]

Файл CUE

REM GENRE Classical
REM DATE 2006
REM DISCID D812F620
REM COMMENT "ExactAudioCopy v1.1"
PERFORMER "Sting"
TITLE "Songs from the Labyrinth (CD1)"
FILE "Sting - Songs from the Labyrinth (CD1).flac" WAVE
TRACK 01 AUDIO
TITLE "Walsingham"
PERFORMER "Sting"
INDEX 01 00:00:00
TRACK 02 AUDIO
TITLE "Can she excuse my wrongs"
PERFORMER "Sting"
INDEX 01 00:38:63
TRACK 03 AUDIO
TITLE "'Ryght honorable: as I have bin most bounde unto your honor...' "
PERFORMER "Sting"
INDEX 01 03:14:13
TRACK 04 AUDIO
TITLE "Flow my tears (Lachrimae)"
PERFORMER "Sting"
INDEX 01 03:54:51
TRACK 05 AUDIO
TITLE "Have you seen the bright lily grow (R. Johnson)"
PERFORMER "Sting"
INDEX 01 08:36:63
TRACK 06 AUDIO
TITLE "'...Then in time passing on Mr. Johnson died...'"
PERFORMER "Sting"
INDEX 01 11:12:28
TRACK 07 AUDIO
TITLE "The Most High and Mighty Christianus the Fourth, King of Denmark, His G"
PERFORMER "Sting"
INDEX 01 11:44:43
TRACK 08 AUDIO
TITLE "The lowest trees have tops"
PERFORMER "Sting"
INDEX 01 14:45:53
TRACK 09 AUDIO
TITLE "'...And accordinge as I desired ther cam a letter to me out of Germany'"
PERFORMER "Sting"
INDEX 01 17:02:01
TRACK 10 AUDIO
TITLE "Fine knacks for ladies"
PERFORMER "Sting"
INDEX 01 17:57:36
TRACK 11 AUDIO
TITLE "'...From thence I went to the Landgrave of Hessen...'"
PERFORMER "Sting"
INDEX 01 19:48:31
TRACK 12 AUDIO
TITLE "Fantasy"
PERFORMER "Sting"
INDEX 01 20:13:11
TRACK 13 AUDIO
TITLE "Come, heavy sleep"
PERFORMER "Sting"
INDEX 01 22:55:71
TRACK 14 AUDIO
TITLE "Forlorn Hope Fancy"
PERFORMER "Sting"
INDEX 01 26:41:66
TRACK 15 AUDIO
TITLE "'...And from thence I had great desire to see Italy...'"
PERFORMER "Sting"
INDEX 01 29:49:64
TRACK 16 AUDIO
TITLE "Come again"
PERFORMER "Sting"
INDEX 01 30:18:53
TRACK 17 AUDIO
TITLE "Wilt thou unkind thus reave me"
PERFORMER "Sting"
INDEX 01 33:14:66
TRACK 18 AUDIO
TITLE "'...After my departure I called to mynde our conference...'"
PERFORMER "Sting"
INDEX 01 35:55:22
TRACK 19 AUDIO
TITLE "Weep you no more, sad fountains"
PERFORMER "Sting"
INDEX 01 36:24:68
TRACK 20 AUDIO
TITLE "My Lord Willoughby's Welcome Home"
PERFORMER "Sting"
INDEX 01 39:03:56
TRACK 21 AUDIO
TITLE "Clear or cloudy"
PERFORMER "Sting"
INDEX 01 40:38:24
TRACK 22 AUDIO
TITLE "'...men say that the Kinge of Spain is making gret preparation...'"
PERFORMER "Sting"
INDEX 01 43:25:71
TRACK 23 AUDIO
TITLE "In darkness let me dwell"
PERFORMER "Sting"
INDEX 01 44:27:19
TRACK 24 AUDIO
TITLE "Flow my tears (Lachrimae) [Live]"
PERFORMER "Sting"
INDEX 00 48:37:23
INDEX 01 48:39:19
TRACK 25 AUDIO
TITLE "The lowest trees have tops [Live]"
PERFORMER "Sting"
INDEX 01 53:20:64
TRACK 26 AUDIO
TITLE "Fantasy [Live]"
PERFORMER "Sting"
INDEX 01 55:46:27
TRACK 27 AUDIO
TITLE "Come again [Live]"
PERFORMER "Sting"
INDEX 01 58:31:48
TRACK 28 AUDIO
TITLE "Have you seen the bright lily grow [Live]"
PERFORMER "Sting"
INDEX 01 61:24:20
TRACK 29 AUDIO
TITLE "In darkness let me dwell [Live]"
PERFORMER "Sting"
INDEX 01 64:02:21
TRACK 30 AUDIO
TITLE "Hellhound On My Trail [Live]"
PERFORMER "Sting"
INDEX 01 68:07:40
TRACK 31 AUDIO
TITLE "Message In A Bottle [Live]"
PERFORMER "Sting"
INDEX 01 71:22:66
TRACK 32 AUDIO
TITLE "Fields of Gold [Live]"
PERFORMER "Sting"
INDEX 00 77:21:05
INDEX 01 77:23:10
[свернуть]

Лог проверки качества

AUDIOCHECKER v2.0 beta (build 457) - by Dester - [Ссылки могут видеть только зарегистрированные пользователи. ]
~~~~~~~~~~~~~~~~~~~~~~~~~~~~~~~~~~
-=== НЕ РЕДАКТИРУЙТЕ ЭТОТ ФАЙЛ! ===-

Путь: ...\Songs From The Labyrinth {Special CD & DVD Edition} [06025 374 1453]

1 -=- Sting - Songs from the Labyrinth (CD1).flac -=- CDDA (99%)

157607268
[свернуть]

Спектр частот

[свернуть]

Скачать Sting - Songs From The Labyrinth

[Ссылки могут видеть только зарегистрированные пользователи. ]

password: sergych
[свернуть]
My opinion of release: 10/10
__________________
TAIFUN.Wings of Soul

Вверх
Пользователь сказал cпасибо:
swint68 (28.05.2016)
Похожие темы
Тема Автор Раздел Ответов Последнее сообщение
Альбом Sting - ...Nothing Like The Sun sergych Pop Rock 5 03.03.2017 20:15
Альбом Sting - Brand New Day sergych Pop Rock 0 13.11.2013 18:12
Релиз Fleshgod Apocalypse - Labyrinth PUPOKIN Symphonic Metal 0 14.08.2013 10:56
Альбом Sting - Demolition Man sergych Pop Rock 0 05.03.2009 18:37
Альбом Saxon - Into The Labyrinth PUPOKIN Power Metal 0 01.12.2008 09:39


Метки
2006 , edin karamazov , renaissance music , songs from the labyrinth (special edition) , songs from the labyrinth {dowland anniversary edition} , sting

Опции темы

Ваши права в разделе
Вы не можете создавать новые темы
Вы не можете отвечать в темах
Вы не можете прикреплять вложения
Вы не можете редактировать свои сообщения

Быстрый переход



Текущее время: 18:42. Часовой пояс GMT +3.
Powered by vBulletin® Version 3.8.7
Copyright ©2000 - 2017, vBulletin Solutions, Inc. Перевод: zCarot
© 2008 - 2017 Taifun With Song
Яндекс.Метрика