TAIFUN With Song
Classical В этом разделе релизы на классическую музыку.

А знаете ли Вы, что...
Почему Майкл Джексон получал половину доходов от продаж песен Beatles?
«В 1984 году на аукционе продавались издательские права на песни Beatles. Его выиграл Майкл Джексон, заплатив почти 50 миллионов долларов — больше, чем предлагал сам Пол Маккартни. С этого времени Джексон получал половину доходов от продаж Beatles (другую половину получали авторы песен, главным образом Маккартни). В 1995 году компания Sony выкупила у Джексона половину его прав, так что в последнее время он получал только четверть доходов.»
 
Опции темы

  #1
Старый 30.10.2013, 19:24
sergych
Координатор
Досье
 
Аватар для sergych
Релиз Paul McCartney - Ecce Cor Meum


2006 - Paul McCartney - Ecce Cor Meum




Исполнитель/Artist: Paul McCartney
Альбом/Album: Ecce Cor Meum
Год/Year: 2006
Жанр/Genre: Classical
Страна/Country: Европа
Рекорд-лейбл/Record label: MPL / EMI
Номер в каталоге/Catalogue #: 0946 3 70424 2 7
Дата записи/Recording date: 13-17.03.2006
Формат/Format: Free Lossless Audio Codec (*.flac)
Качество/Quality: Lossless
Тип рипа/RIP Type: image+.cue
Продолжительность/Length: 00:56:51
Источник/Source: Из интернета
Размер/Size: 274.2 MB

Сканы в комплекте

Треклист

01 - Spiritus
02 - Gratia
03 - Interlude (Lament)
04 - Musica
05 - Ecce Cor Meum
[свернуть]

EAC лог

Exact Audio Copy V0.99 prebeta 5 from 4. May 2009

Отчёт EAC об извлечении, выполненном 20. октября 2009, 13:06

Paul McCartney / Ecce Cor Meum

Дисковод: MATSHITADVD-RAM UJ-850S Adapter: 1 ID: 0

Режим чтения : Достоверность
Использование точного потока : Да
Отключение кэша аудио : Да
Использование указателей C2 : Нет

Коррекция смещения при чтении : 102
Способность читать области Lead-in и Lead-out : Нет
Заполнение пропущенных сэмплов тишиной : Да
Удаление блоков с тишиной в начале и конце : Нет
При вычислениях CRC использовались нулевые сэмплы : Да
Интерфейс : Встроенный Win32-интерфейс для Win NT/2000

Выходной формат : Пользовательский кодировщик
Выбранный битрейт : 1024 kBit/s
Качество : Высокий
Добавление ID3-тэга : Нет
Утилита сжатия : C:\Program Files\Exact Audio Copy\Flac\flac.exe
Дополнительные параметры : -8 -V -T "ARTIST=%a" -T "TITLE=%t" -T "ALBUM=%g" -T "DATE=%y" -T "TRACKNUMBER=%n" -T "TOTALTRACKS=%x" -T "GENRE=%m" -T "ALBUM ARTIST=%v" -T "ALBUMARTIST=%v" -T "COMMENT=EAC V0.99 prebeta 5, Secure Mode, AccurateRip, FLAC -8" %s


TOC извлечённого CD

Трек | Старт | Длительность | Начальный сектор | Конечный сектор
---------------------------------------------------------------------
1 | 0:00.00 | 12:00.18 | 0 | 54017
2 | 12:00.18 | 10:50.26 | 54018 | 102793
3 | 22:50.44 | 3:56.66 | 102794 | 120559
4 | 26:47.35 | 15:14.08 | 120560 | 189117
5 | 42:01.43 | 14:50.01 | 189118 | 255868


Характеристики диапазона извлечения и сообщения об ошибках

Выбранный диапазон

Имя файла H:\MP3\Paul McCartney discography\2006.Ecce Cor Meum\Paul McCartney - Ecce Cor Meum.wav

Пиковый уровень 99.9 %
Качество диапазона 100.0 %
CRC теста A1E48690
CRC копии A1E48690
Копирование... OK

Ошибок не произошло


AccurateRip: сводка

Трек 1 точное извлечение (доверие 20) [AB79D888]
Трек 2 точное извлечение (доверие 20) [7E5C5C70]
Трек 3 точное извлечение (доверие 20) [CA8B0DAC]
Трек 4 точное извлечение (доверие 20) [C9B9720B]
Трек 5 точное извлечение (доверие 20) [709FB0A7]

Все треки извлечены точно

Конец отчёта
[свернуть]

Файл CUE

REM GENRE Classical
REM DATE 2006
REM DISCID 360D5305
REM COMMENT "ExactAudioCopy v0.99pb5"
PERFORMER "Paul McCartney"
TITLE "Ecce Cor Meum"
FILE "Paul McCartney - Ecce Cor Meum.flac" WAVE
TRACK 01 AUDIO
TITLE "Spiritus"
PERFORMER "Paul McCartney"
INDEX 01 00:00:00
TRACK 02 AUDIO
TITLE "Gratia"
PERFORMER "Paul McCartney"
INDEX 01 12:00:18
TRACK 03 AUDIO
TITLE "Interlude (Lament)"
PERFORMER "Paul McCartney"
INDEX 01 22:50:44
TRACK 04 AUDIO
TITLE "Musica"
PERFORMER "Paul McCartney"
INDEX 01 26:47:35
TRACK 05 AUDIO
TITLE "Ecce Cor Meum"
PERFORMER "Paul McCartney"
INDEX 01 42:01:43
[свернуть]

Лог проверки качества

AUDIOCHECKER v2.0 beta (build 457) - by Dester -
~~~~~~~~~~~~~~~~~~~~~~~~~~~~~~~~~~
-=== НЕ РЕДАКТИРУЙТЕ ЭТОТ ФАЙЛ! ===-

Путь: ...\2006 - Ecce Cor Meum

1 -=- Paul McCartney - Ecce Cor Meum.flac -=- CDDA (100%)

164763204
[свернуть]

Скачать Paul McCartney - Ecce Cor Meum



password: sergych
[свернуть]
My opinion of release: 7/10

Release info RInfo

Ecce Cor Meum (Latin for Behold My Heart) is the fourth classical album by Paul McCartney. The album was released on 25 September 2006 by EMI Classics. An oratorio in four movements, it is produced and orchestrated by John Fraser, written in Latin and English, and scored for orchestra and boys and adult choir. The oratorio was partly inspired by Sir Paul's wife Linda.
__________________
TAIFUN.Wings of Soul

Вверх
Похожие темы
Тема Автор Раздел Ответов Последнее сообщение
Альбом Paul McCartney - McCartney sergych Pop Rock 0 27.10.2013 16:08
Альбом Paul McCartney & Elvis Costello - The McCartney/Mac Manus Collaboration sergych Pop Rock 0 10.08.2008 06:37
Live Paul McCartney - Paul Is Live sergych Pop Rock 0 09.08.2008 00:27
Альбом Paul McCartney - McCartney II sergych Pop Rock 0 04.08.2008 20:55
Альбом Paul McCartney - Tug Of War sergych Pop Rock 0 04.08.2008 20:55


Метки
2006 , classical , ecce cor meum , paul mccartney

Опции темы

Ваши права в разделе
Вы не можете создавать новые темы
Вы не можете отвечать в темах
Вы не можете прикреплять вложения
Вы не можете редактировать свои сообщения

Быстрый переход



Текущее время: 16:23. Часовой пояс GMT +3.
Powered by vBulletin® Version 3.8.7
Copyright ©2000 - 2017, vBulletin Solutions, Inc. Перевод: zCarot
© 2008 - 2017 Taifun With Song
Яндекс.Метрика