TAIFUN With Song
Вернуться   TAIFUN With Song > Music (обменник) > Другие направления музыки > Ретро
Расширенный поиск
Ретро Музыка ушедших лет

А знаете ли Вы, что...
Какой музыкальный инструмент извлекает звуки из сталактитов одной американской пещеры?
«В американском штате Вирджиния находятся Лурейские пещеры, где установлен уникальный музыкальный инструмент — орган из сталактитов. 37 разных по тону сталактитов подключены к трубочной системе традиционного органа и управляются с обычной органной клавиатуры.»
 
Опции темы

  #1
Старый 03.10.2013, 21:10
sergych
Координатор
Досье
 
Аватар для sergych
Thumbs up Сергей Лемешев - 20 золотых песен


2001 - Сергей Лемешев - 20 золотых песен




Исполнитель/Artist: Сергей Лемешев
Альбом/Album: 20 золотых песен
Год/Year: 2001
Жанр/Genre: романс
Страна/Country: Россия
Рекорд-лейбл/Record label: RCD
Номер в каталоге/Catalogue #: RCD 40505
Формат/Format: MPEG Layer-3 (*.mp3)
Качество/Quality: CBR 320 kbps
Тип рипа/RIP Type: tracks+.cue
Продолжительность/Length: 00:57:26
Источник/Source: Собственный рип
Размер/Size: 164.8 MB

Сканы в комплекте

Треклист

01 - Хотел бы в единое слово..
02 - Не долго нам гулять..
03 - Корольки
04 - Ни отзыва, ни слова, ни привета..
05 - Серенада Дон-Жуана
06 - То было раннею весной..
07 - Средь шумного бала..
08 - Пимпинелла
09 - Серенада (О, дитя)
10 - Весна (Уж тает снег..)
11 - Весна (Травка зеленеет..)
12 - Детская песенка (Мой Лизочек..)
13 - Я тебе ничего не скажу..
14 - О, если б знали Вы..
15 - Соловей
16 - Редеет облаков летучая гряда..
17 - Красавица
18 - То было раннею весной..
19 - Вчера мы встретились..
20 - Давно в любви отрады мало..
[свернуть]

youtube.com

[свернуть]

EAC лог

Exact Audio Copy V1.0 beta 3 from 29. August 2011

EAC extraction logfile from 3. October 2013, 22:03

Лемешев Сергей Яковлевич / 20 золотых песен

Used drive : ATAPI iHAS124 D Adapter: 0 ID: 2

Read mode : Secure
Utilize accurate stream : Yes
Defeat audio cache : Yes
Make use of C2 pointers : No

Read offset correction : 6
Overread into Lead-In and Lead-Out : No
Fill up missing offset samples with silence : Yes
Delete leading and trailing silent blocks : No
Null samples used in CRC calculations : Yes
Used interface : Installed external ASPI interface
Gap handling : Appended to previous track

Used output format : LAME MP3 Encoder
Selected bitrate : 320 kBit/s
Quality : High
Add ID3 tag : Yes
Command line compressor : C:\Program Files (x86)\Exact Audio Copy\FLAC\FLAC.EXE


TOC of the extracted CD

Track | Start | Length | Start sector | End sector
---------------------------------------------------------
1 | 0:00.00 | 2:01.67 | 0 | 9141
2 | 2:01.67 | 3:19.13 | 9142 | 24079
3 | 5:21.05 | 4:22.50 | 24080 | 43779
4 | 9:43.55 | 2:37.13 | 43780 | 55567
5 | 12:20.68 | 2:36.07 | 55568 | 67274
6 | 14:57.00 | 2:25.11 | 67275 | 78160
7 | 17:22.11 | 2:34.51 | 78161 | 89761
8 | 19:56.62 | 2:45.47 | 89762 | 102183
9 | 22:42.34 | 3:28.42 | 102184 | 117825
10 | 26:11.01 | 2:33.37 | 117826 | 129337
11 | 28:44.38 | 2:46.38 | 129338 | 141825
12 | 31:31.01 | 2:34.43 | 141826 | 153418
13 | 34:05.44 | 3:08.25 | 153419 | 167543
14 | 37:13.69 | 2:53.29 | 167544 | 180547
15 | 40:07.23 | 3:44.64 | 180548 | 197411
16 | 43:52.12 | 3:47.39 | 197412 | 214475
17 | 47:39.51 | 2:55.51 | 214476 | 227651
18 | 50:35.27 | 2:14.04 | 227652 | 237705
19 | 52:49.31 | 2:56.58 | 237706 | 250963
20 | 55:46.14 | 1:39.17 | 250964 | 258405


Track 1

Filename C:\mm\Лемешев Сергей Яковлевич\2001 - 20 золотых песен\01 - Хотел бы в единое слово...wav

Pre-gap length 0:00:02.00

Peak level 67.4 %
Extraction speed 5.1 X
Track quality 100.0 %
Test CRC 37E27205
Copy CRC 37E27205
Cannot be verified as accurate (confidence 1) [37A14F63], AccurateRip returned [B33EC720] (AR v2)
Copy OK

Track 2

Filename C:\mm\Лемешев Сергей Яковлевич\2001 - 20 золотых песен\02 - Не долго нам гулять...wav

Peak level 47.1 %
Extraction speed 5.0 X
Track quality 99.9 %
Test CRC 1348CF51
Copy CRC 1348CF51
Cannot be verified as accurate (confidence 1) [57265254], AccurateRip returned [170B13E4] (AR v2)
Copy OK

Track 3

Filename C:\mm\Лемешев Сергей Яковлевич\2001 - 20 золотых песен\03 - Корольки.wav

Peak level 43.5 %
Extraction speed 6.7 X
Track quality 100.0 %
Test CRC B0B4EAAE
Copy CRC B0B4EAAE
Cannot be verified as accurate (confidence 1) [630C1BA5], AccurateRip returned [DD179D1F] (AR v2)
Copy OK

Track 4

Filename C:\mm\Лемешев Сергей Яковлевич\2001 - 20 золотых песен\04 - Ни отзыва, ни слова, ни привета...wav

Peak level 36.3 %
Extraction speed 6.6 X
Track quality 100.0 %
Test CRC 6601A7E5
Copy CRC 6601A7E5
Cannot be verified as accurate (confidence 1) [E1281F66], AccurateRip returned [E7772CC9] (AR v2)
Copy OK

Track 5

Filename C:\mm\Лемешев Сергей Яковлевич\2001 - 20 золотых песен\05 - Серенада Дон-Жуана.wav

Peak level 56.5 %
Extraction speed 6.8 X
Track quality 100.0 %
Test CRC 19CAE09F
Copy CRC 19CAE09F
Cannot be verified as accurate (confidence 1) [0A769799], AccurateRip returned [5477D8FE] (AR v2)
Copy OK

Track 6

Filename C:\mm\Лемешев Сергей Яковлевич\2001 - 20 золотых песен\06 - То было раннею весной...wav

Peak level 76.0 %
Extraction speed 7.0 X
Track quality 100.0 %
Test CRC C465FE04
Copy CRC C465FE04
Cannot be verified as accurate (confidence 1) [3AF56BD4], AccurateRip returned [06DF3A70] (AR v2)
Copy OK

Track 7

Filename C:\mm\Лемешев Сергей Яковлевич\2001 - 20 золотых песен\07 - Средь шумного бала...wav

Peak level 54.1 %
Extraction speed 5.8 X
Track quality 99.9 %
Test CRC E98C4E37
Copy CRC E98C4E37
Cannot be verified as accurate (confidence 1) [5C6A52F1], AccurateRip returned [484C47F6] (AR v2)
Copy OK

Track 8

Filename C:\mm\Лемешев Сергей Яковлевич\2001 - 20 золотых песен\08 - Пимпинелла.wav

Peak level 78.2 %
Extraction speed 7.7 X
Track quality 100.0 %
Test CRC 80A4EBDB
Copy CRC 80A4EBDB
Cannot be verified as accurate (confidence 1) [8DAFCFCD], AccurateRip returned [FA2839A9] (AR v2)
Copy OK

Track 9

Filename C:\mm\Лемешев Сергей Яковлевич\2001 - 20 золотых песен\09 - Серенада (О, дитя).wav

Peak level 72.1 %
Extraction speed 8.2 X
Track quality 100.0 %
Test CRC 5F275FFC
Copy CRC 5F275FFC
Cannot be verified as accurate (confidence 1) [211308C4], AccurateRip returned [F13ED7D3] (AR v2)
Copy OK

Track 10

Filename C:\mm\Лемешев Сергей Яковлевич\2001 - 20 золотых песен\10 - Весна (Уж тает снег..).wav

Peak level 51.4 %
Extraction speed 8.0 X
Track quality 100.0 %
Test CRC 5363F33C
Copy CRC 5363F33C
Cannot be verified as accurate (confidence 1) [C9284422], AccurateRip returned [2F05AC18] (AR v2)
Copy OK

Track 11

Filename C:\mm\Лемешев Сергей Яковлевич\2001 - 20 золотых песен\11 - Весна (Травка зеленеет..).wav

Peak level 53.5 %
Extraction speed 8.4 X
Track quality 100.0 %
Test CRC D4160A97
Copy CRC D4160A97
Cannot be verified as accurate (confidence 1) [CE55DDB6], AccurateRip returned [E717F670] (AR v2)
Copy OK

Track 12

Filename C:\mm\Лемешев Сергей Яковлевич\2001 - 20 золотых песен\12 - Детская песенка (Мой Лизочек..).wav

Peak level 41.9 %
Extraction speed 8.5 X
Track quality 100.0 %
Test CRC 6876F016
Copy CRC 6876F016
Cannot be verified as accurate (confidence 1) [09BD21F4], AccurateRip returned [90D2A8FC] (AR v2)
Copy OK

Track 13

Filename C:\mm\Лемешев Сергей Яковлевич\2001 - 20 золотых песен\13 - Я тебе ничего не скажу...wav

Peak level 42.5 %
Extraction speed 9.0 X
Track quality 100.0 %
Test CRC 20D795C5
Copy CRC 20D795C5
Cannot be verified as accurate (confidence 1) [E58894A2], AccurateRip returned [75692150] (AR v2)
Copy OK

Track 14

Filename C:\mm\Лемешев Сергей Яковлевич\2001 - 20 золотых песен\14 - О, если б знали Вы...wav

Peak level 71.6 %
Extraction speed 9.1 X
Track quality 100.0 %
Test CRC C821A212
Copy CRC C821A212
Cannot be verified as accurate (confidence 1) [C7598545], AccurateRip returned [90C45188] (AR v2)
Copy OK

Track 15

Filename C:\mm\Лемешев Сергей Яковлевич\2001 - 20 золотых песен\15 - Соловей.wav

Peak level 49.2 %
Extraction speed 9.8 X
Track quality 100.0 %
Test CRC 1F09110D
Copy CRC 1F09110D
Cannot be verified as accurate (confidence 1) [23399793], AccurateRip returned [57C1CB98] (AR v2)
Copy OK

Track 16

Filename C:\mm\Лемешев Сергей Яковлевич\2001 - 20 золотых песен\16 - Редеет облаков летучая гряда...wav

Peak level 84.1 %
Extraction speed 10.1 X
Track quality 100.0 %
Test CRC D1DF299E
Copy CRC D1DF299E
Cannot be verified as accurate (confidence 1) [53612178], AccurateRip returned [2BC7DFE3] (AR v2)
Copy OK

Track 17

Filename C:\mm\Лемешев Сергей Яковлевич\2001 - 20 золотых песен\17 - Красавица.wav

Peak level 69.4 %
Extraction speed 10.0 X
Track quality 100.0 %
Test CRC B8D09CF4
Copy CRC B8D09CF4
Cannot be verified as accurate (confidence 1) [DDDBF5E0], AccurateRip returned [97720C29] (AR v2)
Copy OK

Track 18

Filename C:\mm\Лемешев Сергей Яковлевич\2001 - 20 золотых песен\18 - То было раннею весной...wav

Peak level 50.2 %
Extraction speed 9.5 X
Track quality 100.0 %
Test CRC FCFD57AC
Copy CRC FCFD57AC
Cannot be verified as accurate (confidence 1) [99711297], AccurateRip returned [AAF1259E] (AR v2)
Copy OK

Track 19

Filename C:\mm\Лемешев Сергей Яковлевич\2001 - 20 золотых песен\19 - Вчера мы встретились...wav

Peak level 62.4 %
Extraction speed 10.3 X
Track quality 100.0 %
Test CRC 3A756269
Copy CRC 3A756269
Cannot be verified as accurate (confidence 1) [47B6810F], AccurateRip returned [D5860BAA] (AR v2)
Copy OK

Track 20

Filename C:\mm\Лемешев Сергей Яковлевич\2001 - 20 золотых песен\20 - Давно в любви отрады мало...wav

Peak level 99.9 %
Extraction speed 9.1 X
Track quality 100.0 %
Test CRC 1CDA5D8D
Copy CRC 1CDA5D8D
Cannot be verified as accurate (confidence 1) [F5990072], AccurateRip returned [0C8F0134] (AR v2)
Copy OK


No tracks could be verified as accurate
You may have a different pressing from the one(s) in the database

No errors occurred

End of status report
[свернуть]

Файл CUE

REM GENRE Vocal
REM DATE 2001
REM DISCID 1C0D7514
REM COMMENT "by sergych"
PERFORMER "Лемешев Сергей Яковлевич"
TITLE "20 золотых песен"
FILE "01 - Хотел бы в единое слово.mp3" WAVE
TRACK 01 AUDIO
TITLE "Хотел бы в единое слово.."
PERFORMER "Лемешев Сергей Яковлевич"
INDEX 01 00:00:00
FILE "02 - Не долго нам гулять.mp3" WAVE
TRACK 02 AUDIO
TITLE "Не долго нам гулять.."
PERFORMER "Лемешев Сергей Яковлевич"
INDEX 01 00:00:00
FILE "03 - Корольки.mp3" WAVE
TRACK 03 AUDIO
TITLE "Корольки"
PERFORMER "Лемешев Сергей Яковлевич"
INDEX 01 00:00:00
FILE "04 - Ни отзыва, ни слова, ни привета.mp3" WAVE
TRACK 04 AUDIO
TITLE "Ни отзыва, ни слова, ни привета.."
PERFORMER "Лемешев Сергей Яковлевич"
INDEX 01 00:00:00
FILE "05 - Серенада Дон-Жуана.mp3" WAVE
TRACK 05 AUDIO
TITLE "Серенада Дон-Жуана"
PERFORMER "Лемешев Сергей Яковлевич"
INDEX 01 00:00:00
FILE "06 - То было раннею весной.mp3" WAVE
TRACK 06 AUDIO
TITLE "То было раннею весной.."
PERFORMER "Лемешев Сергей Яковлевич"
INDEX 01 00:00:00
FILE "07 - Средь шумного бала.mp3" WAVE
TRACK 07 AUDIO
TITLE "Средь шумного бала.."
PERFORMER "Лемешев Сергей Яковлевич"
INDEX 01 00:00:00
FILE "08 - Пимпинелла.mp3" WAVE
TRACK 08 AUDIO
TITLE "Пимпинелла"
PERFORMER "Лемешев Сергей Яковлевич"
INDEX 01 00:00:00
FILE "09 - Серенада (О, дитя).mp3" WAVE
TRACK 09 AUDIO
TITLE "Серенада (О, дитя)"
PERFORMER "Лемешев Сергей Яковлевич"
INDEX 01 00:00:00
FILE "10 - Весна (Уж тает снег..).mp3" WAVE
TRACK 10 AUDIO
TITLE "Весна (Уж тает снег..)"
PERFORMER "Лемешев Сергей Яковлевич"
INDEX 01 00:00:00
FILE "11 - Весна (Травка зеленеет..).mp3" WAVE
TRACK 11 AUDIO
TITLE "Весна (Травка зеленеет..)"
PERFORMER "Лемешев Сергей Яковлевич"
INDEX 01 00:00:00
FILE "12 - Детская песенка (Мой Лизочек..).mp3" WAVE
TRACK 12 AUDIO
TITLE "Детская песенка (Мой Лизочек..)"
PERFORMER "Лемешев Сергей Яковлевич"
INDEX 01 00:00:00
FILE "13 - Я тебе ничего не скажу.mp3" WAVE
TRACK 13 AUDIO
TITLE "Я тебе ничего не скажу.."
PERFORMER "Лемешев Сергей Яковлевич"
INDEX 01 00:00:00
FILE "14 - О, если б знали Вы.mp3" WAVE
TRACK 14 AUDIO
TITLE "О, если б знали Вы.."
PERFORMER "Лемешев Сергей Яковлевич"
INDEX 01 00:00:00
FILE "15 - Соловей.mp3" WAVE
TRACK 15 AUDIO
TITLE "Соловей"
PERFORMER "Лемешев Сергей Яковлевич"
INDEX 01 00:00:00
FILE "16 - Редеет облаков летучая гряда.mp3" WAVE
TRACK 16 AUDIO
TITLE "Редеет облаков летучая гряда.."
PERFORMER "Лемешев Сергей Яковлевич"
INDEX 01 00:00:00
FILE "17 - Красавица.mp3" WAVE
TRACK 17 AUDIO
TITLE "Красавица"
PERFORMER "Лемешев Сергей Яковлевич"
INDEX 01 00:00:00
FILE "18 - То было раннею весной.mp3" WAVE
TRACK 18 AUDIO
TITLE "То было раннею весной.."
PERFORMER "Лемешев Сергей Яковлевич"
INDEX 01 00:00:00
FILE "19 - Вчера мы встретились.mp3" WAVE
TRACK 19 AUDIO
TITLE "Вчера мы встретились.."
PERFORMER "Лемешев Сергей Яковлевич"
INDEX 01 00:00:00
FILE "20 - Давно в любви отрады мало.mp3" WAVE
TRACK 20 AUDIO
TITLE "Давно в любви отрады мало.."
PERFORMER "Лемешев Сергей Яковлевич"
INDEX 01 00:00:00
[свернуть]

Скачать Сергей Лемешев - 20 золотых песен

[Ссылки могут видеть только зарегистрированные пользователи. ]

password: sergych
[свернуть]
My opinion of release: 10/10
__________________
TAIFUN.Wings of Soul

Вверх
Похожие темы
Тема Автор Раздел Ответов Последнее сообщение
Релиз гр."Бутырка", И. Кучин, С. Наговицын - 3D Коллекция: 20 золотых хитов fly123 Шансон 0 24.10.2012 22:00
VA 25 золотых песен начала ХХ века. Песни горя, улицы и нищеты PUPOKIN Ретро 0 23.06.2011 10:13
Сборник Лемешев Сергей - Золотые россыпи романса PUPOKIN Folk (народная) 0 14.01.2011 10:44
Сборник 20 красногвардейских песен PUPOKIN Folk (народная) 0 21.01.2009 10:19
Сборник 200 Самых Золотых Хитов 80-х и 90-х LUСIAN Сборники 0 15.05.2008 01:37


Метки
20 золотых песен , 2001 , романс , сергей лемешев

Опции темы

Ваши права в разделе
Вы не можете создавать новые темы
Вы не можете отвечать в темах
Вы не можете прикреплять вложения
Вы не можете редактировать свои сообщения

Быстрый переход



Текущее время: 18:41. Часовой пояс GMT +3.
Powered by vBulletin® Version 3.8.7
Copyright ©2000 - 2017, vBulletin Solutions, Inc. Перевод: zCarot
© 2008 - 2017 Taifun With Song
Яндекс.Метрика