TAIFUN With Song
А знаете ли Вы, что...
Почему песня «А может быть ворона» из советского мультфильма была записана в ускоренном темпе?
«Песня «А может быть ворона» изначально должна была звучать в мультфильме «Пластилиновая ворона» в обычном темпе. Однако режиссёр Александр Татарский не проследил за временем записи, из-за чего песня не уложилась в отведённые 5 минут анимации. Решение было найдено простое — песню ускорили, в результате чего она приобрела своё знаменитое «мультяшное» звучание.»
 
Опции темы

  #1
Старый 09.09.2013, 19:32
sergych
Координатор
Досье
 
Аватар для sergych
Релиз In-Grid - Tu Es Foutu


2002 - In-Grid - Tu Es Foutu




Исполнитель/Artist: In-Grid
Альбом/Album: Tu Es Foutu (Maxi-Single)
Год/Year: 2002
Жанр/Genre: Electrotango, dance-pop, house
Страна/Country: Германия
Рекорд-лейбл/Record label: ZYX Music
Номер в каталоге/Catalogue #: GDC 2312-8
Формат/Format: Free Lossless Audio Codec (*.flac)
Качество/Quality: Lossless
Тип рипа/RIP Type: tracks+.cue
Продолжительность/Length: 00:23:08
Источник/Source: Собственный рип
Размер/Size: 177 MB

Сканы в комплекте

Треклист

01 - Tu Es Foutu (Original Radio Edit)
02 - Tu Es Foutu (Original Extended)
03 - Tu Es Foutu (Harlem Hustlers Club Mix)
04 - Tu Es Foutu (Original Instrumental)
[свернуть]

youtube.com

[свернуть]

EAC лог

Exact Audio Copy V1.0 beta 3 from 29. August 2011

EAC extraction logfile from 9. September 2013, 11:35

In-Grid / Tu Es Foutu

Used drive : HL-DT-STDVDRAM GH22NS50 Adapter: 2 ID: 1

Read mode : Secure
Utilize accurate stream : Yes
Defeat audio cache : Yes
Make use of C2 pointers : No

Read offset correction : 667
Overread into Lead-In and Lead-Out : No
Fill up missing offset samples with silence : Yes
Delete leading and trailing silent blocks : No
Null samples used in CRC calculations : Yes
Used interface : Native Win32 interface for Win NT & 2000
Gap handling : Appended to previous track

Used output format : User Defined Encoder
Selected bitrate : 1024 kBit/s
Quality : High
Add ID3 tag : No
Command line compressor : C:\MMProgram\Exact Audio Copy\FLAC\FLAC.EXE
Additional command line options : -6 -V -T "ARTIST=%artist%" -T "TITLE=%title%" -T "ALBUM=%albumtitle%" -T "DATE=%year%" -T "TRACKNUMBER=%tracknr%" -T "GENRE=%genre%" -T "COMMENT=%comment%" -T "BAND=%albuminterpret%" -T "ALBUMARTIST=%albuminterpret%" -T "COMPOSER=%composer%" %haslyrics%--tag-from-file=LYRICS="%lyricsfile%"%haslyrics% -T "DISCNUMBER=%cdnumber%" -T "TOTALDISCS=%totalcds%" -T "TOTALTRACKS=%numtracks%" %hascover%--picture="%coverfile%"%hascover% %source% -o %dest%


TOC of the extracted CD

Track | Start | Length | Start sector | End sector
---------------------------------------------------------
1 | 0:00.00 | 3:38.57 | 0 | 16406
2 | 3:38.57 | 6:01.15 | 16407 | 43496
3 | 9:39.72 | 7:34.02 | 43497 | 77548
4 | 17:13.74 | 6:00.25 | 77549 | 104573


Track 1

Filename D:\mm\In-Grid\2002 - Tu Es Foutu (Maxi-Single)\01 - Tu Es Foutu (Original Radio Edit).wav

Pre-gap length 0:00:02.00

Peak level 100.0 %
Extraction speed 1.0 X
Track quality 99.9 %
Test CRC A55496BE
Copy CRC A55496BE
Cannot be verified as accurate (confidence 10) [BFC38861], AccurateRip returned [914D7A32] (AR v2)
Copy OK

Track 2

Filename D:\mm\In-Grid\2002 - Tu Es Foutu (Maxi-Single)\02 - Tu Es Foutu (Original Extended).wav

Pre-gap length 0:00:01.74

Peak level 99.8 %
Extraction speed 1.3 X
Track quality 99.9 %
Test CRC 3B08B632
Copy CRC 3B08B632
Cannot be verified as accurate (confidence 10) [E9CDE240], AccurateRip returned [E0AE3165] (AR v2)
Copy OK

Track 3

Filename D:\mm\In-Grid\2002 - Tu Es Foutu (Maxi-Single)\03 - Tu Es Foutu (Harlem Hustlers Club Mix).wav

Pre-gap length 0:00:02.00

Peak level 98.0 %
Extraction speed 1.6 X
Track quality 100.0 %
Test CRC 658B6C84
Copy CRC 658B6C84
Cannot be verified as accurate (confidence 10) [03F52197], AccurateRip returned [AA7E6B9D] (AR v2)
Copy OK

Track 4

Filename D:\mm\In-Grid\2002 - Tu Es Foutu (Maxi-Single)\04 - Tu Es Foutu (Original Instrumental).wav

Pre-gap length 0:00:02.00

Peak level 99.8 %
Extraction speed 1.8 X
Track quality 100.0 %
Test CRC 21543517
Copy CRC 21543517
Cannot be verified as accurate (confidence 10) [DC558BF9], AccurateRip returned [792578E5] (AR v2)
Copy OK


No tracks could be verified as accurate
You may have a different pressing from the one(s) in the database

No errors occurred

End of status report
[свернуть]

Файл CUE

REM GENRE Pop
REM DATE 2002
REM DISCID 1D057204
REM COMMENT "ExactAudioCopy v1.0b3"
PERFORMER "In-Grid"
TITLE "Tu Es Foutu"
FILE "01 - Tu Es Foutu (Original Radio Edit).wav" WAVE
TRACK 01 AUDIO
TITLE "Tu Es Foutu (Original Radio Edit)"
PERFORMER "In-Grid"
INDEX 01 00:00:00
TRACK 02 AUDIO
TITLE "Tu Es Foutu (Original Extended)"
PERFORMER "In-Grid"
INDEX 00 03:36:58
FILE "02 - Tu Es Foutu (Original Extended).wav" WAVE
INDEX 01 00:00:00
TRACK 03 AUDIO
TITLE "Tu Es Foutu (Harlem Hustlers Club Mix)"
PERFORMER "In-Grid"
INDEX 00 05:59:15
FILE "03 - Tu Es Foutu (Harlem Hustlers Club Mix).wav" WAVE
INDEX 01 00:00:00
TRACK 04 AUDIO
TITLE "Tu Es Foutu (Original Instrumental)"
PERFORMER "In-Grid"
INDEX 00 07:32:02
FILE "04 - Tu Es Foutu (Original Instrumental).wav" WAVE
INDEX 01 00:00:00
[свернуть]

Лог проверки качества

AUDIOCHECKER v2.0 beta (build 457) - by Dester - [Ссылки могут видеть только зарегистрированные пользователи. ]
~~~~~~~~~~~~~~~~~~~~~~~~~~~~~~~~~~
-=== НЕ РЕДАКТИРУЙТЕ ЭТОТ ФАЙЛ! ===-

Путь: ...\2002 - Tu Es Foutu (Maxi-Single)

1 -=- 01 - Tu Es Foutu (Original Radio Edit).flac -=- CDDA (100%)
2 -=- 02 - Tu Es Foutu (Original Extended).flac -=- CDDA (100%)
3 -=- 03 - Tu Es Foutu (Harlem Hustlers Club Mix).flac -=- CDDA (100%)
4 -=- 04 - Tu Es Foutu (Original Instrumental).flac -=- CDDA (100%)

Сводка 100,00% CDDA

191052708
[свернуть]

Скачать In-Grid - Tu Es Foutu

[Ссылки могут видеть только зарегистрированные пользователи. ]

password: sergych
[свернуть]
My opinion of release: 8/10
__________________
TAIFUN.Wings of Soul

Вверх
  #2
Старый 01.05.2017, 10:31
sergych
Координатор
Досье
 
Аватар для sergych
Релиз Re: In-Grid - Tu Es Foutu


2002 - In Grid - Tu Es Foutu {The Mix}




Исполнитель/Artist: In Grid
Альбом/Album: Tu Es Foutu {The Mix}
Год/Year: 2002
Жанр/Genre: Electrotango, dance-pop, house
Страна/Country: Европа
Рекорд-лейбл/Record label: Virgin
Формат/Format: Free Lossless Audio Codec (*.flac)
Качество/Quality: Lossless
Тип рипа/RIP Type: image+.cue
Продолжительность/Length: 01:09:12
Источник/Source: Собственный рип
Размер/Size: 442.7 MB

Сканы в комплекте

Треклист

01. Instrumental Mix [0:05:43.03]
02. Kickflip [0:06:18.59]
03. Radio Edit [0:03:29.54]
04. Mother [0:05:38.09]
05. Club Mix [0:06:48.13]
06. Gator [0:05:17.56]
07. Tranquility [0:07:46.61]
08. Extended Version [0:05:56.24]
09. Deluxe [0:04:52.44]
10. That Feeling [0:07:14.38]
11. Dj Stebz Remix [0:10:06.40]
[свернуть]

youtube.com

[свернуть]

EAC лог

Exact Audio Copy V1.2 from 12. August 2016

EAC extraction logfile from 22. January 2017, 1:28

In Grid / Tu Es Foutu {The Mix}

Used drive : PLEXTOR DVDR PX-716A Adapter: 1 ID: 0

Read mode : Secure
Utilize accurate stream : Yes
Defeat audio cache : Yes
Make use of C2 pointers : No

Read offset correction : 30
Overread into Lead-In and Lead-Out : No
Fill up missing offset samples with silence : Yes
Delete leading and trailing silent blocks : No
Null samples used in CRC calculations : Yes
Used interface : Native Win32 interface for Win NT & 2000

Used output format : User Defined Encoder
Selected bitrate : 1024 kBit/s
Quality : High
Add ID3 tag : No
Command line compressor : C:\Program Files (x86)\Exact Audio Copy\FLAC\FLAC.EXE
Additional command line options : -6 -V -T "ARTIST=%artist%" -T "TITLE=%title%" -T "ALBUM=%albumtitle%" -T "DATE=%year%" -T "TRACKNUMBER=%tracknr%" -T "GENRE=%genre%" -T "COMMENT=%comment%" -T "BAND=%albuminterpret%" -T "ALBUMARTIST=%albuminterpret%" -T "COMPOSER=%composer%" %haslyrics%--tag-from-file=LYRICS="%lyricsfile%"%haslyrics% -T "DISCNUMBER=%cdnumber%" -T "TOTALDISCS=%totalcds%" -T "TOTALTRACKS=%numtracks%" %hascover%--picture="%coverfile%"%hascover% %source% -o %dest%


TOC of the extracted CD

Track | Start | Length | Start sector | End sector
---------------------------------------------------------
1 | 0:00.00 | 5:43.03 | 0 | 25727
2 | 5:43.03 | 6:18.59 | 25728 | 54136
3 | 12:01.62 | 3:29.54 | 54137 | 69865
4 | 15:31.41 | 5:38.09 | 69866 | 95224
5 | 21:09.50 | 6:48.13 | 95225 | 125837
6 | 27:57.63 | 5:17.56 | 125838 | 149668
7 | 33:15.44 | 7:46.61 | 149669 | 184679
8 | 41:02.30 | 5:56.24 | 184680 | 211403
9 | 46:58.54 | 4:52.44 | 211404 | 233347
10 | 51:51.23 | 7:14.38 | 233348 | 265935
11 | 59:05.61 | 10:06.40 | 265936 | 311425


Range status and errors

Selected range

Filename C:\mm\In Grid\2002 - Tu Es Foutu {The Mix}\In Grid - Tu Es Foutu {The Mix}.wav

Peak level 100.0 %
Extraction speed 3.7 X
Range quality 99.9 %
Test CRC 8C2BB26E
Copy CRC 8C2BB26E
Copy OK

No errors occurred


AccurateRip summary

Track 1 cannot be verified as accurate (confidence 1) [A3F1BAC2], AccurateRip returned [F3B50BE1] (AR v2)
Track 2 cannot be verified as accurate (confidence 1) [444BAE93], AccurateRip returned [3CB5A14D] (AR v2)
Track 3 cannot be verified as accurate (confidence 1) [7295F9C5], AccurateRip returned [BCD716EA] (AR v2)
Track 4 cannot be verified as accurate (confidence 1) [61C5337A], AccurateRip returned [146407CE] (AR v2)
Track 5 cannot be verified as accurate (confidence 1) [382765FA], AccurateRip returned [18C00BE6] (AR v2)
Track 6 cannot be verified as accurate (confidence 1) [43AD39EF], AccurateRip returned [C8BD29CD] (AR v2)
Track 7 cannot be verified as accurate (confidence 1) [0C8CF6F4], AccurateRip returned [285A199E] (AR v2)
Track 8 cannot be verified as accurate (confidence 1) [BE9BBF7D], AccurateRip returned [B1DB6027] (AR v2)
Track 9 cannot be verified as accurate (confidence 1) [C1AEAB69], AccurateRip returned [691D2EE8] (AR v2)
Track 10 cannot be verified as accurate (confidence 1) [BC919524], AccurateRip returned [62190839] (AR v2)
Track 11 cannot be verified as accurate (confidence 1) [A685E425], AccurateRip returned [1C5A3FE3] (AR v2)

No tracks could be verified as accurate
You may have a different pressing from the one(s) in the database

End of status report

---- CUETools DB Plugin V2.1.6

[CTDB TOCID: ZqX7_ETCfhJ0sAGYIetEfcKVrdc-] found
Submit result: ZqX7_ETCfhJ0sAGYIetEfcKVrdc- has been confirmed
Track | CTDB Status
1 | (1/1) Accurately ripped
2 | (1/1) Accurately ripped
3 | (1/1) Accurately ripped
4 | (1/1) Accurately ripped
5 | (1/1) Accurately ripped
6 | (1/1) Accurately ripped
7 | (1/1) Accurately ripped
8 | (1/1) Accurately ripped
9 | (1/1) Accurately ripped
10 | (1/1) Accurately ripped
11 | (1/1) Accurately ripped
[свернуть]

Файл CUE

REM GENRE Eurodance
REM DATE 2002
REM DISCID 9C10380B
REM COMMENT "ExactAudioCopy v1.2"
PERFORMER "In Grid"
TITLE "Tu Es Foutu {The Mix}"
REM COMPOSER ""
FILE "In Grid - Tu Es Foutu {The Mix}.flac" WAVE
TRACK 01 AUDIO
TITLE "Instrumental Mix"
PERFORMER "In Grid"
REM COMPOSER ""
INDEX 01 00:00:00
TRACK 02 AUDIO
TITLE "Kickflip"
PERFORMER "In Grid"
REM COMPOSER ""
INDEX 01 05:43:03
TRACK 03 AUDIO
TITLE "Radio Edit"
PERFORMER "In Grid"
REM COMPOSER ""
INDEX 01 12:01:62
TRACK 04 AUDIO
TITLE "Mother"
PERFORMER "In Grid"
REM COMPOSER ""
INDEX 01 15:31:41
TRACK 05 AUDIO
TITLE "Club Mix"
PERFORMER "In Grid"
REM COMPOSER ""
INDEX 01 21:09:50
TRACK 06 AUDIO
TITLE "Gator"
PERFORMER "In Grid"
REM COMPOSER ""
INDEX 01 27:57:63
TRACK 07 AUDIO
TITLE "Tranquility"
PERFORMER "In Grid"
REM COMPOSER ""
INDEX 01 33:15:44
TRACK 08 AUDIO
TITLE "Extended Version"
PERFORMER "In Grid"
REM COMPOSER ""
INDEX 01 41:02:30
TRACK 09 AUDIO
TITLE "Deluxe"
PERFORMER "In Grid"
REM COMPOSER ""
INDEX 01 46:58:54
TRACK 10 AUDIO
TITLE "That Feeling"
PERFORMER "In Grid"
REM COMPOSER ""
INDEX 01 51:51:23
TRACK 11 AUDIO
TITLE "Dj Stebz Remix"
PERFORMER "In Grid"
REM COMPOSER ""
INDEX 01 59:05:61
[свернуть]

Лог проверки качества

AUDIOCHECKER v2.0 beta (build 457) - by Dester - [Ссылки могут видеть только зарегистрированные пользователи. ]
~~~~~~~~~~~~~~~~~~~~~~~~~~~~~~~~~~
-=== НЕ РЕДАКТИРУЙТЕ ЭТОТ ФАЙЛ! ===-

Путь: ...\2002 - Tu Es Foutu {The Mix}

1 -=- In Grid - Tu Es Foutu {The Mix}.flac -=- MPEG (95%)

65953012
[свернуть]

Спектр частот

[свернуть]

Скачать In Grid - Tu Es Foutu {The Mix}

[Ссылки могут видеть только зарегистрированные пользователи. ]

password: sergych
[свернуть]

Контрольная сумма (хеш-сумма) архива

MD5: e93dae487526328968e57ad70eb6080f
[свернуть]
My opinion of release: 8/10
__________________
TAIFUN.Wings of Soul

Вверх
2 пользователя(ей) сказали cпасибо:
johnsilver (01.05.2017), swint68 (01.05.2017)
Похожие темы
Тема Автор Раздел Ответов Последнее сообщение
Альбом In-Grid - La Vie En Rose sergych Зарубежная Поп-Музыка 1 03.10.2013 18:39
Альбом In-Grid - Passion sergych Зарубежная Поп-Музыка 2 20.09.2013 21:53
Альбом In-Grid - Rendez Vous PUPOKIN Зарубежная Поп-Музыка 1 09.09.2013 20:24
Релиз rs.Reason - Grid Shit LP PUPOKIN Русский, украинский 0 20.10.2010 11:11
Сингл In-Grid - In-Tango sergych Зарубежная Поп-Музыка 0 04.04.2009 08:03


Метки
2002 , dance-pop , electrotango , house , in-grid , tu es foutu (maxi-single)

Опции темы

Ваши права в разделе
Вы не можете создавать новые темы
Вы не можете отвечать в темах
Вы не можете прикреплять вложения
Вы не можете редактировать свои сообщения

Быстрый переход



Текущее время: 21:26. Часовой пояс GMT +3.
Powered by vBulletin® Version 3.8.7
Copyright ©2000 - 2017, vBulletin Solutions, Inc. Перевод: zCarot
© 2008 - 2017 Taifun With Song
Яндекс.Метрика