TAIFUN With Song
Вернуться   TAIFUN With Song > Music (обменник) > Rock > Soft Rock
Расширенный поиск
Soft Rock Это музыкальный стиль, который использует технику рок-н-ролла чтобы достичь более мягкого, более приятного для слуха звука, чтобы такую музыку было приятно слушать, например, на работе или за рулем. Soft rock всегда поется с высокими голосами, если певец мужчина, то он будет петь фальцетом, слова soft rock’а всегда сфокусированы на приятные темы, такие, как любовь, ежедневная жизнь и дружба.

А знаете ли Вы, что...
Почему песня «А может быть ворона» из советского мультфильма была записана в ускоренном темпе?
«Песня «А может быть ворона» изначально должна была звучать в мультфильме «Пластилиновая ворона» в обычном темпе. Однако режиссёр Александр Татарский не проследил за временем записи, из-за чего песня не уложилась в отведённые 5 минут анимации. Решение было найдено простое — песню ускорили, в результате чего она приобрела своё знаменитое «мультяшное» звучание.»
 
Опции темы

  #1
Старый 21.08.2013, 17:50
aheron
Релизёр
Досье
 
Аватар для aheron
Релиз Chris de Burgh - Into The Light


1989 - Chris de Burgh - Into The Light



[Ссылки могут видеть только зарегистрированные пользователи. ]

Исполнитель/Artist: Chris de Burgh
Альбом/Album: Into The Light (1st Press USA)
Год/Year: 1989
Жанр/Genre: Soft Rock, Pop Rock, Ballad
Страна/Country: Соединённые Штаты
Рекорд-лейбл/Record label: A&M Records, Inc.(AM+)
Номер в каталоге/Catalogue #: CD 5121/DX 639
Формат/Format: Free Lossless Audio Codec (*.flac)
Качество/Quality: Lossless
Тип рипа/RIP Type: image+.cue


Продолжительность/Length: 00:50:34
Источник/Source: Из интернета
Размер/Size: 505 MB

Сканы в комплекте

[Ссылки могут видеть только зарегистрированные пользователи. ]

Треклист

01. Chris De Burgh - Last Night [6:09]
02. Chris De Burgh - Fire On The Water [4:31]
03. Chris De Burgh - The Ballroom Of Romance [4:28]
04. Chris De Burgh - The Lady In Red [4:16]
05. Chris De Burgh - Say Goodbye To It All [5:23]
06. Chris De Burgh - The Spirit Of Man [4:41]
07. Chris De Burgh - Fatal Hesitation [4:18]
08. Chris De Burgh - One Word (Straight To The Heart) [4:33]
09. Chris De Burgh - For Rosanna [3:40]
10. Chris De Burgh - The Leader [2:16]
11. Chris De Burgh - The Vision [3:14]
12. Chris De Burgh - What About Me? [3:05]
--------------------------------
Total time: [50:34]
[свернуть]

EAC лог

Exact Audio Copy V0.99 prebeta 5 from 4. May 2009

EAC extraction logfile from 11. November 2010, 19:41

Chris De Burgh / Into The Light

Used drive : PIONEER DVD-RW DVR-112D Adapter: 2 ID: 0

Read mode : Secure
Utilize accurate stream : Yes
Defeat audio cache : Yes
Make use of C2 pointers : No

Read offset correction : 48
Overread into Lead-In and Lead-Out : No
Fill up missing offset samples with silence : Yes
Delete leading and trailing silent blocks : No
Null samples used in CRC calculations : Yes
Used interface : Installed external ASPI interface

Used output format : User Defined Encoder
Selected bitrate : 1024 kBit/s
Quality : High
Add ID3 tag : No
Command line compressor : C:\Program Files (x86)\Exact Audio Copy\Flac\flac.exe
Additional command line options : -5 -V -T "ARTIST=%a" -T "TITLE=%t" -T "ALBUM=%g" -T "DATE=%y" -T "TRACKNUMBER=%n" -T "GENRE=%m" -T "COMMENT=EAC FLAC -5" %s


TOC of the extracted CD

Track | Start | Length | Start sector | End sector
---------------------------------------------------------
1 | 0:00.00 | 6:09.18 | 0 | 27692
2 | 6:09.18 | 4:30.67 | 27693 | 48009
3 | 10:40.10 | 4:27.38 | 48010 | 68072
4 | 15:07.48 | 4:16.37 | 68073 | 87309
5 | 19:24.10 | 5:22.50 | 87310 | 111509
6 | 24:46.60 | 4:41.28 | 111510 | 132612
7 | 29:28.13 | 4:17.47 | 132613 | 151934
8 | 33:45.60 | 4:33.10 | 151935 | 172419
9 | 38:18.70 | 3:39.60 | 172420 | 188904
10 | 41:58.55 | 2:16.03 | 188905 | 199107
11 | 44:14.58 | 3:13.62 | 199108 | 213644
12 | 47:28.45 | 3:05.30 | 213645 | 227549


Range status and errors

Selected range

Filename F:\Chris De Burgh - Into The Light - 1986\Chris De Burgh - Into The Light.wav

Peak level 90.6 %
Range quality 100.0 %
Test CRC A9864522
Copy CRC A9864522
Copy OK

No errors occurred


AccurateRip summary

Track 1 accurately ripped (confidence 6) [0EBCBB96]
Track 2 accurately ripped (confidence 6) [D968DEDF]
Track 3 accurately ripped (confidence 6) [7C337964]
Track 4 accurately ripped (confidence 7) [C1E9E657]
Track 5 accurately ripped (confidence 6) [B0918D5A]
Track 6 accurately ripped (confidence 6) [CF2041E0]
Track 7 accurately ripped (confidence 6) [9718A0C6]
Track 8 accurately ripped (confidence 6) [B45CF998]
Track 9 accurately ripped (confidence 6) [DC2A4C3E]
Track 10 accurately ripped (confidence 6) [71BA84AA]
Track 11 accurately ripped (confidence 6) [0358CA61]
Track 12 accurately ripped (confidence 6) [B1C39C4A]

All tracks accurately ripped

End of status report
[свернуть]

Лог проверки качества

-----------------------

DON'T MODIFY THIS FILE

-----------------------

PERFORMER: auCDtect Task Manager, ver. 1.6.0 RC1 build 1.6.0.1
Copyright (c) 2008-2010 y-soft. All rights reserved
[Ссылки могут видеть только зарегистрированные пользователи. ]

ANALYZER: auCDtect: CD records authenticity detector, version 0.8.2
Copyright (c) 2004 Oleg Berngardt. All rights reserved.
Copyright (c) 2004 Alexander Djourik. All rights reserved.


FILE: Chris De Burgh - Into The Light.flac
Size: 315742923 Hash: B6AD460774E43D09EBD3C99F4BEFAC9C Accuracy: -m0
Conclusion: MPEG 95%
Signature: 6C04EA801A3FCE7A83FDEFDFA3FFA0428BF08914
[свернуть]

Спектр частот

[свернуть]

Скачать Chris de Burgh - Into The Ligh

Яндекс.Диск
[Ссылки могут видеть только зарегистрированные пользователи. ]
password: aheron
[свернуть]


Последний раз редактировалось aheron, 21.08.2013 в 18:06.
Вверх
Пользователь сказал cпасибо:
sergych (21.08.2013)
  #2
Старый 26.05.2017, 20:45
sergych
Координатор
Досье
 
Аватар для sergych
Релиз Re: Chris de Burgh - Into The Light


1986 - Chris De Burgh - Into The Light




Исполнитель/Artist: Chris De Burgh
Альбом/Album: Into The Light
Год/Year: 1986
Жанр/Genre: Soft Rock, Pop Rock, Ballad
Страна/Country: Великобритания
Рекорд-лейбл/Record label: A&M Records
Номер в каталоге/Catalogue #: CDA 5121
Формат/Format: Free Lossless Audio Codec (*.flac)
Качество/Quality: Lossless
Тип рипа/RIP Type: image+.cue
Продолжительность/Length: 00:50:38
Источник/Source: Собственный рип
Размер/Size: 339.1 MB

Сканы в комплекте

Треклист

01. Last Night [0:06:09.32]
02. Fire On The Water [0:04:31.05]
03. The Ballroom Of Romance [0:04:27.10]
04. The Lady In Red [0:04:16.10]
05. Say Goodbye To It All [0:05:25.58]
06. The Spirit Of Man [0:04:41.72]
07. Fatal Hesitation [0:04:17.28]
08. One Word (Straight To The Heart) [0:04:33.07]
09. For Rosanna [0:03:39.33]
10. The Leader [0:02:16.65]
11. The Vision [0:03:12.62]
12. What About Me? [0:03:06.68]
[свернуть]

youtube.com

[свернуть]

Исполнители/Performers

Chris de Burgh – lead and backing vocals, guitars
Jeff Phillips, Peter Van Hooke, Tony Beard – drums
Glenn Morrow, Nick Glennie-Smith – keyboards
Carol Kenyon – additional vocals (6)
Gary Barnacle, Ian Kojima – saxophone
Danny McBride, Phil Palmer – guitars
Al Marnie, John Giblin, Pino Palladino – bass
Andy Richards – keyboards
[свернуть]

EAC лог

Exact Audio Copy V1.3 from 2. September 2016

EAC extraction logfile from 29. March 2017, 20:46

Chris De Burgh / Into The Light

Used drive : PLEXTOR DVDR PX-716A Adapter: 1 ID: 0

Read mode : Secure
Utilize accurate stream : Yes
Defeat audio cache : Yes
Make use of C2 pointers : No

Read offset correction : 30
Overread into Lead-In and Lead-Out : No
Fill up missing offset samples with silence : Yes
Delete leading and trailing silent blocks : No
Null samples used in CRC calculations : Yes
Used interface : Native Win32 interface for Win NT & 2000

Used output format : User Defined Encoder
Selected bitrate : 1024 kBit/s
Quality : High
Add ID3 tag : No
Command line compressor : C:\Program Files (x86)\Exact Audio Copy\FLAC\FLAC.EXE
Additional command line options : -6 -V -T "ARTIST=%artist%" -T "TITLE=%title%" -T "ALBUM=%albumtitle%" -T "DATE=%year%" -T "TRACKNUMBER=%tracknr%" -T "GENRE=%genre%" -T "COMMENT=%comment%" -T "BAND=%albuminterpret%" -T "ALBUMARTIST=%albuminterpret%" -T "COMPOSER=%composer%" %haslyrics%--tag-from-file=LYRICS="%lyricsfile%"%haslyrics% -T "DISCNUMBER=%cdnumber%" -T "TOTALDISCS=%totalcds%" -T "TOTALTRACKS=%numtracks%" %hascover%--picture="%coverfile%"%hascover% %source% -o %dest%


TOC of the extracted CD

Track | Start | Length | Start sector | End sector
---------------------------------------------------------
1 | 0:00.00 | 6:09.32 | 0 | 27706
2 | 6:09.32 | 4:31.05 | 27707 | 48036
3 | 10:40.37 | 4:27.10 | 48037 | 68071
4 | 15:07.47 | 4:16.10 | 68072 | 87281
5 | 19:23.57 | 5:25.58 | 87282 | 111714
6 | 24:49.40 | 4:41.72 | 111715 | 132861
7 | 29:31.37 | 4:17.28 | 132862 | 152164
8 | 33:48.65 | 4:33.07 | 152165 | 172646
9 | 38:21.72 | 3:39.33 | 172647 | 189104
10 | 42:01.30 | 2:16.65 | 189105 | 199369
11 | 44:18.20 | 3:12.62 | 199370 | 213831
12 | 47:31.07 | 3:06.68 | 213832 | 227849


Range status and errors

Selected range

Filename C:\mm\Chris De Burgh\1986 - Into The Light [CDA 5121]\Chris De Burgh - Into The Light.wav

Peak level 94.1 %
Extraction speed 12.2 X
Range quality 100.0 %
Test CRC ED23BB75
Copy CRC ED23BB75
Copy OK

No errors occurred


AccurateRip summary

Track 1 accurately ripped (confidence 35) [0B1D6F95] (AR v2)
Track 2 accurately ripped (confidence 36) [472E90CC] (AR v2)
Track 3 accurately ripped (confidence 35) [F5BF079D] (AR v2)
Track 4 accurately ripped (confidence 34) [72315A5C] (AR v2)
Track 5 accurately ripped (confidence 36) [0425B6B5] (AR v2)
Track 6 accurately ripped (confidence 37) [F7EBC9D8] (AR v2)
Track 7 accurately ripped (confidence 36) [2446F9B3] (AR v2)
Track 8 accurately ripped (confidence 35) [38D45225] (AR v2)
Track 9 accurately ripped (confidence 36) [07CC34BC] (AR v2)
Track 10 accurately ripped (confidence 36) [F7395647] (AR v2)
Track 11 accurately ripped (confidence 36) [6698D66F] (AR v2)
Track 12 accurately ripped (confidence 35) [092FB5A4] (AR v2)

All tracks accurately ripped

End of status report

---- CUETools DB Plugin V2.1.6

[CTDB TOCID: RsXnQF5Xb49C6DkToK_k5w8Pm34-] found
Submit result: RsXnQF5Xb49C6DkToK_k5w8Pm34- has been confirmed
Track | CTDB Status
1 | (44/44) Accurately ripped
2 | (43/44) Accurately ripped
3 | (44/44) Accurately ripped
4 | (44/44) Accurately ripped
5 | (42/44) Accurately ripped
6 | (43/44) Accurately ripped
7 | (43/44) Accurately ripped
8 | (44/44) Accurately ripped
9 | (43/44) Accurately ripped
10 | (43/44) Accurately ripped
11 | (44/44) Accurately ripped
12 | (35/44) Accurately ripped, or (7/44) differs in 21 samples @02:00:22
[свернуть]

Файл CUE

REM GENRE Rock
REM DATE 1986
REM DISCID 920BDE0C
REM COMMENT "ExactAudioCopy v1.3"
PERFORMER "Chris De Burgh"
TITLE "Into The Light"
REM COMPOSER ""
FILE "Chris De Burgh - Into The Light.flac" WAVE
TRACK 01 AUDIO
TITLE "Last Night"
PERFORMER "Chris De Burgh"
REM COMPOSER ""
INDEX 01 00:00:00
TRACK 02 AUDIO
TITLE "Fire On The Water"
PERFORMER "Chris De Burgh"
REM COMPOSER ""
INDEX 00 06:08:32
INDEX 01 06:09:32
TRACK 03 AUDIO
TITLE "The Ballroom Of Romance"
PERFORMER "Chris De Burgh"
REM COMPOSER ""
INDEX 00 10:38:37
INDEX 01 10:40:37
TRACK 04 AUDIO
TITLE "The Lady In Red"
PERFORMER "Chris De Burgh"
REM COMPOSER ""
INDEX 01 15:07:47
TRACK 05 AUDIO
TITLE "Say Goodbye To It All"
PERFORMER "Chris De Burgh"
REM COMPOSER ""
INDEX 01 19:23:57
TRACK 06 AUDIO
TITLE "The Spirit Of Man"
PERFORMER "Chris De Burgh"
REM COMPOSER ""
INDEX 00 24:47:40
INDEX 01 24:49:40
TRACK 07 AUDIO
TITLE "Fatal Hesitation"
PERFORMER "Chris De Burgh"
REM COMPOSER ""
INDEX 00 29:30:37
INDEX 01 29:31:37
TRACK 08 AUDIO
TITLE "One Word (Straight To The Heart)"
PERFORMER "Chris De Burgh"
REM COMPOSER ""
INDEX 00 33:47:65
INDEX 01 33:48:65
TRACK 09 AUDIO
TITLE "For Rosanna"
PERFORMER "Chris De Burgh"
REM COMPOSER ""
INDEX 00 38:19:72
INDEX 01 38:21:72
TRACK 10 AUDIO
TITLE "The Leader"
PERFORMER "Chris De Burgh"
REM COMPOSER ""
INDEX 01 42:01:30
TRACK 11 AUDIO
TITLE "The Vision"
PERFORMER "Chris De Burgh"
REM COMPOSER ""
INDEX 01 44:18:20
TRACK 12 AUDIO
TITLE "What About Me?"
PERFORMER "Chris De Burgh"
REM COMPOSER ""
INDEX 01 47:31:07
[свернуть]

Лог проверки качества

AUDIOCHECKER v2.0 beta (build 457) - by Dester - [Ссылки могут видеть только зарегистрированные пользователи. ]
~~~~~~~~~~~~~~~~~~~~~~~~~~~~~~~~~~
-=== НЕ РЕДАКТИРУЙТЕ ЭТОТ ФАЙЛ! ===-

Путь: ...\1986 - Into The Light [CDA 5121]

1 -=- Chris De Burgh - Into The Light.flac -=- MPEG (95%)

230530996
[свернуть]

Спектр частот

[свернуть]

Скачать Chris De Burgh - Into The Light

[Ссылки могут видеть только зарегистрированные пользователи. ]

password: sergych
[свернуть]

Контрольная сумма (хеш-сумма) архива

MD5: bd1edec3d19d5a549f061e4eefc12ea6
[свернуть]
My opinion of release: 10/10
__________________
TAIFUN.Wings of Soul

Вверх
3 пользователя(ей) сказали cпасибо:
Показать список поблагодаривших
Похожие темы
Тема Автор Раздел Ответов Последнее сообщение
Релиз Chris De Burgh - Home PUPOKIN Soft Rock 0 11.10.2012 09:29
Альбом Chris de Burgh - Power Of Ten sergych Soft Rock 0 17.02.2011 21:28
Альбом Chris de Burgh - Now And Then sergych Soft Rock 0 08.06.2008 00:32
Альбом Chris de Burgh - Man On The Line sergych Soft Rock 0 08.06.2008 00:32
Альбом Chris de Burgh - This Way Up sergych Soft Rock 0 08.06.2008 00:32


Метки
1989 , ballad , chris de burgh , into the light (1st press usa) , pop rock , soft rock

Опции темы

Ваши права в разделе
Вы не можете создавать новые темы
Вы не можете отвечать в темах
Вы не можете прикреплять вложения
Вы не можете редактировать свои сообщения

Быстрый переход



Текущее время: 12:48. Часовой пояс GMT +3.
Powered by vBulletin® Version 3.8.7
Copyright ©2000 - 2017, vBulletin Solutions, Inc. Перевод: zCarot
© 2008 - 2017 Taifun With Song
Яндекс.Метрика