TAIFUN With Song
Вернуться   TAIFUN With Song > Music (обменник) > Другие направления музыки > Ретро
Расширенный поиск
Ретро Музыка ушедших лет

А знаете ли Вы, что...
Какой отработанный медицинский материал использовался советскими изготовителями кустарных пластинок?
«В СССР для изготовления кустарных пластинок, на которые записывалась нелегальная музыка, широко использовали старые рентгеновские снимки. Их называли «пластинки на костях» или «пластинки на рёбрах». Этот материал обходился бесплатно, медперсонал даже благодарил тех, кто помогал разгружать архивы.»
 
Опции темы

  #1
Старый 20.07.2013, 01:05
sergych
Координатор
Досье
 
Аватар для sergych
Релиз Леонид Утёсов - Если любишь, найди


2004 - Леонид Утёсов - Если любишь, найди




Исполнитель/Artist: Леонид Утёсов
Альбом/Album: Если любишь, найди
Год/Year: 2004
Жанр/Genre: Ретро, jazz
Страна/Country: Russia
Рекорд-лейбл/Record label: Пролог-Мьюзик
Номер в каталоге/Catalogue #: CD RDM 0409500
Формат/Format: Free Lossless Audio Codec (*.flac)
Качество/Quality: Lossless
Тип рипа/RIP Type: tracks+.cue
Продолжительность/Length: 00:52:49
Источник/Source: Собственный рип
Размер/Size: 258.4 MB

Сканы в комплекте

Треклист

01 - Марш из к/ф ''Весёлые ребята''
02 - Пара гнедых
03 - Дядя Эля
04 - Если любишь, найди
05 - По волнам (инстр.)
06 - Танго (Луч надежды)
07 - Пароход
08 - Спи, моё бедное сердце (инстр.)
09 - Лейся, песня (к/ф ''Семеро смелых'')
10 - Тайна
11 - Раскинулось море широко
12 - Дуниада (инстр. Часть 1)
13 - Дуниада (инстр. Часть 2)
14 - Прощальная комсомольская
15 - Искушение (инстр.)
16 - Два друга
17 - Казачья кавалерийская
18 - Сердце
[свернуть]

youtube.com

[свернуть]

EAC лог

Exact Audio Copy V1.0 beta 3 from 29. August 2011

EAC extraction logfile from 20. July 2013, 1:41

Леонид Утёсов / Если любишь, найди

Used drive : ATAPI iHAS124 D Adapter: 0 ID: 2

Read mode : Secure
Utilize accurate stream : Yes
Defeat audio cache : Yes
Make use of C2 pointers : No

Read offset correction : 6
Overread into Lead-In and Lead-Out : No
Fill up missing offset samples with silence : Yes
Delete leading and trailing silent blocks : No
Null samples used in CRC calculations : Yes
Used interface : Installed external ASPI interface
Gap handling : Appended to previous track

Used output format : User Defined Encoder
Selected bitrate : 1024 kBit/s
Quality : High
Add ID3 tag : No
Command line compressor : C:\Program Files (x86)\Exact Audio Copy\FLAC\FLAC.EXE
Additional command line options : -6 -V -T "ARTIST=%artist%" -T "TITLE=%title%" -T "ALBUM=%albumtitle%" -T "DATE=%year%" -T "TRACKNUMBER=%tracknr%" -T "GENRE=%genre%" -T "COMMENT=%comment%" -T "BAND=%albuminterpret%" -T "ALBUMARTIST=%albuminterpret%" -T "COMPOSER=%composer%" %haslyrics%--tag-from-file=LYRICS="%lyricsfile%"%haslyrics% -T "DISCNUMBER=%cdnumber%" -T "TOTALDISCS=%totalcds%" -T "TOTALTRACKS=%numtracks%" %hascover%--picture="%coverfile%"%hascover% %source% -o %dest%


TOC of the extracted CD

Track | Start | Length | Start sector | End sector
---------------------------------------------------------
1 | 0:00.00 | 2:25.15 | 0 | 10889
2 | 2:25.15 | 3:08.62 | 10890 | 25051
3 | 5:34.02 | 3:08.39 | 25052 | 39190
4 | 8:42.41 | 3:01.04 | 39191 | 52769
5 | 11:43.45 | 2:39.28 | 52770 | 64722
6 | 14:22.73 | 2:51.19 | 64723 | 77566
7 | 17:14.17 | 2:46.30 | 77567 | 90046
8 | 20:00.47 | 3:09.08 | 90047 | 104229
9 | 23:09.55 | 2:45.19 | 104230 | 116623
10 | 25:54.74 | 2:58.57 | 116624 | 130030
11 | 28:53.56 | 2:56.72 | 130031 | 143302
12 | 31:50.53 | 3:01.61 | 143303 | 156938
13 | 34:52.39 | 2:54.14 | 156939 | 170002
14 | 37:46.53 | 3:05.69 | 170003 | 183946
15 | 40:52.47 | 2:50.49 | 183947 | 196745
16 | 43:43.21 | 2:51.03 | 196746 | 209573
17 | 46:34.24 | 3:00.18 | 209574 | 223091
18 | 49:34.42 | 3:15.29 | 223092 | 237745


Track 1

Filename C:\mm\Утесов Леонид\2004 - Если любишь, найди\01 - Марш из к,ф ''Весёлые ребята''.wav

Pre-gap length 0:00:02.00

Peak level 97.7 %
Extraction speed 4.6 X
Track quality 100.0 %
Test CRC 635FF50C
Copy CRC 635FF50C
Accurately ripped (confidence 1) [A2268D26] (AR v1)
Copy OK

Track 2

Filename C:\mm\Утесов Леонид\2004 - Если любишь, найди\02 - Пара гнедых.wav

Peak level 92.9 %
Extraction speed 5.3 X
Track quality 100.0 %
Test CRC 9F699935
Copy CRC 9F699935
Accurately ripped (confidence 1) [3D78CCC6] (AR v1)
Copy OK

Track 3

Filename C:\mm\Утесов Леонид\2004 - Если любишь, найди\03 - Дядя Эля.wav

Peak level 97.7 %
Extraction speed 5.7 X
Track quality 100.0 %
Test CRC B6F59269
Copy CRC B6F59269
Accurately ripped (confidence 1) [3D53E2EB] (AR v1)
Copy OK

Track 4

Filename C:\mm\Утесов Леонид\2004 - Если любишь, найди\04 - Если любишь, найди.wav

Peak level 97.7 %
Extraction speed 6.1 X
Track quality 100.0 %
Test CRC 42E96B6A
Copy CRC 42E96B6A
Accurately ripped (confidence 1) [512EC9C3] (AR v1)
Copy OK

Track 5

Filename C:\mm\Утесов Леонид\2004 - Если любишь, найди\05 - По волнам (инстр.).wav

Peak level 97.7 %
Extraction speed 5.0 X
Track quality 99.9 %
Test CRC 85AA2839
Copy CRC 85AA2839
Accurately ripped (confidence 1) [ACBA69A7] (AR v1)
Copy OK

Track 6

Filename C:\mm\Утесов Леонид\2004 - Если любишь, найди\06 - Танго (Луч надежды).wav

Peak level 97.7 %
Extraction speed 6.7 X
Track quality 100.0 %
Test CRC 174A0BFD
Copy CRC 174A0BFD
Accurately ripped (confidence 1) [F1591893] (AR v1)
Copy OK

Track 7

Filename C:\mm\Утесов Леонид\2004 - Если любишь, найди\07 - Пароход.wav

Peak level 97.7 %
Extraction speed 6.9 X
Track quality 100.0 %
Test CRC 2285639A
Copy CRC 2285639A
Accurately ripped (confidence 1) [42D1CADB] (AR v1)
Copy OK

Track 8

Filename C:\mm\Утесов Леонид\2004 - Если любишь, найди\08 - Спи, моё бедное сердце (инстр.).wav

Peak level 97.7 %
Extraction speed 7.4 X
Track quality 100.0 %
Test CRC D9BCBCE1
Copy CRC D9BCBCE1
Accurately ripped (confidence 1) [F7C9E81A] (AR v1)
Copy OK

Track 9

Filename C:\mm\Утесов Леонид\2004 - Если любишь, найди\09 - Лейся, песня (к,ф ''Семеро смелых'').wav

Peak level 97.7 %
Extraction speed 7.5 X
Track quality 100.0 %
Test CRC 1597839B
Copy CRC 1597839B
Accurately ripped (confidence 1) [4DAD37BE] (AR v1)
Copy OK

Track 10

Filename C:\mm\Утесов Леонид\2004 - Если любишь, найди\10 - Тайна.wav

Peak level 97.7 %
Extraction speed 7.9 X
Track quality 100.0 %
Test CRC 1D32C04F
Copy CRC 1D32C04F
Accurately ripped (confidence 1) [89EFF689] (AR v1)
Copy OK

Track 11

Filename C:\mm\Утесов Леонид\2004 - Если любишь, найди\11 - Раскинулось море широко.wav

Peak level 96.8 %
Extraction speed 6.5 X
Track quality 99.9 %
Test CRC 9A46E02B
Copy CRC 9A46E02B
Accurately ripped (confidence 1) [7F3ED77E] (AR v1)
Copy OK

Track 12

Filename C:\mm\Утесов Леонид\2004 - Если любишь, найди\12 - Дуниада (инстр. Часть 1).wav

Peak level 97.7 %
Extraction speed 8.4 X
Track quality 100.0 %
Test CRC E858E3AB
Copy CRC E858E3AB
Accurately ripped (confidence 1) [15562620] (AR v1)
Copy OK

Track 13

Filename C:\mm\Утесов Леонид\2004 - Если любишь, найди\13 - Дуниада (инстр. Часть 2).wav

Peak level 97.7 %
Extraction speed 8.5 X
Track quality 100.0 %
Test CRC C9E02CD4
Copy CRC C9E02CD4
Accurately ripped (confidence 1) [D153546E] (AR v1)
Copy OK

Track 14

Filename C:\mm\Утесов Леонид\2004 - Если любишь, найди\14 - Прощальная комсомольская.wav

Peak level 97.7 %
Extraction speed 7.2 X
Track quality 99.9 %
Test CRC 7448B2D6
Copy CRC 7448B2D6
Accurately ripped (confidence 1) [9DBE6B89] (AR v1)
Copy OK

Track 15

Filename C:\mm\Утесов Леонид\2004 - Если любишь, найди\15 - Искушение (инстр.).wav

Peak level 97.7 %
Extraction speed 7.2 X
Track quality 99.9 %
Test CRC CF898518
Copy CRC CF898518
Accurately ripped (confidence 1) [13A3D071] (AR v1)
Copy OK

Track 16

Filename C:\mm\Утесов Леонид\2004 - Если любишь, найди\16 - Два друга.wav

Peak level 97.7 %
Extraction speed 9.2 X
Track quality 100.0 %
Test CRC 3F958063
Copy CRC 3F958063
Accurately ripped (confidence 1) [08F801BF] (AR v1)
Copy OK

Track 17

Filename C:\mm\Утесов Леонид\2004 - Если любишь, найди\17 - Казачья кавалерийская.wav

Peak level 97.7 %
Extraction speed 7.6 X
Track quality 99.9 %
Test CRC 7DAFC6BE
Copy CRC 7DAFC6BE
Accurately ripped (confidence 1) [3440DC35] (AR v1)
Copy OK

Track 18

Filename C:\mm\Утесов Леонид\2004 - Если любишь, найди\18 - Сердце.wav

Peak level 82.3 %
Extraction speed 9.8 X
Track quality 100.0 %
Test CRC 1C3C7887
Copy CRC 1C3C7887
Accurately ripped (confidence 1) [423D4145] (AR v1)
Copy OK


All tracks accurately ripped

No errors occurred

End of status report
[свернуть]

Файл CUE

REM GENRE Chanson
REM DATE 2004
REM DISCID FD0C6112
REM COMMENT "ExactAudioCopy v1.0b3"
PERFORMER "Леонид Утёсов"
TITLE "Если любишь, найди"
FILE "01 - Марш из к,ф ''Весёлые ребята''.wav" WAVE
TRACK 01 AUDIO
TITLE "Марш из к/ф ''Весёлые ребята''"
PERFORMER "Леонид Утёсов"
INDEX 01 00:00:00
FILE "02 - Пара гнедых.wav" WAVE
TRACK 02 AUDIO
TITLE "Пара гнедых"
PERFORMER "Леонид Утёсов"
INDEX 01 00:00:00
FILE "03 - Дядя Эля.wav" WAVE
TRACK 03 AUDIO
TITLE "Дядя Эля"
PERFORMER "Леонид Утёсов"
INDEX 01 00:00:00
FILE "04 - Если любишь, найди.wav" WAVE
TRACK 04 AUDIO
TITLE "Если любишь, найди"
PERFORMER "Леонид Утёсов"
INDEX 01 00:00:00
FILE "05 - По волнам (инстр.).wav" WAVE
TRACK 05 AUDIO
TITLE "По волнам (инстр.)"
PERFORMER "Леонид Утёсов"
INDEX 01 00:00:00
FILE "06 - Танго (Луч надежды).wav" WAVE
TRACK 06 AUDIO
TITLE "Танго (Луч надежды)"
PERFORMER "Леонид Утёсов"
INDEX 01 00:00:00
FILE "07 - Пароход.wav" WAVE
TRACK 07 AUDIO
TITLE "Пароход"
PERFORMER "Леонид Утёсов"
INDEX 01 00:00:00
FILE "08 - Спи, моё бедное сердце (инстр.).wav" WAVE
TRACK 08 AUDIO
TITLE "Спи, моё бедное сердце (инстр.)"
PERFORMER "Леонид Утёсов"
INDEX 01 00:00:00
FILE "09 - Лейся, песня (к,ф ''Семеро смелых'').wav" WAVE
TRACK 09 AUDIO
TITLE "Лейся, песня (к/ф ''Семеро смелых'')"
PERFORMER "Леонид Утёсов"
INDEX 01 00:00:00
FILE "10 - Тайна.wav" WAVE
TRACK 10 AUDIO
TITLE "Тайна"
PERFORMER "Леонид Утёсов"
INDEX 01 00:00:00
FILE "11 - Раскинулось море широко.wav" WAVE
TRACK 11 AUDIO
TITLE "Раскинулось море широко"
PERFORMER "Леонид Утёсов"
INDEX 01 00:00:00
FILE "12 - Дуниада (инстр. Часть 1).wav" WAVE
TRACK 12 AUDIO
TITLE "Дуниада (инстр. Часть 1)"
PERFORMER "Леонид Утёсов"
INDEX 01 00:00:00
FILE "13 - Дуниада (инстр. Часть 2).wav" WAVE
TRACK 13 AUDIO
TITLE "Дуниада (инстр. Часть 2)"
PERFORMER "Леонид Утёсов"
INDEX 01 00:00:00
FILE "14 - Прощальная комсомольская.wav" WAVE
TRACK 14 AUDIO
TITLE "Прощальная комсомольская"
PERFORMER "Леонид Утёсов"
INDEX 01 00:00:00
FILE "15 - Искушение (инстр.).wav" WAVE
TRACK 15 AUDIO
TITLE "Искушение (инстр.)"
PERFORMER "Леонид Утёсов"
INDEX 01 00:00:00
FILE "16 - Два друга.wav" WAVE
TRACK 16 AUDIO
TITLE "Два друга"
PERFORMER "Леонид Утёсов"
INDEX 01 00:00:00
FILE "17 - Казачья кавалерийская.wav" WAVE
TRACK 17 AUDIO
TITLE "Казачья кавалерийская"
PERFORMER "Леонид Утёсов"
INDEX 01 00:00:00
FILE "18 - Сердце.wav" WAVE
TRACK 18 AUDIO
TITLE "Сердце"
PERFORMER "Леонид Утёсов"
INDEX 01 00:00:00
[свернуть]

Лог проверки качества

AUDIOCHECKER v2.0 beta (build 457) - by Dester -
~~~~~~~~~~~~~~~~~~~~~~~~~~~~~~~~~~
-=== НЕ РЕДАКТИРУЙТЕ ЭТОТ ФАЙЛ! ===-

Путь: ...\2004 - Если любишь, найди

01 -=- 01 - Марш из к,ф ''Весёлые ребята''.flac -=- CDDA (100%)
02 -=- 02 - Пара гнедых.flac -=- CDDA (99%)
03 -=- 03 - Дядя Эля.flac -=- CDDA (100%)
04 -=- 04 - Если любишь, найди.flac -=- CDDA (100%)
05 -=- 05 - По волнам (инстр.).flac -=- CDDA (100%)
06 -=- 06 - Танго (Луч надежды).flac -=- CDDA (100%)
07 -=- 07 - Пароход.flac -=- CDDA (100%)
08 -=- 08 - Спи, моё бедное сердце (инстр.).flac -=- CDDA (99%)
09 -=- 09 - Лейся, песня (к,ф ''Семеро смелых'').flac -=- CDDA (100%)
10 -=- 10 - Тайна.flac -=- CDDA (100%)
11 -=- 11 - Раскинулось море широко.flac -=- CDDA (99%)
12 -=- 12 - Дуниада (инстр. Часть 1).flac -=- CDDA (100%)
13 -=- 13 - Дуниада (инстр. Часть 2).flac -=- CDDA (100%)
14 -=- 14 - Прощальная комсомольская.flac -=- CDDA (85%)
15 -=- 15 - Искушение (инстр.).flac -=- CDDA (100%)
16 -=- 16 - Два друга.flac -=- CDDA (42%)
17 -=- 17 - Казачья кавалерийская.flac -=- CDDA (94%)
18 -=- 18 - Сердце.flac -=- CDDA (76%)

Сводка 94,11% CDDA

33749556
[свернуть]

Скачать Леонид Утёсов - Если любишь, найди



password: sergych
[свернуть]
My opinion of release: 10/10
__________________
TAIFUN.Wings of Soul

Вверх
Пользователь сказал cпасибо:
TAIFUN (20.07.2013)
Похожие темы
Тема Автор Раздел Ответов Последнее сообщение
Релиз Ангел-А - А ты меня любишь 2 PUPOKIN Русская Поп-Музыка 0 30.05.2011 09:37
Релиз Виноградный День - Найди на обложке пророка Мухаммеда [EP] PUPOKIN Grindcore 0 04.10.2010 11:32
Сборник Леонид Утёсов - Напевая, шутя и играя sergych Ретро 0 30.10.2008 18:28
Сборник Леонид Утёсов - Дорога на Берлин sergych Ретро 1 15.09.2008 17:51
Сборник Леонид Утёсов - Музыкальный магазин sergych Ретро 0 03.07.2008 22:27


Метки
2004 , jazz , если любишь найди , леонид утёсов , ретро

Опции темы

Ваши права в разделе
Вы не можете создавать новые темы
Вы не можете отвечать в темах
Вы не можете прикреплять вложения
Вы не можете редактировать свои сообщения

Быстрый переход



Текущее время: 16:23. Часовой пояс GMT +3.
Powered by vBulletin® Version 3.8.7
Copyright ©2000 - 2017, vBulletin Solutions, Inc. Перевод: zCarot
© 2008 - 2017 Taifun With Song
Яндекс.Метрика