TAIFUN With Song
Навигация
Вернуться   TAIFUN With Song > Music (обменник) > POP > Зарубежная Поп-Музыка
Расширенный поиск
А знаете ли Вы, что...
Почему исполнение песни «Happy Birthday to You» может быть незаконным?
«Известная песенка «Happy Birthday to You» по сей день находится под защитой авторских прав в США. Её можно бесплатно петь в обычном кругу семьи или друзей, но за коммерческое использование, например в фильме или поздравительной открытке, необходимо платить отчисления. Сейчас песня приносит ежегодно 2 миллиона долларов компании-владельцу прав на неё.»
 
Опции темы

  #1
Старый 10.06.2013, 12:15
aheron
Релизёр
Досье
 
Аватар для aheron
По умолчанию Diana Ross - Greatest Hits - The RCA Years


Diana Ross - Greatest Hits - The RCA Years (1997)





Исполнитель/Artist: Diana Ross
Альбом/Album: Greatest Hits - The RCA Years
Год/Year: 1997
Жанр/Genre: Pop, Vocal, R'n'B
Страна/Country: USA
Рекорд-лейбл/Record label: ⓅⒸ 1997 BMG Entertainment, RSA Records. Made in USA.
Номер в каталоге/Catalogue #: 07863 67410-2
Формат/Format: Free Lossless Audio Codec (*.flac)
Качество/Quality: Lossless
Тип рипа/RIP Type: image+.cue


Продолжительность/Length: 01:13:28
Источник/Source: Из интернета
Размер/Size: 568 MB

Сканы в комплекте

Треклист

01. Diana Ross - Chain Reaction [3:51]
02. Diana Ross - Summertime [4:08]
03. Diana Ross - Muscles [4:06]
04. Diana Ross - It's Never Too Late [3:20]
05. Diana Ross - Experience [4:56]
06. Diana Ross - Love Or Loneliness [4:20]
07. Diana Ross - Missing You [4:07]
08. Diana Ross - Selfish One [3:27]
09. Diana Ross - Tell Me Again [3:18]
10. Diana Ross - Let's Go Up [4:05]
11. Diana Ross - Mirror Mirror [4:08]
12. Diana Ross - In Your Arms [4:09]
13. Diana Ross - (I Love) Being In Love With You [4:34]
14. Diana Ross - Swept Away [4:05]
15. Diana Ross - It's Hard For Me To Say [4:45]
16. Diana Ross - Why Do Fools Fall In Love [2:56]
17. Diana Ross - Cross My Heart [4:14]
18. Diana Ross - Endless Love [4:57]
--------------------------------
Total time: [1:13:28]
[свернуть]

youtube.com

[свернуть]

EAC лог

Exact Audio Copy V1.0 beta 3 from 29. August 2011

EAC extraction logfile from 26. May 2013, 19:41

Diana Ross / Greatest Hits - The RCA Years

Used drive : PIONEER DVD-RW DVR-112D Adapter: 2 ID: 1

Read mode : Secure
Utilize accurate stream : Yes
Defeat audio cache : Yes
Make use of C2 pointers : No

Read offset correction : 48
Overread into Lead-In and Lead-Out : No
Fill up missing offset samples with silence : Yes
Delete leading and trailing silent blocks : No
Null samples used in CRC calculations : Yes
Used interface : Installed external ASPI interface

Used output format : User Defined Encoder
Selected bitrate : 1024 kBit/s
Quality : High
Add ID3 tag : No
Command line compressor : C:\Program Files (x86)\Exact Audio Copy\Flac\flac.exe
Additional command line options : -8 -V -T "Date=%year%" -T "Genre=%genre%" -T "COMMENT=ripped by bvstudio®" %source%


TOC of the extracted CD

Track | Start | Length | Start sector | End sector
---------------------------------------------------------
1 | 0:00.00 | 3:51.27 | 0 | 17351
2 | 3:51.27 | 4:08.35 | 17352 | 35986
3 | 7:59.62 | 4:06.15 | 35987 | 54451
4 | 12:06.02 | 3:20.13 | 54452 | 69464
5 | 15:26.15 | 4:56.12 | 69465 | 91676
6 | 20:22.27 | 4:20.30 | 91677 | 111206
7 | 24:42.57 | 4:06.38 | 111207 | 129694
8 | 28:49.20 | 3:26.70 | 129695 | 145214
9 | 32:16.15 | 3:17.40 | 145215 | 160029
10 | 35:33.55 | 4:04.45 | 160030 | 178374
11 | 39:38.25 | 4:08.05 | 178375 | 196979
12 | 43:46.30 | 4:08.65 | 196980 | 215644
13 | 47:55.20 | 4:34.20 | 215645 | 236214
14 | 52:29.40 | 4:05.32 | 236215 | 254621
15 | 56:34.72 | 4:45.18 | 254622 | 276014
16 | 61:20.15 | 2:56.20 | 276015 | 289234
17 | 64:16.35 | 4:14.30 | 289235 | 308314
18 | 68:30.65 | 4:57.15 | 308315 | 330604


Range status and errors

Selected range

Filename F:\Diana Ross\1997 - Greatest Hits - The RCA Years (1997 - USA - 07863 67410-2)\Diana Ross - Greatest Hits - The RCA Years.wav

Peak level 98.8 %
Extraction speed 8.1 X
Range quality 100.0 %
Test CRC A7EA1954
Copy CRC A7EA1954
Copy OK

No errors occurred


AccurateRip summary

Track 1 accurately ripped (confidence 2) [28EE5174] (AR v1)
Track 2 accurately ripped (confidence 2) [8A719260] (AR v1)
Track 3 accurately ripped (confidence 2) [A23AB00F] (AR v1)
Track 4 accurately ripped (confidence 2) [1AE6F0C5] (AR v1)
Track 5 accurately ripped (confidence 2) [98C7FF6F] (AR v1)
Track 6 accurately ripped (confidence 2) [F8179235] (AR v1)
Track 7 accurately ripped (confidence 2) [64D43F4E] (AR v1)
Track 8 accurately ripped (confidence 2) [CCF12F27] (AR v1)
Track 9 accurately ripped (confidence 2) [48DE5E92] (AR v1)
Track 10 accurately ripped (confidence 2) [9E1013C4] (AR v1)
Track 11 accurately ripped (confidence 2) [D7EF53BA] (AR v1)
Track 12 accurately ripped (confidence 2) [89669D29] (AR v1)
Track 13 accurately ripped (confidence 2) [FD6D4425] (AR v1)
Track 14 accurately ripped (confidence 2) [DF6C4D7C] (AR v1)
Track 15 accurately ripped (confidence 2) [374483A5] (AR v1)
Track 16 accurately ripped (confidence 2) [E62AD383] (AR v1)
Track 17 accurately ripped (confidence 2) [8714B815] (AR v1)
Track 18 accurately ripped (confidence 2) [F5D56B16] (AR v1)

All tracks accurately ripped

End of status report

---- CUETools DB Plugin V2.1.5

[CTDB TOCID: OZ5bVQgKDvpRAGvwIDP.By4xtng-] found
Submit result: OZ5bVQgKDvpRAGvwIDP.By4xtng- has been confirmed
Track | CTDB Status
1 | (5/5) Accurately ripped
2 | (5/5) Accurately ripped
3 | (5/5) Accurately ripped
4 | (5/5) Accurately ripped
5 | (5/5) Accurately ripped
6 | (5/5) Accurately ripped
7 | (5/5) Accurately ripped
8 | (5/5) Accurately ripped
9 | (5/5) Accurately ripped
10 | (5/5) Accurately ripped
11 | (5/5) Accurately ripped
12 | (5/5) Accurately ripped
13 | (5/5) Accurately ripped
14 | (5/5) Accurately ripped
15 | (5/5) Accurately ripped
16 | (5/5) Accurately ripped
17 | (5/5) Accurately ripped
18 | (5/5) Accurately ripped


==== Log checksum 11B00B139AF66C84FDC67F6F8B7CB2B6F6B833460636AEB54F 3CC133E503AEE8 ====
[свернуть]

Лог проверки качества

-----------------------

DON'T MODIFY THIS FILE

-----------------------

PERFORMER: auCDtect Task Manager, ver. 1.6.0 RC1 build 1.6.0.1
Copyright (c) 2008-2010 y-soft. All rights reserved


ANALYZER: auCDtect: CD records authenticity detector, version 0.8.2
Copyright (c) 2004 Oleg Berngardt. All rights reserved.
Copyright (c) 2004 Alexander Djourik. All rights reserved.


FILE: Diana Ross - Greatest Hits - The RCA Years.flac
Size: 439746969 Hash: 0DF4B760E9A33D4E4A93C63D30D21463 Accuracy: -m0
Conclusion: CDDA 100%
Signature: 081A2B073CC6138051943F10AB1276E14F1DF7A9
[свернуть]

Спектр частот

[свернуть]

Скачать Diana Ross - Greatest Hits - The RCA Years

Яндекс.Диск

password: aheron
[свернуть]

Вверх
Пользователь сказал cпасибо:
sergych (10.06.2013)
Похожие темы
Тема Автор Раздел Ответов Последнее сообщение
Микс Diana Ross - Almighty Presents: We Love Diana Ross PUPOKIN Dance 1 07.01.2010 11:43
Альбом Diana Ross - I Love You sergych Зарубежная Поп-Музыка 0 14.06.2009 21:11
Альбом Diana Ross - Ross PUPOKIN Disco 0 14.05.2009 12:58
Релиз Diana Ross & the Supremes - The Definitive Collection PUPOKIN R&B 0 28.01.2009 11:12
Kitaro - Greatest Hits - Ten Years Alex1990 New age 0 17.05.2008 19:11


Метки
1997 , diana ross , greatest hits - the rca years , pop , r'n'b , vocal

Опции темы

Ваши права в разделе
Вы не можете создавать новые темы
Вы не можете отвечать в темах
Вы не можете прикреплять вложения
Вы не можете редактировать свои сообщения

Быстрый переход



Текущее время: 17:43. Часовой пояс GMT +3.
Powered by vBulletin® Version 3.8.10
Copyright ©2000 - 2017, vBulletin Solutions, Inc. Перевод: zCarot
© 2008 - 2017 Taifun With Song
Яндекс.Метрика