TAIFUN With Song
Jazz и Blues Гибкая ритмика, импровизационное начало, гармонии и мелодии - все это Jazz. Blues - жизнеутверждающая музыка, рожденная из душевной боли

А знаете ли Вы, что...
Что значил жест «коза» до эпохи рока и металла?
«Жест «коза» существовал долгое время как магический знак для защиты от сглаза и злых духов. Ронни Джеймс Дио — солист групп Rainbow и Black Sabbath — был первым, кто показал этот жест на рок-концерте. Фанаты переняли его и теперь «коза» очень популярна среди рокеров и металлистов.»
 
Опции темы

  #1
Старый 27.12.2011, 11:01
PUPOKIN
Релизёр
Досье
 
Аватар для PUPOKIN
По умолчанию Dean Martin - Cool Then, Cool Now


2011 - Dean Martin - Cool Then, Cool Now




Исполнитель/Artist: Dean Martin
Альбом/Album: Cool Then, Cool Now
Год/Year: 2011
Жанр/Genre: Vocal Jazz , Swing , Easy Listening
Формат/Format: MPEG Layer-3 (*.mp3)
Качество/Quality: CBR 320 kbps
Продолжительность/Length: 01:09:59
Источник/Source: Из интернета
Размер/Size: 157.3 MB


Треклист

Disc 1

01 - Ain't That a Kick in the Head
02 - Sway
03 - Mambo Italiano
04 - Volare
05 - Little Ole Wine Drinker Me
06 - Please Don't Talk About Me When I'm Gone
07 - I'm Sitting on the Top of the World
08 - Bumming Around
09 - (Open Up the Door) Let the Good Times In
10 - L.A. Is My Home
11 - Snap Your Fingers
12 - Welcome to My World
13 - C'est Si Bon
14 - King of the Road

Disc 2

01 - Who's Got the Action
02 - Everybody Loves Somebody
03 - Five Card Stud
04 - That's Amore
05 - Born to Lose
06 - Memories Are Made of This
07 - Side by Side
08 - I've Grown Accustomed to Her Face
09 - The Glory of Love
10 - You're Nobody Til Somebody Loves You
11 - Any Man Who Loves His Mother
12 - You'll Always Be the One I Love
13 - Red Sails in the Sunset
14 - Gimme a Little Kiss, Will Ya Huh
[свернуть]

youtube.com

[свернуть]

Скачать Dean Martin - Cool Then, Cool Now

[Ссылки могут видеть только зарегистрированные пользователи. ]

password: sergych
[свернуть]


Последний раз редактировалось sergych, 04.02.2017 в 17:00. Причина: перезаливка
Вверх
2 пользователя(ей) сказали cпасибо:
Harpie48 (02.02.2017), sergych (04.02.2017)
  #2
Старый 02.02.2017, 20:27
Harpie48
Пользователь
Досье
 
Аватар для Harpie48
По умолчанию Re: Dean Martin - Cool Then, Cool Now

Привет Pupokin
Можно ли иметь этот альбом на REUP. Я хотел бы поставить его в моих collection.I я редактированием discographie Дина Мартина анс это один из них, что я не могу иметь, потому что мертвые ссылки.
Спасибо, если вы можете, это действительно были бы оценены.
Надеюсь, что вы можете.

This is a Google translation sorry ! Французская квебекцев


Последний раз редактировалось Harpie48, 02.02.2017 в 20:38.
Вверх
  #3
Старый 03.02.2017, 19:59
sergych
Координатор
Досье
 
Аватар для sergych
По умолчанию Re: Dean Martin - Cool Then, Cool Now

Harpie48, если удастся скачать, то завтра выложу lossless.
__________________
TAIFUN.Wings of Soul

Вверх
  #4
Старый 04.02.2017, 17:24
sergych
Координатор
Досье
 
Аватар для sergych
Релиз Re: Dean Martin - Cool Then, Cool Now


2011 - Dean Martin - Cool Then, Cool Now




Исполнитель/Artist: Dean Martin
Альбом/Album: Cool Then, Cool Now
Год/Year: 2011
Жанр/Genre: Vocal Jazz , Easy Listening
Формат/Format: Free Lossless Audio Codec (*.flac)
Качество/Quality: Lossless
Тип рипа/RIP Type: image+.cue
Продолжительность/Length: 01:09:59
Источник/Source: Из интернета
Размер/Size: 397.4 MB


Треклист

Треклист

01 - Ain't That a Kick in the Head
02 - Sway
03 - Mambo Italiano
04 - Volare
05 - Little Ole Wine Drinker Me
06 - Please Don't Talk About Me When I'm Gone
07 - I'm Sitting on the Top of the World
08 - Bumming Around
09 - (Open Up the Door) Let the Good Times In
10 - L.A. Is My Home
11 - Snap Your Fingers
12 - Welcome to My World
13 - C'est Si Bon
14 - King of the Road
15 - Who's Got the Action
16 - Everybody Loves Somebody
17 - Five Card Stud
18 - That's Amore
19 - Born to Lose
20 - Memories Are Made of This
21 - Side by Side
22 - I've Grown Accustomed to Her Face
23 - The Glory of Love
24 - You're Nobody Til Somebody Loves You
25 - Any Man Who Loves His Mother
26 - You'll Always Be the One I Love
27 - Red Sails in the Sunset
28 - Gimme a Little Kiss, Will Ya Huh
[свернуть]
[свернуть]

youtube.com

[свернуть]

EAC лог

Exact Audio Copy V0.99 prebeta 5 from 4. May 2009

Отчёт EAC об извлечении, выполненном 5. января 2012, 16:26

Dean Martin / Cool Then, Cool Now

Дисковод: HL-DT-STDVD-RAM GSA-H20N Adapter: 0 ID: 0

Режим чтения : Достоверность
Использование точного потока : Да
Отключение кэша аудио : Да
Использование указателей C2 : Нет

Коррекция смещения при чтении : 6
Способность читать области Lead-in и Lead-out : Нет
Заполнение пропущенных сэмплов тишиной : Да
Удаление блоков с тишиной в начале и конце : Нет
При вычислениях CRC использовались нулевые сэмплы : Нет
Интерфейс : Встроенный Win32-интерфейс для Win NT/2000

Выходной формат : Пользовательский кодировщик
Выбранный битрейт : 768 kBit/s
Качество : Высокий
Добавление ID3-тэга : Нет
Утилита сжатия : D:\Vova\Exact Audio Copy\FLAC\FLAC.EXE
Дополнительные параметры : -8 -V -T "ARTIST=%a" -T "TITLE=%t" -T "ALBUM=%g" -T "DATE=%y" -T "TRACKNUMBER=%n" -T "GENRE=%m" -T "COMMENT=EAC FLAC -8" %s


TOC извлечённого CD

Трек | Старт | Длительность | Начальный сектор | Конечный сектор
---------------------------------------------------------------------
1 | 0:00.00 | 2:37.70 | 0 | 11844
2 | 2:37.70 | 2:42.43 | 11845 | 24037
3 | 5:20.38 | 2:19.69 | 24038 | 34531
4 | 7:40.32 | 2:59.70 | 34532 | 48026
5 | 10:40.27 | 2:48.24 | 48027 | 60650
6 | 13:28.51 | 2:31.50 | 60651 | 72025
7 | 16:00.26 | 2:11.45 | 72026 | 81895
8 | 18:11.71 | 2:43.18 | 81896 | 94138
9 | 20:55.14 | 3:19.70 | 94139 | 109133
10 | 24:15.09 | 3:03.48 | 109134 | 122906
11 | 27:18.57 | 2:25.04 | 122907 | 133785
12 | 29:43.61 | 2:21.30 | 133786 | 144390
13 | 32:05.16 | 2:53.00 | 144391 | 157365
14 | 34:58.16 | 2:23.64 | 157366 | 168154
15 | 37:22.05 | 2:36.11 | 168155 | 179865
16 | 39:58.16 | 2:46.07 | 179866 | 192322
17 | 42:44.23 | 2:04.67 | 192323 | 201689
18 | 44:49.15 | 3:06.37 | 201690 | 215676
19 | 47:55.52 | 2:29.60 | 215677 | 226911
20 | 50:25.37 | 2:16.70 | 226912 | 237181
21 | 52:42.32 | 2:13.42 | 237182 | 247198
22 | 54:55.74 | 2:13.31 | 247199 | 257204
23 | 57:09.30 | 2:20.21 | 257205 | 267725
24 | 59:29.51 | 1:57.54 | 267726 | 276554
25 | 61:27.30 | 1:39.49 | 276555 | 284028
26 | 63:07.04 | 2:01.06 | 284029 | 293109
27 | 65:08.10 | 2:35.39 | 293110 | 304773
28 | 67:43.49 | 2:15.36 | 304774 | 314934


Характеристики диапазона извлечения и сообщения об ошибках

Выбранный диапазон

Имя файла D:\Vova\DeanMartin-CoolThen,CoolNow2011\Dean Martin - Cool Then, Cool Now (2011) [FLAC]\Dean Martin - Cool Then, Cool Now.wav

Пиковый уровень 100.0 %
Качество диапазона 100.0 %
CRC копии EEC81B35
Копирование... OK

Ошибок не произошло

Конец отчёта
[свернуть]

Файл CUE

REM GENRE Jazz
REM DATE 2011
REM DISCID 9810671C
REM COMMENT "ExactAudioCopy v0.99pb5"
PERFORMER "Dean Martin"
TITLE "Cool Then, Cool Now"
FILE "Dean Martin - Cool Then, Cool Now.flac" WAVE
TRACK 01 AUDIO
TITLE "Ain't That a Kick in the Head"
PERFORMER "Dean Martin"
INDEX 01 00:00:00
TRACK 02 AUDIO
TITLE "Sway"
PERFORMER "Dean Martin"
INDEX 01 02:37:70
TRACK 03 AUDIO
TITLE "Mambo Italiano"
PERFORMER "Dean Martin"
INDEX 01 05:20:38
TRACK 04 AUDIO
TITLE "Volare"
PERFORMER "Dean Martin"
INDEX 01 07:40:32
TRACK 05 AUDIO
TITLE "Little Ole Wine Drinker Me"
PERFORMER "Dean Martin"
INDEX 01 10:40:27
TRACK 06 AUDIO
TITLE "Please Don't Talk About Me When I'm Gone"
PERFORMER "Dean Martin"
INDEX 01 13:28:51
TRACK 07 AUDIO
TITLE "I'm Sitting on the Top of the World"
PERFORMER "Dean Martin"
INDEX 01 16:00:26
TRACK 08 AUDIO
TITLE "Bumming Around"
PERFORMER "Dean Martin"
INDEX 01 18:11:71
TRACK 09 AUDIO
TITLE "(Open Up the Door) Let the Good Times In"
PERFORMER "Dean Martin"
INDEX 01 20:55:14
TRACK 10 AUDIO
TITLE "L.A. Is My Home"
PERFORMER "Dean Martin"
INDEX 01 24:15:09
TRACK 11 AUDIO
TITLE "Snap Your Fingers"
PERFORMER "Dean Martin"
INDEX 01 27:18:57
TRACK 12 AUDIO
TITLE "Welcome to My World"
PERFORMER "Dean Martin"
INDEX 01 29:43:61
TRACK 13 AUDIO
TITLE "C'est Si Bon"
PERFORMER "Dean Martin"
INDEX 01 32:05:16
TRACK 14 AUDIO
TITLE "King of the Road"
PERFORMER "Dean Martin"
INDEX 01 34:58:16
TRACK 15 AUDIO
TITLE "Who's Got the Action?"
PERFORMER "Dean Martin"
INDEX 01 37:22:05
TRACK 16 AUDIO
TITLE "Everybody Loves Somebody"
PERFORMER "Dean Martin"
INDEX 01 39:58:16
TRACK 17 AUDIO
TITLE "Five Card Stud"
PERFORMER "Dean Martin"
INDEX 01 42:44:23
TRACK 18 AUDIO
TITLE "That's Amore"
PERFORMER "Dean Martin"
INDEX 01 44:49:15
TRACK 19 AUDIO
TITLE "Born to Lose"
PERFORMER "Dean Martin"
INDEX 01 47:55:52
TRACK 20 AUDIO
TITLE "Memories Are Made of This"
PERFORMER "Dean Martin"
INDEX 01 50:25:37
TRACK 21 AUDIO
TITLE "Side by Side"
PERFORMER "Dean Martin"
INDEX 01 52:42:32
TRACK 22 AUDIO
TITLE "I've Grown Accustomed to Her Face"
PERFORMER "Dean Martin"
INDEX 01 54:55:74
TRACK 23 AUDIO
TITLE "The Glory of Love"
PERFORMER "Dean Martin"
INDEX 01 57:09:30
TRACK 24 AUDIO
TITLE "You're Nobody Til Somebody Loves You"
PERFORMER "Dean Martin"
INDEX 01 59:29:51
TRACK 25 AUDIO
TITLE "Any Man Who Loves His Mother"
PERFORMER "Dean Martin"
INDEX 01 61:27:30
TRACK 26 AUDIO
TITLE "You'll Always Be the One I Love"
PERFORMER "Dean Martin"
INDEX 01 63:07:04
TRACK 27 AUDIO
TITLE "Red Sails in the Sunset"
PERFORMER "Dean Martin"
INDEX 01 65:08:10
TRACK 28 AUDIO
TITLE "Gimme a Little Kiss, Will Ya Huh"
PERFORMER "Dean Martin"
INDEX 01 67:43:49
[свернуть]

Лог проверки качества

AUDIOCHECKER v2.0 beta (build 457) - by Dester - [Ссылки могут видеть только зарегистрированные пользователи. ]
~~~~~~~~~~~~~~~~~~~~~~~~~~~~~~~~~~
-=== НЕ РЕДАКТИРУЙТЕ ЭТОТ ФАЙЛ! ===-

Путь: ...\2011 - Cool Then, Cool Now

1 -=- Dean Martin - Cool Then, Cool Now.flac -=- CDDA (99%)

205286052
[свернуть]

Спектр частот

[свернуть]

Скачать Dean Martin - Cool Then, Cool Now

[Ссылки могут видеть только зарегистрированные пользователи. ]

password: sergych
[свернуть]

Контрольная сумма (хеш-сумма) архива

MD5: 4ad8f8998878d33069b28262df1430a9
[свернуть]
My opinion of release: 10/10

Release info RInfo

Информация о происхождении данного диска крайне скудная (даже сканы отсутствуют ), т.ч. - что есть, то есть.
Жаль, потому что сам сборник очень приятный по подбору песен.
Взял его себе на заметку, хотя ценник (откровенно говоря) не радует.
__________________
TAIFUN.Wings of Soul

Вверх
Похожие темы
Тема Автор Раздел Ответов Последнее сообщение
Релиз Acid Cool - Over Me PUPOKIN Jazz и Blues 0 03.06.2010 10:28
Cool Record Edit Tolich Разное 3 30.11.2009 13:21
Сборник Cool Chillout PUPOKIN Lounge 0 10.10.2009 09:27
Сборник MTV Cool Down PUPOKIN Lounge 0 06.09.2009 09:50
Сборник Cool Lounge PUPOKIN Lounge 0 20.02.2009 12:43


Метки
2011 , cool then cool now , dean martin , easy listening , swing , vocal jazz

Опции темы

Ваши права в разделе
Вы не можете создавать новые темы
Вы не можете отвечать в темах
Вы не можете прикреплять вложения
Вы не можете редактировать свои сообщения

Быстрый переход



Текущее время: 22:07. Часовой пояс GMT +3.
Powered by vBulletin® Version 3.8.7
Copyright ©2000 - 2017, vBulletin Solutions, Inc. Перевод: zCarot
© 2008 - 2017 Taifun With Song
Яндекс.Метрика