TAIFUN With Song
Вернуться   TAIFUN With Song > Music (обменник) > Rock > Progressive Rock
Расширенный поиск
Progressive Rock Единственной универсальной характеристикой прогрессивного рока является усложнение музыкальной формы. Это проявляется в удлиннении и усложнении музыкальных пьес, тяготении к циклическим формам академической музыки; расширении репертуара используемых тембров, усложнении метра и ритма, использовании нетрадиционных для рока мелодических и гармонических решений; поэзии, уходящей от тем развлекательной музыки и тяготеющей к философским «вечным темам», фантастической и фентезийной тематике; переплетении с классической и современной академической музыкой, джазом.

А знаете ли Вы, что...
Какой музыкальный инструмент извлекает звуки из сталактитов одной американской пещеры?
«В американском штате Вирджиния находятся Лурейские пещеры, где установлен уникальный музыкальный инструмент — орган из сталактитов. 37 разных по тону сталактитов подключены к трубочной системе традиционного органа и управляются с обычной органной клавиатуры.»
 
Опции темы

  #1
Старый 24.06.2010, 21:08
sergych
Координатор
Досье
 
Аватар для sergych
Релиз The Alan Parsons Project - EVE


1979 - The Alan Parsons Project - EVE




Исполнитель/Artist: The Alan Parsons Project
Альбом/Album: EVE
Год/Year: 1979
Жанр/Genre: Progressive rock, Art rock
Страна/Country: Германия
Рекорд-лейбл/Record label: Arista Records
Номер в каталоге/Catalogue #: 258 981
Формат/Format: Free Lossless Audio Codec (*.flac)
Качество/Quality: Lossless
Тип рипа/RIP Type: image+.cue
Продолжительность/Length: 00:39:36
Источник/Source: Собственный рип
Размер/Size: 270.5 MB

Сканы в комплекте

Треклист

01. Lucifer [0:05:08.33]
02. You Lie Down With Dogs [0:03:48.57]
Lenny Zakatek - Lead Vocal
03. I'd Rather Be A Man [0:03:54.13]
David Paton - Lead Vocal
04. You Won't Be There [0:03:38.17]
Dave Townsend - Lead Vocal
05. Winding Me Up [0:04:01.38]
Chris Rainbow - Lead Vocal
06. Damned If I Do [0:04:53.32]
Lenny Zakatek - Lead Vocal
07. Don't Hold Back [0:03:37.73]
Clare Torry - Lead Vocal
08. Secret Garden [0:04:43.67]
09. If I Could Change Your Mind [0:05:48.73]
Lesley Duncan - Lead Vocal
[свернуть]

youtube.com

[свернуть]

Исполнители/Performers

Bass – David Paton
Drums and Percussion – Stuart Elliott
Acoustic and Electric Guitars – Ian Bairnson
Keyboards – Eric Woolfson; Duncan Mackay
Miscellaneous Instrumental Contributions by Alan Parsons; Eric Woolfson
Backing Vocals – Chris Rainbow; David Paton
Orchestra – The Orchestra Of The Munich Chamber Opera
The Orchestra of the Munich Chamber Opera care of Eberhard Schoener
Leader – Sandor Farcas
Orchestra Coordinator – Curtis Briggs
Vocals – Lesley Duncan; David Paton; Chris Rainbow; Clare Torry; Dave Townsend; Lenny Zakatek
[свернуть]

EAC лог

Exact Audio Copy V1.0 beta 3 from 29. August 2011

EAC extraction logfile from 19. September 2015, 11:13

The Alan Parsons Project / Eve

Used drive : ATAPI iHAS124 D Adapter: 0 ID: 2

Read mode : Secure
Utilize accurate stream : Yes
Defeat audio cache : Yes
Make use of C2 pointers : No

Read offset correction : 6
Overread into Lead-In and Lead-Out : No
Fill up missing offset samples with silence : Yes
Delete leading and trailing silent blocks : No
Null samples used in CRC calculations : Yes
Used interface : Installed external ASPI interface

Used output format : User Defined Encoder
Selected bitrate : 1024 kBit/s
Quality : High
Add ID3 tag : No
Command line compressor : C:\Program Files (x86)\Exact Audio Copy\Flac\flac.exe
Additional command line options : -6 -V -T "ARTIST=%artist%" -T "TITLE=%title%" -T "ALBUM=%albumtitle%" -T "DATE=%year%" -T "TRACKNUMBER=%tracknr%" -T "GENRE=%genre%" -T "COMMENT=%comment%" -T "BAND=%albuminterpret%" -T "COMPOSER=%composer%" %haslyrics%--tag-from-file=LYRICS="%lyricsfile%"%haslyrics% -T "DISCNUMBER=%cdnumber%" -T "TOTALDISCS=%totalcds%" -T "TOTALTRACKS=%numtracks%" %hascover%--picture="%coverfile%"%hascover% %source% -o %dest%


TOC of the extracted CD

Track | Start | Length | Start sector | End sector
---------------------------------------------------------
1 | 0:00.32 | 5:08.33 | 32 | 23164
2 | 5:08.65 | 3:48.57 | 23165 | 40321
3 | 8:57.47 | 3:54.13 | 40322 | 57884
4 | 12:51.60 | 3:38.17 | 57885 | 74251
5 | 16:30.02 | 4:01.38 | 74252 | 92364
6 | 20:31.40 | 4:53.32 | 92365 | 114371
7 | 25:24.72 | 3:37.73 | 114372 | 130719
8 | 29:02.70 | 4:43.67 | 130720 | 152011
9 | 33:46.62 | 5:48.73 | 152012 | 178184


Range status and errors

Selected range

Filename C:\mm\The Alan Parsons Project\1979 - Eve [258 981]\The Alan Parsons Project - Eve.wav

Peak level 89.1 %
Extraction speed 8.1 X
Range quality 99.9 %
Test CRC 2E936D54
Copy CRC 2E936D54
Copy OK

No errors occurred


AccurateRip summary

Track 1 accurately ripped (confidence 15) [74D7702E] (AR v2)
Track 2 accurately ripped (confidence 15) [73673C87] (AR v2)
Track 3 accurately ripped (confidence 15) [8B30334A] (AR v2)
Track 4 accurately ripped (confidence 15) [C6948732] (AR v2)
Track 5 accurately ripped (confidence 15) [DA8CF425] (AR v2)
Track 6 accurately ripped (confidence 14) [DBC2A296] (AR v2)
Track 7 accurately ripped (confidence 14) [F12978C4] (AR v2)
Track 8 accurately ripped (confidence 14) [414012CC] (AR v2)
Track 9 accurately ripped (confidence 14) [15005870] (AR v2)

All tracks accurately ripped

End of status report
[свернуть]

Файл CUE

REM GENRE "Progressive Rock"
REM DATE 1979
REM DISCID 6F094709
REM COMMENT "ExactAudioCopy v1.0b3"
PERFORMER "The Alan Parsons Project"
TITLE "Eve"
FILE "The Alan Parsons Project - Eve.flac" WAVE
TRACK 01 AUDIO
TITLE "Lucifer"
PERFORMER "The Alan Parsons Project"
INDEX 00 00:00:00
INDEX 01 00:00:32
TRACK 02 AUDIO
TITLE "You Lie Down With Dogs"
PERFORMER "The Alan Parsons Project"
INDEX 00 05:08:62
INDEX 01 05:08:65
TRACK 03 AUDIO
TITLE "I'd Rather Be A Man"
PERFORMER "The Alan Parsons Project"
INDEX 01 08:57:47
TRACK 04 AUDIO
TITLE "You Won't Be There"
PERFORMER "The Alan Parsons Project"
INDEX 01 12:51:60
TRACK 05 AUDIO
TITLE "Winding Me Up"
PERFORMER "The Alan Parsons Project"
INDEX 01 16:30:02
TRACK 06 AUDIO
TITLE "Damned If I Do"
PERFORMER "The Alan Parsons Project"
INDEX 01 20:31:40
TRACK 07 AUDIO
TITLE "Don't Hold Back"
PERFORMER "The Alan Parsons Project"
INDEX 01 25:24:72
TRACK 08 AUDIO
TITLE "Secret Garden"
PERFORMER "The Alan Parsons Project"
INDEX 01 29:02:70
TRACK 09 AUDIO
TITLE "If I Could Change Your Mind"
PERFORMER "The Alan Parsons Project"
INDEX 01 33:46:62
[свернуть]

Лог проверки качества

AUDIOCHECKER v2.0 beta (build 457) - by Dester -
~~~~~~~~~~~~~~~~~~~~~~~~~~~~~~~~~~
-=== НЕ РЕДАКТИРУЙТЕ ЭТОТ ФАЙЛ! ===-

Путь: ...\1979 - Eve [258 981]

1 -=- The Alan Parsons Project - Eve.flac -=- CDDA (100%)

242681812
[свернуть]

Спектр частот

[свернуть]

Скачать The Alan Parsons Project - EVE



password: sergych
[свернуть]
My opinion of release: 10/10
__________________
TAIFUN.Wings of Soul


Последний раз редактировалось sergych, 19.09.2015 в 22:58. Причина: заменил новым рипом
Вверх
2 пользователя(ей) сказали cпасибо:
TAIFUN (24.06.2010), VladislavUdalov (11.06.2017)
Похожие темы
Тема Автор Раздел Ответов Последнее сообщение
Альбом The Alan Parsons Project - Eye In The Sky sergych Progressive Rock 3 20.09.2015 09:46
Live The Alan Parsons Project - Eye 2 Eye sergych Progressive Rock 0 15.08.2010 09:57
Альбом The Alan Parsons Project - On Air PUPOKIN Art Rock 0 15.04.2009 14:06
Альбом The Alan Parsons Project - Try Anything Once PUPOKIN Art Rock 0 13.04.2009 13:13
Инфо The Alan Parsons Project sergych Rock [FAQ] 0 07.09.2008 10:38


Метки
1979 , art rock , eve , parsons , progressive rock , the alan parsons project

Опции темы

Ваши права в разделе
Вы не можете создавать новые темы
Вы не можете отвечать в темах
Вы не можете прикреплять вложения
Вы не можете редактировать свои сообщения

Быстрый переход



Текущее время: 00:54. Часовой пояс GMT +3.
Powered by vBulletin® Version 3.8.7
Copyright ©2000 - 2017, vBulletin Solutions, Inc. Перевод: zCarot
© 2008 - 2017 Taifun With Song
Яндекс.Метрика