TAIFUN With Song
Instrumental Релизы. Инструментальная музыка.

А знаете ли Вы, что...
Хобби Альберта Эйнштейна!
«Эйнштейн любил играть на скрипке и однажды принял участие в благотворительном концерте в Германии.»
 
Опции темы

  #1
Старый 27.06.2009, 23:04
sergych
Координатор
Досье
 
Аватар для sergych
Thumbs up Rene Aubry - Steppe

1990 - Steppe (ballet de Carolyn Carlson)



Исполнитель/Artist: Rene Aubry
Альбом/Album: Steppe (ballet de Carolyn Carlson)
Год/Year: 1990
Жанр/Genre: Instrumental / Soundtracks / Folk-Pop / Modern Classical
Формат/Format: mp3 CBR
Качество/Quality: 320 kbps JStereo
Размер/Size: 106.8 MB
Продолжительность/Length: 00:45:17

ballet de Carolyn Carlson

Треклист

01 - Steppe
02 - Passages
03 - Zingaro
04 - White Horse
05 - Eclaircie
06 - Sagitaire
07 - Staccato
08 - Priere
09 - Memoires
10 - Magda
11 - The Dark Wind
12 - Steppe II
[свернуть]

Скачать Rene Aubry - 1990 - Steppe




password: sergych
[свернуть]
My opinion of release: 8/10
__________________
TAIFUN.Wings of Soul


Последний раз редактировалось sergych, 20.11.2011 в 17:35. Причина: перезаливка
Вверх
Пользователь сказал cпасибо:
lilivan (04.06.2010)
  #2
Старый 05.04.2015, 22:43
TAIFUN
Admin
Досье
 
Аватар для TAIFUN
По умолчанию Rene Aubry - Steppe


1990 - Rene Aubry - Steppe




Исполнитель/Artist: Rene Aubry
Альбом/Album: Steppe
Год/Year: 1990
Жанр/Genre: Instrumental, Modern Classical, Downtempo, Neofolk
Страна/Country: Франция
Рекорд-лейбл/Record label: As De Cœur Productions
Номер в каталоге/Catalogue #: AS CD 3014
Формат/Format: Free Lossless Audio Codec (*.flac)
Качество/Quality: Lossless
Тип рипа/RIP Type: tracks+.cue
Продолжительность/Length: 00:45:17
Источник/Source: what.cd
Размер/Size: 207 MB

Сканы в комплекте

Треклист

01 - Steppe
02 - Passages
03 - Zingaro
04 - White Horse
05 - Eclaircie
06 - Sagitaire
07 - Staccato
08 - Priere
09 - Memoires
10 - Magda
11 - The Dark Wind
12 - Steppe II
[свернуть]

EAC лог

Exact Audio Copy V1.0 beta 1 from 15. November 2010

EAC extraction logfile from 20. March 2011, 14:32

René Aubry / Steppe

Used drive : TSSTcorpCD/DVDW SH-S182D Adapter: 1 ID: 0

Read mode : Secure
Utilize accurate stream : Yes
Defeat audio cache : Yes
Make use of C2 pointers : No

Read offset correction : 6
Overread into Lead-In and Lead-Out : No
Fill up missing offset samples with silence : Yes
Delete leading and trailing silent blocks : No
Null samples used in CRC calculations : Yes
Used interface : Native Win32 interface for Win NT & 2000
Gap handling : Appended to previous track

Used output format : User Defined Encoder
Selected bitrate : 128 kBit/s
Quality : High
Add ID3 tag : No
Command line compressor : C:\Program Files\Exact Audio Copy\Flac\flac.exe
Additional command line options : -V -8 -T "artist=%a" -T "title=%t" -T "album=%g" -T "date=%y" -T "tracknumber=%n" -T "genre=%m" %s


TOC of the extracted CD

Track | Start | Length | Start sector | End sector
---------------------------------------------------------
1 | 0:00.32 | 4:19.25 | 32 | 19481
2 | 4:19.57 | 4:58.55 | 19482 | 41886
3 | 9:18.37 | 3:39.00 | 41887 | 58311
4 | 12:57.37 | 3:56.23 | 58312 | 76034
5 | 16:53.60 | 3:45.35 | 76035 | 92944
6 | 20:39.20 | 2:24.37 | 92945 | 103781
7 | 23:03.57 | 2:51.20 | 103782 | 116626
8 | 25:55.02 | 3:34.53 | 116627 | 132729
9 | 29:29.55 | 5:12.37 | 132730 | 156166
10 | 34:42.17 | 3:25.13 | 156167 | 171554
11 | 38:07.30 | 5:07.10 | 171555 | 194589
12 | 43:14.40 | 2:03.27 | 194590 | 203841


Track 1

Filename F:\EACrips\René Aubry - 1990 - Steppe\01 - Steppe.wav

Pre-gap length 0:00:02.42

Peak level 95.5 %
Extraction speed 3.9 X
Track quality 99.9 %
Test CRC AFA78DA6
Copy CRC AFA78DA6
Accurately ripped (confidence 13) [25F6D8B7]
Copy OK

Track 2

Filename F:\EACrips\René Aubry - 1990 - Steppe\02 - Passages.wav

Pre-gap length 0:00:03.33

Peak level 70.1 %
Extraction speed 5.0 X
Track quality 100.0 %
Test CRC 5CD1FF39
Copy CRC 5CD1FF39
Accurately ripped (confidence 14) [8B5A0CB8]
Copy OK

Track 3

Filename F:\EACrips\René Aubry - 1990 - Steppe\03 - Zingaro.wav

Pre-gap length 0:00:01.96

Peak level 85.4 %
Extraction speed 5.2 X
Track quality 100.0 %
Test CRC D6052D5A
Copy CRC D6052D5A
Accurately ripped (confidence 14) [2872F1B5]
Copy OK

Track 4

Filename F:\EACrips\René Aubry - 1990 - Steppe\04 - White Horse.wav

Pre-gap length 0:00:02.36

Peak level 67.6 %
Extraction speed 5.6 X
Track quality 100.0 %
Test CRC CAA2C18D
Copy CRC CAA2C18D
Accurately ripped (confidence 14) [07191271]
Copy OK

Track 5

Filename F:\EACrips\René Aubry - 1990 - Steppe\05 - Eclaircie.wav

Peak level 26.5 %
Extraction speed 5.1 X
Track quality 99.9 %
Test CRC 8AEDC0B7
Copy CRC 8AEDC0B7
Accurately ripped (confidence 14) [BF57BDAB]
Copy OK

Track 6

Filename F:\EACrips\René Aubry - 1990 - Steppe\06 - Sagittaire.wav

Pre-gap length 0:00:00.06

Peak level 94.6 %
Extraction speed 5.7 X
Track quality 100.0 %
Test CRC 665BCB39
Copy CRC 665BCB39
Accurately ripped (confidence 14) [36854931]
Copy OK

Track 7

Filename F:\EACrips\René Aubry - 1990 - Steppe\07 - Staccato.wav

Pre-gap length 0:00:03.80

Peak level 95.0 %
Extraction speed 6.0 X
Track quality 100.0 %
Test CRC 8A412FEF
Copy CRC 8A412FEF
Accurately ripped (confidence 14) [FA68C3C6]
Copy OK

Track 8

Filename F:\EACrips\René Aubry - 1990 - Steppe\08 - Prière.wav

Pre-gap length 0:00:04.86

Peak level 42.0 %
Extraction speed 6.5 X
Track quality 100.0 %
Test CRC AF3353D7
Copy CRC AF3353D7
Accurately ripped (confidence 14) [5689966F]
Copy OK

Track 9

Filename F:\EACrips\René Aubry - 1990 - Steppe\09 - Mémoires.wav

Pre-gap length 0:00:00.24

Peak level 93.4 %
Extraction speed 6.5 X
Track quality 99.9 %
Test CRC 54B2FEA3
Copy CRC 54B2FEA3
Accurately ripped (confidence 14) [32913D75]
Copy OK

Track 10

Filename F:\EACrips\René Aubry - 1990 - Steppe\10 - Magda.wav

Pre-gap length 0:00:05.40

Peak level 88.1 %
Extraction speed 7.0 X
Track quality 100.0 %
Test CRC F69F239C
Copy CRC F69F239C
Accurately ripped (confidence 14) [358E3071]
Copy OK

Track 11

Filename F:\EACrips\René Aubry - 1990 - Steppe\11 - The Dark Wind.wav

Pre-gap length 0:00:04.30

Peak level 77.7 %
Extraction speed 7.7 X
Track quality 100.0 %
Test CRC 650AB32D
Copy CRC 650AB32D
Accurately ripped (confidence 13) [A136EE6E]
Copy OK

Track 12

Filename F:\EACrips\René Aubry - 1990 - Steppe\12 - Steppe II.wav

Peak level 95.4 %
Extraction speed 6.8 X
Track quality 100.0 %
Test CRC 253B3885
Copy CRC 253B3885
Accurately ripped (confidence 13) [89AD36B0]
Copy OK


All tracks accurately ripped

No errors occurred

End of status report

==== Log checksum C4892EF7893E8C1EB719853E4130C4ED0286E5198B07B2B69B40889D7ED20FED ====
[свернуть]

Файл CUE

REM GENRE "New Wave"
REM DATE 1990
REM DISCID A80A9D0C
REM COMMENT "ExactAudioCopy v1.0b1"
FILE "Renй Aubry - 1990 - Steppe\01 - Steppe.wav" WAVE
TRACK 01 AUDIO
PREGAP 00:00:32
INDEX 01 00:00:00
TRACK 02 AUDIO
INDEX 00 04:16:00
FILE "Renй Aubry - 1990 - Steppe\02 - Passages.wav" WAVE
INDEX 01 00:00:00
TRACK 03 AUDIO
INDEX 00 04:56:58
FILE "Renй Aubry - 1990 - Steppe\03 - Zingaro.wav" WAVE
INDEX 01 00:00:00
TRACK 04 AUDIO
INDEX 00 03:36:48
FILE "Renй Aubry - 1990 - Steppe\04 - White Horse.wav" WAVE
INDEX 01 00:00:00
FILE "Renй Aubry - 1990 - Steppe\05 - Eclaircie.wav" WAVE
TRACK 05 AUDIO
INDEX 01 00:00:00
TRACK 06 AUDIO
INDEX 00 03:45:30
FILE "Renй Aubry - 1990 - Steppe\06 - Sagittaire.wav" WAVE
INDEX 01 00:00:00
TRACK 07 AUDIO
INDEX 00 02:20:52
FILE "Renй Aubry - 1990 - Steppe\07 - Staccato.wav" WAVE
INDEX 01 00:00:00
TRACK 08 AUDIO
INDEX 00 02:46:30
FILE "Renй Aubry - 1990 - Steppe\08 - Priиre.wav" WAVE
INDEX 01 00:00:00
TRACK 09 AUDIO
INDEX 00 03:34:35
FILE "Renй Aubry - 1990 - Steppe\09 - Mйmoires.wav" WAVE
INDEX 01 00:00:00
TRACK 10 AUDIO
INDEX 00 05:07:07
FILE "Renй Aubry - 1990 - Steppe\10 - Magda.wav" WAVE
INDEX 01 00:00:00
TRACK 11 AUDIO
INDEX 00 03:20:65
FILE "Renй Aubry - 1990 - Steppe\11 - The Dark Wind.wav" WAVE
INDEX 01 00:00:00
FILE "Renй Aubry - 1990 - Steppe\12 - Steppe II.wav" WAVE
TRACK 12 AUDIO
INDEX 01 00:00:00
[свернуть]

Спектр частот

[свернуть]

Скачать Rene Aubry - Steppe

[свернуть]
My opinion of release: 9/10


Последний раз редактировалось TAIFUN, 07.04.2015 в 04:50.
Вверх
Пользователь сказал cпасибо:
sergych (07.04.2015)
  #3
Старый 05.04.2015, 22:47
remix
Меломан
Досье
 
Аватар для remix
По умолчанию Re: Rene Aubry - Steppe

Так, мне еще набрать два сообщения и я попробую скачать этот альбом. Если он еще на сервере.

Вверх
Пользователь сказал cпасибо:
sergych (05.04.2015)
  #4
Старый 05.04.2015, 23:00
sergych
Координатор
Досье
 
Аватар для sergych
По умолчанию Re: Rene Aubry - Steppe

Цитата: Сообщение от remix Посмотреть сообщение
Если он еще на сервере

Народ, увы, прекратил своё существование как файлохранилище. Завтра вечером перезалью.
__________________
TAIFUN.Wings of Soul

Вверх
Пользователь сказал cпасибо:
remix (05.04.2015)
  #5
Старый 06.04.2015, 20:03
sergych
Координатор
Досье
 
Аватар для sergych
По умолчанию Re: Rene Aubry - Steppe

remix, перезалито. Приятного прослушивания
__________________
TAIFUN.Wings of Soul

Вверх
2 пользователя(ей) сказали cпасибо:
remix (06.04.2015), TAIFUN (07.04.2015)
  #6
Старый 06.04.2015, 21:13
remix
Меломан
Досье
 
Аватар для remix
Smile Re: Rene Aubry - Steppe

Ух ты! Здорово. Спасибо. А то нигде в сети нет в высоком битрейте этого альбома, только 128. А у Вас нашел 320. Уже приятно прослушиваю.

Добавлено через 1 минуту
Еще и сканы большие все. Вообще класс.

Вверх
2 пользователя(ей) сказали cпасибо:
sergych (06.04.2015), TAIFUN (07.04.2015)
Похожие темы
Тема Автор Раздел Ответов Последнее сообщение
Релиз Rene / Рене - Лететь PUPOKIN Русская Поп-Музыка 0 18.11.2010 10:58
Альбом Rene Aubry - Derives sergych Instrumental 0 27.06.2009 22:42
Альбом Rene Aubry - Libre Parcours sergych Instrumental 0 27.06.2009 20:57
Альбом Rene Aubry - Play Time sergych Instrumental 0 12.06.2009 20:26
Альбом Rene - Once in a lifetime PUPOKIN R&B 0 03.09.2008 21:30


Метки
aubry , classical , folk-pop , instrumental , modern , rene , rene aubry , soundtracks

Опции темы

Ваши права в разделе
Вы не можете создавать новые темы
Вы не можете отвечать в темах
Вы не можете прикреплять вложения
Вы не можете редактировать свои сообщения

Быстрый переход



Текущее время: 20:16. Часовой пояс GMT +3.
Powered by vBulletin® Version 3.8.7
Copyright ©2000 - 2017, vBulletin Solutions, Inc. Перевод: zCarot
© 2008 - 2017 Taifun With Song
Яндекс.Метрика