TAIFUN With Song - качественная и редкая музыка
Навигация
Heavy Metal Выражение "Heavy Metall" впервые появилось в романе известного американского писателя Уильяма Берроуза "Naked Lunch" (1959), где он использует этот термин для описания резкой, непривычной музыки. Элемент импровизации в истинном "металле" практически сведен к нулю, точнее - он отсутствует в традиционном смысле этого слова, однако опытные "металлические" группы (Metallica, Slayer, Megadeth) часто вводят в свои композиции очень сложные изменения ритма, и у неподготовленного слушателя может возникнуть ощущение какофонии, хотя речь идет о ритмической импровизации, по духу очень близкой той, которую исследуют серьезные современные композиторы.

А знаете ли Вы, что...
Какой император наказывал офицеров прослушиванием оперы?
«Император Николай I не любил музыку и в качестве наказания для офицеров предоставлял им выбор между гауптвахтой и прослушиванием опер Глинки.»
 
Опции темы

  #1
Старый 17.01.2020, 20:12
swint68
Релизёр
Досье
 
Аватар для swint68
По умолчанию Candle - The Keeper's Curse


2018 - Candle - The Keeper's Curse




Исполнитель/Artist: Candle
Альбом/Album: The Keeper's Curse
Год/Year: 2018
Жанр/Genre: Heavy Metal
Страна/Country: Швеция
Рекорд-лейбл/Record label: Fighter Records
Номер в каталоге/Catalogue #: FIGHT 016 CD
Формат/Format: Free Lossless Audio Codec (*.flac)
Качество/Quality: Lossless
Тип рипа/RIP Type: image+.cue
Продолжительность/Length: 00:43:47
Источник/Source: Ilijan
Размер/Size: 370 MB

Сканы в комплекте

Треклист

01. Intro
02. The Secret
03. Light At The End
04. Frozen With Fear
05. Betrayal
06. Dancing Lights
07. Embraced By Darkness
08. No Peace For My Soul
09. Vengeance
[свернуть]

Превью на YouTube

[свернуть]

EAC лог

Exact Audio Copy V1.3 from 2. September 2016

EAC extraction logfile from 3. December 2018, 17:41

Candle / The Keeper's Curse

Used drive : ATAPI iHAS122 W Adapter: 2 ID: 0

Read mode : Secure
Utilize accurate stream : Yes
Defeat audio cache : Yes
Make use of C2 pointers : No

Read offset correction : 48
Overread into Lead-In and Lead-Out : No
Fill up missing offset samples with silence : Yes
Delete leading and trailing silent blocks : No
Null samples used in CRC calculations : Yes
Used interface : Installed external ASPI interface

Used output format : User Defined Encoder
Selected bitrate : 1024 kBit/s
Quality : High
Add ID3 tag : No
Command line compressor : C:\Program Files\FLAC\flac.exe
Additional command line options : -V -8 -T "Date=%year%" -T "Genre=%genre%" -T"COMMENT=Ripped by Ilijan [MeTaLMaDNeSS.TeaM]" -8 -V %source%


TOC of the extracted CD

Track | Start | Length | Start sector | End sector
---------------------------------------------------------
1 | 0:00.00 | 1:24.69 | 0 | 6368
2 | 1:24.69 | 4:29.37 | 6369 | 26580
3 | 5:54.31 | 5:33.11 | 26581 | 51566
4 | 11:27.42 | 6:14.18 | 51567 | 79634
5 | 17:41.60 | 4:34.62 | 79635 | 100246
6 | 22:16.47 | 4:48.69 | 100247 | 121915
7 | 27:05.41 | 4:34.18 | 121916 | 142483
8 | 31:39.59 | 5:08.66 | 142484 | 165649
9 | 36:48.50 | 6:49.14 | 165650 | 196338


Range status and errors

Selected range

Filename D:\Vknish+g.y.m.=3.14дарасы (Upload On Rutracker, DIE!!!)\Candle - The Keeper's Curse.wav

Peak level 100.0 %
Extraction speed 3.8 X
Range quality 100.0 %
Test CRC 82324844
Copy CRC 82324844
Copy OK

No errors occurred


AccurateRip summary

Track 1 not present in database
Track 2 not present in database
Track 3 not present in database
Track 4 not present in database
Track 5 not present in database
Track 6 not present in database
Track 7 not present in database
Track 8 not present in database
Track 9 not present in database

None of the tracks are present in the AccurateRip database

End of status report

---- CUETools DB Plugin V2.1.6

[CTDB TOCID: d8tEhMpz9ctbCqJ1fP2_QobUCGQ-] disk not present in database
Submit result: d8tEhMpz9ctbCqJ1fP2_QobUCGQ- has been uploaded


==== Log checksum 321DB6DA25F66D0574486C526155EBB3C8598BD69F9B74D4FD2B5C77ACD90244 ====
[свернуть]

Файл CUE

REM GENRE "Heavy Metal"
REM DATE 2018
REM DISCID 6E0A3909
REM COMMENT "ExactAudioCopy v1.3"
PERFORMER "Candle"
TITLE "The Keeper's Curse"
FILE "Candle - The Keeper's Curse.flac" WAVE
TRACK 01 AUDIO
TITLE "Intro"
PERFORMER "Candle"
INDEX 01 00:00:00
TRACK 02 AUDIO
TITLE "The Secret"
PERFORMER "Candle"
INDEX 01 01:24:69
TRACK 03 AUDIO
TITLE "Light At The End"
PERFORMER "Candle"
INDEX 01 05:54:31
TRACK 04 AUDIO
TITLE "Frozen With Fear"
PERFORMER "Candle"
INDEX 01 11:27:42
TRACK 05 AUDIO
TITLE "Betrayal"
PERFORMER "Candle"
INDEX 01 17:41:60
TRACK 06 AUDIO
TITLE "Dancing Lights"
PERFORMER "Candle"
INDEX 01 22:16:47
TRACK 07 AUDIO
TITLE "Embraced By Darkness"
PERFORMER "Candle"
INDEX 01 27:05:41
TRACK 08 AUDIO
TITLE "No Peace For My Soul"
PERFORMER "Candle"
INDEX 01 31:39:59
TRACK 09 AUDIO
TITLE "Vengeance"
PERFORMER "Candle"
INDEX 01 36:48:50
[свернуть]

Лог проверки качества

-----------------------

DON'T MODIFY THIS FILE

-----------------------

PERFORMER: auCDtect Task Manager, ver. 1.6.0 RC1 build 1.6.0.1
Copyright (c) 2008-2010 y-soft. All rights reserved
[Ссылки могут видеть только зарегистрированные и активированные пользователи.]
[Only registered and activated users can see links.]

ANALYZER: auCDtect: CD records authenticity detector, version 0.8.2
Copyright (c) 2004 Oleg Berngardt. All rights reserved.
Copyright (c) 2004 Alexander Djourik. All rights reserved.


FILE: Candle - The Keeper's Curse.flac
Size: 347308539 Hash: FEFC5DA3389783FF194B3D72B07A53E4 Accuracy: -m0
Conclusion: CDDA 100%
Signature: 154186140CD20676871FF572FE2CF1495FFEF273
[свернуть]

Скачать Candle - The Keeper's Curse

[Ссылки могут видеть только зарегистрированные и активированные пользователи.]
[Only registered and activated users can see links.]
[свернуть]

Вверх
2 пользователя(ей) сказали cпасибо:
sergych (18.01.2020), TAIFUN (19.01.2020)
Похожие темы
Тема Автор Раздел Ответов Последнее сообщение
Релиз K-Ci & JoJo - My Brother's Keeper PUPOKIN R&B 0 01.10.2013 09:21
VA Candle Lounge Vol. 1 PUPOKIN Lounge 0 23.04.2011 09:34
Альбом Helloween - Keeper Of The Seven Keys Pt. 2 Afula Power Metal 0 16.04.2011 20:11
Альбом Helloween - Keeper Of The Seven Keys Pt. 1 Afula Power Metal 0 16.04.2011 20:08
Релиз Candle Nine-The Muse In The Machine PUPOKIN Electro 0 01.03.2010 11:08


Метки
2018 , candle , heavy metal , the keeper's curse

Опции темы

Ваши права в разделе
Вы не можете создавать новые темы
Вы не можете отвечать в темах
Вы не можете прикреплять вложения
Вы не можете редактировать свои сообщения

Быстрый переход




Текущее время: 06:35. Часовой пояс GMT +3.
Powered by vBulletin® Version 3.8.10
Copyright ©2000 - 2020, vBulletin Solutions, Inc. Перевод: zCarot
© 2008 - 2020 Taifun With Song
Яндекс.Метрика