TAIFUN With Song
Навигация
Вернуться   TAIFUN With Song > Music (обменник) > Rock > Soft Rock
Расширенный поиск
Soft Rock Это музыкальный стиль, который использует технику рок-н-ролла чтобы достичь более мягкого, более приятного для слуха звука, чтобы такую музыку было приятно слушать, например, на работе или за рулем. Soft rock всегда поется с высокими голосами, если певец мужчина, то он будет петь фальцетом, слова soft rock’а всегда сфокусированы на приятные темы, такие, как любовь, ежедневная жизнь и дружба.

А знаете ли Вы, что...
Чем прославился Боб Марли до того, как стать музыкантом?
«Знаменитый ямайский регги-музыкант Боб Марли в детстве был известен в своей деревне как талантливый предсказатель по линиям на ладонях.»
 
Опции темы

  #1
Старый 22.11.2017, 23:39
sergych
Координатор
Досье
 
Аватар для sergych
Релиз Billy Joel - Turnstiles


1976 - Billy Joel - Turnstiles




Исполнитель/Artist: Billy Joel
Альбом/Album: Turnstiles
Год/Year: 1976
Жанр/Genre: Soft Rock, Pop Rock
Страна/Country: Великобритания
Рекорд-лейбл/Record label: CBS Records
Номер в каталоге/Catalogue #: 902197 2
Формат/Format: Free Lossless Audio Codec (*.flac)
Качество/Quality: Lossless
Тип рипа/RIP Type: image+.cue
Продолжительность/Length: 00:36:50
Источник/Source: Собственный рип
Размер/Size: 221.9 MB

Сканы в комплекте

Треклист

01. Say Goodbye To Hollywood [0:04:39.07]
02. Summer, Highland Falls [0:03:18.10]
03. All You Wanna Do Is Dance [0:03:46.35]
04. New York State Of Mind [0:06:03.35]
05. James [0:03:56.65]
06. Prelude / Angry Young Man [0:05:17.65]
07. I've Loved These Days [0:04:36.68]
08. Miami 2017 (Seen The Light Go Down On Broadway) [0:05:11.07]
[свернуть]

youtube.com

[свернуть]

Исполнители/Performers

Billy Joel – piano, electric piano, moog synthesizer, clavinet, organs, harmonica, vocals
Liberty DeVitto – drums
Mingo Lewis – percussion
Howie Emerson, Russell Javors – electric and acoustic guitars
James Smith – acoustic guitar
Doug Stegmeyer – bass guitar
Richie Cannata – saxophones, clarinet
Phil Woods - saxophone in "New York State of Mind" (on 1998 CD reissue and subsequent issues)
[свернуть]

EAC лог

Exact Audio Copy V1.3 from 2. September 2016

EAC extraction logfile from 21. November 2017, 22:58

Billy Joel / Turnstiles

Used drive : ATAPI iHAS124 D Adapter: 0 ID: 2

Read mode : Secure
Utilize accurate stream : Yes
Defeat audio cache : Yes
Make use of C2 pointers : No

Read offset correction : 6
Overread into Lead-In and Lead-Out : No
Fill up missing offset samples with silence : Yes
Delete leading and trailing silent blocks : No
Null samples used in CRC calculations : Yes
Used interface : Installed external ASPI interface

Used output format : User Defined Encoder
Selected bitrate : 1024 kBit/s
Quality : High
Add ID3 tag : No
Command line compressor : C:\Program Files (x86)\Exact Audio Copy\Flac\flac.exe
Additional command line options : -6 -V -T "ARTIST=%artist%" -T "TITLE=%title%" -T "ALBUM=%albumtitle%" -T "DATE=%year%" -T "TRACKNUMBER=%tracknr%" -T "GENRE=%genre%" -T "COMMENT=%comment%" -T "BAND=%albuminterpret%" -T "ALBUMARTIST=%albuminterpret%" -T "COMPOSER=%composer%" %haslyrics%--tag-from-file=LYRICS="%lyricsfile%"%haslyrics% -T "DISCNUMBER=%cdnumber%" -T "TOTALDISCS=%totalcds%" -T "TOTALTRACKS=%numtracks%" %hascover%--picture="%coverfile%"%hascover% %source% -o %dest%


TOC of the extracted CD

Track | Start | Length | Start sector | End sector
---------------------------------------------------------
1 | 0:00.00 | 4:39.07 | 0 | 20931
2 | 4:39.07 | 3:18.10 | 20932 | 35791
3 | 7:57.17 | 3:46.35 | 35792 | 52776
4 | 11:43.52 | 6:03.35 | 52777 | 80036
5 | 17:47.12 | 3:56.65 | 80037 | 97801
6 | 21:44.02 | 5:17.65 | 97802 | 121641
7 | 27:01.67 | 4:36.68 | 121642 | 142409
8 | 31:38.60 | 5:11.07 | 142410 | 165741


Range status and errors

Selected range

Filename C:\mm\Billy Joel\1976 - Turnstiles [902197 2]\Billy Joel - Turnstiles.wav

Peak level 95.6 %
Extraction speed 7.8 X
Range quality 100.0 %
Test CRC 7C85ECCF
Copy CRC 7C85ECCF
Copy OK

No errors occurred


AccurateRip summary

Track 1 accurately ripped (confidence 21) [D01EB1E0] (AR v2)
Track 2 accurately ripped (confidence 22) [E97D8BDE] (AR v2)
Track 3 accurately ripped (confidence 23) [9210CB3C] (AR v2)
Track 4 accurately ripped (confidence 23) [4884EE29] (AR v2)
Track 5 accurately ripped (confidence 22) [29B92743] (AR v2)
Track 6 accurately ripped (confidence 22) [31DC39B2] (AR v2)
Track 7 accurately ripped (confidence 22) [95530F54] (AR v2)
Track 8 accurately ripped (confidence 22) [A5E589A9] (AR v2)

All tracks accurately ripped

End of status report

---- CUETools DB Plugin V2.1.6

[CTDB TOCID: 3YLP1n.GSy8xd_jKoW8Q4EDw4GM-] found
Submit result: 3YLP1n.GSy8xd_jKoW8Q4EDw4GM- has been confirmed
Track | CTDB Status
1 | (44/45) Accurately ripped
2 | (44/45) Accurately ripped
3 | (45/45) Accurately ripped
4 | (45/45) Accurately ripped
5 | (44/45) Accurately ripped
6 | (44/45) Accurately ripped
7 | (44/45) Accurately ripped
8 | (43/45) Accurately ripped
[свернуть]

Файл CUE

REM GENRE Rock
REM DATE 1976
REM DISCID 5D08A108
REM COMMENT "ExactAudioCopy v1.3"
PERFORMER "Billy Joel"
TITLE "Turnstiles"
REM COMPOSER ""
FILE "Billy Joel - Turnstiles.flac" WAVE
TRACK 01 AUDIO
TITLE "Say Goodbye To Hollywood"
PERFORMER "Billy Joel"
REM COMPOSER ""
INDEX 01 00:00:00
TRACK 02 AUDIO
TITLE "Summer, Highland Falls"
PERFORMER "Billy Joel"
REM COMPOSER ""
INDEX 00 04:37:10
INDEX 01 04:39:07
TRACK 03 AUDIO
TITLE "All You Wanna Do Is Dance"
PERFORMER "Billy Joel"
REM COMPOSER ""
INDEX 00 07:54:27
INDEX 01 07:57:17
TRACK 04 AUDIO
TITLE "New York State Of Mind"
PERFORMER "Billy Joel"
REM COMPOSER ""
INDEX 00 11:40:30
INDEX 01 11:43:52
TRACK 05 AUDIO
TITLE "James"
PERFORMER "Billy Joel"
REM COMPOSER ""
INDEX 00 17:44:65
INDEX 01 17:47:12
TRACK 06 AUDIO
TITLE "Angry Young Man"
PERFORMER "Prelude"
REM COMPOSER ""
INDEX 00 21:41:65
INDEX 01 21:44:02
TRACK 07 AUDIO
TITLE "I've Loved These Days"
PERFORMER "Billy Joel"
REM COMPOSER ""
INDEX 00 26:59:12
INDEX 01 27:01:67
TRACK 08 AUDIO
TITLE "Miami 2017 (Seen The Light Go Down On Broadway)"
PERFORMER "Billy Joel"
REM COMPOSER ""
INDEX 00 31:36:00
INDEX 01 31:38:60
[свернуть]

Лог проверки качества

AUDIOCHECKER v2.0 beta (build 457) - by Dester -
~~~~~~~~~~~~~~~~~~~~~~~~~~~~~~~~~~
-=== НЕ РЕДАКТИРУЙТЕ ЭТОТ ФАЙЛ! ===-

Путь: ...\1976 - Turnstiles [902197 2]

1 -=- Billy Joel - Turnstiles.flac -=- CDDA (100%)

69966996
[свернуть]

Спектр частот

[свернуть]

Скачать Billy Joel - Turnstiles



password: sergych
[свернуть]

Контрольная сумма (хеш-сумма) архива

MD5: 3b545e6998106dcd41b3184e653026ef
[свернуть]
My opinion of release: 10/10
__________________
TAIFUN.Wings of Soul

Вверх
3 пользователя(ей) сказали cпасибо:
Показать список поблагодаривших
Похожие темы
Тема Автор Раздел Ответов Последнее сообщение
Сборник Billy Joel - She's Got A Way: Love Songs sergych Soft Rock 0 18.02.2017 08:14
Альбом Billy Joel - The Stranger sergych Soft Rock 0 27.11.2016 10:49
Альбом Billy Joel - River Of Dreams sergych Rock 0 25.10.2015 17:04
Сборник Billy Joel - Greatest Hits. Volume I & II sergych Pop Rock 0 28.07.2014 22:10
Альбом Billy McLaughlin - Acoustic Original (The Best Of Billy McLaughlin) fly123 New age 0 28.09.2011 17:46


Метки
1976 , billy joel , pop rock , soft rock , turnstiles

Опции темы

Ваши права в разделе
Вы не можете создавать новые темы
Вы не можете отвечать в темах
Вы не можете прикреплять вложения
Вы не можете редактировать свои сообщения

Быстрый переход



Текущее время: 15:56. Часовой пояс GMT +3.
Powered by vBulletin® Version 3.8.10
Copyright ©2000 - 2017, vBulletin Solutions, Inc. Перевод: zCarot
© 2008 - 2017 Taifun With Song
Яндекс.Метрика