TAIFUN With Song
Навигация
Вернуться   TAIFUN With Song > Music (обменник) > Rock > Alternative Rock
Расширенный поиск
Alternative Rock Альтернативный рок — термин в современной музыке, под которым понимают различные жанры рок-музыки, противопоставляющие себя традиционным. Термин появился в 1980-е гг. и охватывал множество жанров, берущих своё начало в панк-роке, постпанке и др. В настоящее время альтернативный рок разделяют на две стадии: первая — это группы 1980-х гг. с широким диапазоном музыкальной самоидентификации; вторая — группы 1990-х гг., получившие после коммерческого успеха американского гранжа в 1991—1993 гг. такую же поддержку крупных лейблов и раскрутку, как и традиционные эстрадные и рок-коллективы (сам альтернативный рок в те годы стал ассоциироваться в основном с гранжем и постгранжевыми группами, сам, таким образом, став жанром), при этом более бескомпромиссные ансамбли ушли в андерграунд.

А знаете ли Вы, что...
Каким образом Эдит Пиаф помогала бежать из немецких лагерей французским военнопленным?
«Французская певица Эдит Пиаф в период оккупации выступала в лагерях для военнопленных на территории Германии, после которых фотографировалась на память с ними и немецкими офицерами. Затем в Париже лица военнопленных вырезали и вклеивали в фальшивые документы. Пиаф ехала в лагерь с повторным визитом и тайно провозила эти паспорта, с которыми некоторым пленным удавалось бежать.»
 
Опции темы

  #1
Старый 21.11.2017, 07:01
sergych
Координатор
Досье
 
Аватар для sergych
Релиз Sarah McLachlan - Fumbling Towards Ecstasy


1993 - Sarah McLachlan - Fumbling Towards Ecstasy




Исполнитель/Artist: Sarah McLachlan
Альбом/Album: Fumbling Towards Ecstasy
Год/Year: 1993
Жанр/Genre: pop rock, alternative rock
Страна/Country: Канада
Рекорд-лейбл/Record label: Nettwerk
Номер в каталоге/Catalogue #: 30081-2
Формат/Format: Free Lossless Audio Codec (*.flac)
Качество/Quality: Lossless
Тип рипа/RIP Type: image+.cue
Продолжительность/Length: 00:54:59
Источник/Source: Собственный рип
Размер/Size: 401.9 MB

Сканы в комплекте

Треклист

01. Possession [0:04:39.35]
02. Wait [0:04:09.55]
03. Plenty [0:04:04.73]
04. Good Enough [0:05:03.67]
05. Mary [0:03:55.63]
06. Elsewhere [0:04:44.20]
07. Circle [0:03:43.67]
08. Ice [0:03:54.73]
09. Hold On [0:04:09.67]
10. Ice Cream [0:02:44.23]
11. Fear [0:03:59.35]
12. Fumbling Towards Ecstasy [0:09:47.67]
[свернуть]

youtube.com

[свернуть]

Исполнители/Performers

Sarah McLachlan - Vocals, Acoustic & Electric Guitars, Piano
Bill Dillon - Acoustic & Electric Guitars, Guitorgan, Bass, Piano
Pierre Marchand - Bass, Piano, Keyboards, Fake B-3 Organ, Drum Machine, Percussion Machine, 808, Shaker, Found Sound
Brian Minato - Bass
David Kershaw - Hammond Organ
Jane Scarpantoni - Cello
Michel Dubeau - Saxophone
Ashwin Sood, Jerry Marotta - Drums, Percussion
Guy Nadon, Lou Shefano - Drums
[свернуть]

EAC лог

Exact Audio Copy V1.3 from 2. September 2016

EAC extraction logfile from 18. November 2017, 11:19

Sarah McLachlan / Fumbling Towards Ecstasy

Used drive : ATAPI iHAS124 D Adapter: 0 ID: 2

Read mode : Secure
Utilize accurate stream : Yes
Defeat audio cache : Yes
Make use of C2 pointers : No

Read offset correction : 6
Overread into Lead-In and Lead-Out : No
Fill up missing offset samples with silence : Yes
Delete leading and trailing silent blocks : No
Null samples used in CRC calculations : Yes
Used interface : Installed external ASPI interface

Used output format : User Defined Encoder
Selected bitrate : 1024 kBit/s
Quality : High
Add ID3 tag : No
Command line compressor : C:\Program Files (x86)\Exact Audio Copy\Flac\flac.exe
Additional command line options : -6 -V -T "ARTIST=%artist%" -T "TITLE=%title%" -T "ALBUM=%albumtitle%" -T "DATE=%year%" -T "TRACKNUMBER=%tracknr%" -T "GENRE=%genre%" -T "COMMENT=%comment%" -T "BAND=%albuminterpret%" -T "ALBUMARTIST=%albuminterpret%" -T "COMPOSER=%composer%" %haslyrics%--tag-from-file=LYRICS="%lyricsfile%"%haslyrics% -T "DISCNUMBER=%cdnumber%" -T "TOTALDISCS=%totalcds%" -T "TOTALTRACKS=%numtracks%" %hascover%--picture="%coverfile%"%hascover% %source% -o %dest%


TOC of the extracted CD

Track | Start | Length | Start sector | End sector
---------------------------------------------------------
1 | 0:00.32 | 4:39.35 | 32 | 20991
2 | 4:39.67 | 4:09.55 | 20992 | 39721
3 | 8:49.47 | 4:04.73 | 39722 | 58094
4 | 12:54.45 | 5:03.67 | 58095 | 80886
5 | 17:58.37 | 3:55.63 | 80887 | 98574
6 | 21:54.25 | 4:44.20 | 98575 | 119894
7 | 26:38.45 | 3:43.67 | 119895 | 136686
8 | 30:22.37 | 3:54.73 | 136687 | 154309
9 | 34:17.35 | 4:09.67 | 154310 | 173051
10 | 38:27.27 | 2:44.23 | 173052 | 185374
11 | 41:11.50 | 3:59.35 | 185375 | 203334
12 | 45:11.10 | 9:47.67 | 203335 | 247426


Range status and errors

Selected range

Filename C:\mm\Sarah McLachlan\1993 - Fumbling Towards Ecstasy [30081-2]\Sarah McLachlan - Fumbling Towards Ecstasy.wav

Peak level 100.0 %
Extraction speed 8.5 X
Range quality 100.0 %
Test CRC B80635F5
Copy CRC B80635F5
Copy OK

No errors occurred


AccurateRip summary

Track 1 accurately ripped (confidence 7) [7D6AF0E6] (AR v2)
Track 2 accurately ripped (confidence 7) [7A2A97F2] (AR v2)
Track 3 accurately ripped (confidence 7) [B723F716] (AR v2)
Track 4 accurately ripped (confidence 7) [C4D40688] (AR v2)
Track 5 accurately ripped (confidence 7) [ACDF252E] (AR v2)
Track 6 accurately ripped (confidence 7) [E687DC77] (AR v2)
Track 7 accurately ripped (confidence 7) [6B8DA6BB] (AR v2)
Track 8 accurately ripped (confidence 7) [8AA2DEBC] (AR v2)
Track 9 accurately ripped (confidence 7) [CF65CF7E] (AR v2)
Track 10 accurately ripped (confidence 7) [B31DE3A5] (AR v2)
Track 11 accurately ripped (confidence 7) [AC13CC55] (AR v2)
Track 12 accurately ripped (confidence 7) [BF5CF0AA] (AR v2)

All tracks accurately ripped

End of status report

---- CUETools DB Plugin V2.1.6

[CTDB TOCID: x3cPNe.wC5Q40lbLQylQrMkkQw4-] found
Submit result: x3cPNe.wC5Q40lbLQylQrMkkQw4- has been confirmed
Track | CTDB Status
1 | (111/116) Accurately ripped
2 | (110/116) Accurately ripped
3 | (111/116) Accurately ripped
4 | (110/116) Accurately ripped
5 | (111/116) Accurately ripped
6 | (111/116) Accurately ripped
7 | (109/116) Accurately ripped
8 | (113/116) Accurately ripped
9 | (111/116) Accurately ripped
10 | (110/116) Accurately ripped
11 | (108/116) Accurately ripped
12 | (106/116) Accurately ripped
[свернуть]

Файл CUE

REM GENRE Alternative
REM DATE 1993
REM DISCID 8F0CE30C
REM COMMENT "ExactAudioCopy v1.3"
PERFORMER "Sarah McLachlan"
TITLE "Fumbling Towards Ecstasy"
REM COMPOSER ""
FILE "Sarah McLachlan - Fumbling Towards Ecstasy.flac" WAVE
TRACK 01 AUDIO
TITLE "Possession"
PERFORMER "Sarah McLachlan"
REM COMPOSER ""
INDEX 00 00:00:00
INDEX 01 00:00:32
TRACK 02 AUDIO
TITLE "Wait"
PERFORMER "Sarah McLachlan"
REM COMPOSER ""
INDEX 00 04:38:50
INDEX 01 04:39:67
TRACK 03 AUDIO
TITLE "Plenty"
PERFORMER "Sarah McLachlan"
REM COMPOSER ""
INDEX 01 08:49:47
TRACK 04 AUDIO
TITLE "Good Enough"
PERFORMER "Sarah McLachlan"
REM COMPOSER ""
INDEX 01 12:54:45
TRACK 05 AUDIO
TITLE "Mary"
PERFORMER "Sarah McLachlan"
REM COMPOSER ""
INDEX 01 17:58:37
TRACK 06 AUDIO
TITLE "Elsewhere"
PERFORMER "Sarah McLachlan"
REM COMPOSER ""
INDEX 00 21:53:22
INDEX 01 21:54:25
TRACK 07 AUDIO
TITLE "Circle"
PERFORMER "Sarah McLachlan"
REM COMPOSER ""
INDEX 01 26:38:45
TRACK 08 AUDIO
TITLE "Ice"
PERFORMER "Sarah McLachlan"
REM COMPOSER ""
INDEX 00 30:21:10
INDEX 01 30:22:37
TRACK 09 AUDIO
TITLE "Hold On"
PERFORMER "Sarah McLachlan"
REM COMPOSER ""
INDEX 00 34:15:55
INDEX 01 34:17:35
TRACK 10 AUDIO
TITLE "Ice Cream"
PERFORMER "Sarah McLachlan"
REM COMPOSER ""
INDEX 00 38:26:12
INDEX 01 38:27:27
TRACK 11 AUDIO
TITLE "Fear"
PERFORMER "Sarah McLachlan"
REM COMPOSER ""
INDEX 01 41:11:50
TRACK 12 AUDIO
TITLE "Fumbling Towards Ecstasy"
PERFORMER "Sarah McLachlan"
REM COMPOSER ""
INDEX 01 45:11:10
[свернуть]

Лог проверки качества

AUDIOCHECKER v2.0 beta (build 457) - by Dester -
~~~~~~~~~~~~~~~~~~~~~~~~~~~~~~~~~~
-=== НЕ РЕДАКТИРУЙТЕ ЭТОТ ФАЙЛ! ===-

Путь: ...\1993 - Fumbling Towards Ecstasy [30081-2]

1 -=- Sarah McLachlan - Fumbling Towards Ecstasy.flac -=- CDDA (100%)

238818548
[свернуть]

Спектр частот

[свернуть]

Скачать Sarah McLachlan - Fumbling Towards Ecstasy



password: sergych
[свернуть]

Контрольная сумма (хеш-сумма) архива

MD5: 0f429fad7d41506aec52cc294563b52f
[свернуть]
My opinion of release: 10/10
__________________
TAIFUN.Wings of Soul

Вверх
4 пользователя(ей) сказали cпасибо:
Показать список поблагодаривших
Похожие темы
Тема Автор Раздел Ответов Последнее сообщение
Альбом Sarah McLachlan - Solace sergych Alternative Rock 0 20.11.2017 06:56
Альбом Sarah McLachlan - Touch sergych Зарубежная Поп-Музыка 1 20.08.2017 19:44
Сборник Sarah McLachlan - Closer: The Best Of Sarah McLachlan sergych Зарубежная Поп-Музыка 0 18.01.2015 12:02
Альбом Sarah McLachlan - Surfacing sergych Зарубежная Поп-Музыка 0 04.09.2014 18:54
Альбом Sarah McLachlan - Afterglow sergych Зарубежная Поп-Музыка 0 22.08.2014 18:46


Метки
1993 , alternative rock , fumbling towards ecstasy , pop rock , sarah mclachlan

Опции темы

Ваши права в разделе
Вы не можете создавать новые темы
Вы не можете отвечать в темах
Вы не можете прикреплять вложения
Вы не можете редактировать свои сообщения

Быстрый переход



Текущее время: 15:57. Часовой пояс GMT +3.
Powered by vBulletin® Version 3.8.10
Copyright ©2000 - 2017, vBulletin Solutions, Inc. Перевод: zCarot
© 2008 - 2017 Taifun With Song
Яндекс.Метрика