TAIFUN With Song
Навигация
Вернуться   TAIFUN With Song > Music (обменник) > Rock > Alternative Rock
Расширенный поиск
Alternative Rock Альтернативный рок — термин в современной музыке, под которым понимают различные жанры рок-музыки, противопоставляющие себя традиционным. Термин появился в 1980-е гг. и охватывал множество жанров, берущих своё начало в панк-роке, постпанке и др. В настоящее время альтернативный рок разделяют на две стадии: первая — это группы 1980-х гг. с широким диапазоном музыкальной самоидентификации; вторая — группы 1990-х гг., получившие после коммерческого успеха американского гранжа в 1991—1993 гг. такую же поддержку крупных лейблов и раскрутку, как и традиционные эстрадные и рок-коллективы (сам альтернативный рок в те годы стал ассоциироваться в основном с гранжем и постгранжевыми группами, сам, таким образом, став жанром), при этом более бескомпромиссные ансамбли ушли в андерграунд.

А знаете ли Вы, что...
Какой знаменитый музыкант играл в метро, и люди почти не проявили интерес к его музыке?
«Один из лучших скрипачей американец Джошуа Белл 12 января 2007 года согласился принять участие в эксперименте — утром на протяжении 45 минут он играл в вестибюле станции метро под видом обычного уличного музыканта. Из тысячи прошедших мимо людей только семь заинтересовались музыкой.»
 
Опции темы

  #1
Старый 20.11.2017, 05:56
sergych
Координатор
Досье
 
Аватар для sergych
Релиз Sarah McLachlan - Solace


1991 - Sarah McLachlan - Solace




Исполнитель/Artist: Sarah McLachlan
Альбом/Album: Solace
Год/Year: 1991
Жанр/Genre: Folk rock, Alternative
Страна/Country: Германия
Рекорд-лейбл/Record label: Arista Records
Номер в каталоге/Catalogue #: 261 955
Формат/Format: Free Lossless Audio Codec (*.flac)
Качество/Quality: Lossless
Тип рипа/RIP Type: image+.cue
Продолжительность/Length: 00:48:10
Источник/Source: Собственный рип
Размер/Size: 290.2 MB

Сканы в комплекте

Треклист

01. Drawn To The Rhythm [0:04:12.30]
02. Into The Fire [0:03:30.67]
03. The Path Of Thorns (Terms) [0:05:50.25]
04. I Will Not Forget You [0:05:21.73]
05. Lost [0:03:56.57]
06. Back Door Man [0:04:11.35]
07. Shelter [0:03:30.03]
08. Black [0:05:08.22]
09. Home [0:04:45.50]
10. Mercy [0:04:23.33]
11. Wear Your Love Like Heaven [0:03:19.17]
[свернуть]

youtube.com

[свернуть]

Исполнители/Performers

Sarah McLachlan - Vocals, Acoustic Guitar, Piano
Pierre Marchand - Electric Guitar, Mandolin, Bass, Piano, Organ, Keyboards, Accordion Reeds, Percussion
Bill Dillon - Acoustic and Electric Guitars, Mandolin, Pedal Steel, Guitorgan, Billatron
Leo Nocentelli - Electric Guitar
Daryl Exnicious - Bass, Background Vocals
Alan Gevaert, Hugh McMillan, Jocelyne Lanois - Bass
Deni Bonet - Violin, Viola
Peter "Harpy" Conway - Harmonica
Ronald Jones - Drums, Percussion
Ashwin Sood, Paul Brennan - Drums
Michel Dupirre - Percussion
[свернуть]

EAC лог

Exact Audio Copy V1.3 from 2. September 2016

EAC extraction logfile from 10. November 2017, 1:52

Sarah McLachlan / Solace

Used drive : ATAPI iHAS124 D Adapter: 0 ID: 2

Read mode : Secure
Utilize accurate stream : Yes
Defeat audio cache : Yes
Make use of C2 pointers : No

Read offset correction : 6
Overread into Lead-In and Lead-Out : No
Fill up missing offset samples with silence : Yes
Delete leading and trailing silent blocks : No
Null samples used in CRC calculations : Yes
Used interface : Installed external ASPI interface

Used output format : User Defined Encoder
Selected bitrate : 1024 kBit/s
Quality : High
Add ID3 tag : No
Command line compressor : C:\Program Files (x86)\Exact Audio Copy\Flac\flac.exe
Additional command line options : -6 -V -T "ARTIST=%artist%" -T "TITLE=%title%" -T "ALBUM=%albumtitle%" -T "DATE=%year%" -T "TRACKNUMBER=%tracknr%" -T "GENRE=%genre%" -T "COMMENT=%comment%" -T "BAND=%albuminterpret%" -T "ALBUMARTIST=%albuminterpret%" -T "COMPOSER=%composer%" %haslyrics%--tag-from-file=LYRICS="%lyricsfile%"%haslyrics% -T "DISCNUMBER=%cdnumber%" -T "TOTALDISCS=%totalcds%" -T "TOTALTRACKS=%numtracks%" %hascover%--picture="%coverfile%"%hascover% %source% -o %dest%


TOC of the extracted CD

Track | Start | Length | Start sector | End sector
---------------------------------------------------------
1 | 0:00.33 | 4:12.30 | 33 | 18962
2 | 4:12.63 | 3:30.67 | 18963 | 34779
3 | 7:43.55 | 5:50.25 | 34780 | 61054
4 | 13:34.05 | 5:21.73 | 61055 | 85202
5 | 18:56.03 | 3:56.57 | 85203 | 102959
6 | 22:52.60 | 4:11.35 | 102960 | 121819
7 | 27:04.20 | 3:30.03 | 121820 | 137572
8 | 30:34.23 | 5:08.22 | 137573 | 160694
9 | 35:42.45 | 4:45.50 | 160695 | 182119
10 | 40:28.20 | 4:23.33 | 182120 | 201877
11 | 44:51.53 | 3:19.17 | 201878 | 216819


Range status and errors

Selected range

Filename C:\mm\Sarah McLachlan\1991- Solace [261 955]\Sarah McLachlan - Solace.wav

Peak level 100.0 %
Extraction speed 8.5 X
Range quality 100.0 %
Test CRC 8527D68E
Copy CRC 8527D68E
Copy OK

No errors occurred


AccurateRip summary

Track 1 accurately ripped (confidence 96) [DF04A07A] (AR v2)
Track 2 accurately ripped (confidence 97) [A5FA4060] (AR v2)
Track 3 accurately ripped (confidence 96) [075C0256] (AR v2)
Track 4 accurately ripped (confidence 96) [62906D6B] (AR v2)
Track 5 accurately ripped (confidence 96) [91386199] (AR v2)
Track 6 accurately ripped (confidence 96) [7FDF5825] (AR v2)
Track 7 accurately ripped (confidence 95) [8856B1EA] (AR v2)
Track 8 accurately ripped (confidence 95) [ECB725E6] (AR v2)
Track 9 accurately ripped (confidence 96) [9D5AC7A2] (AR v2)
Track 10 accurately ripped (confidence 96) [484CD2FA] (AR v2)
Track 11 accurately ripped (confidence 97) [8EECE32B] (AR v2)

All tracks accurately ripped

End of status report

---- CUETools DB Plugin V2.1.6

[CTDB TOCID: lP7wZ8d_Vop3qaYvmj1LDcrh3No-] found
Submit result: lP7wZ8d_Vop3qaYvmj1LDcrh3No- has been confirmed
Track | CTDB Status
1 | (124/126) Accurately ripped
2 | (123/126) Accurately ripped
3 | (124/126) Accurately ripped
4 | (123/126) Accurately ripped
5 | (123/126) Accurately ripped
6 | (124/126) Accurately ripped
7 | (125/126) Accurately ripped
8 | (124/126) Accurately ripped
9 | (123/126) Accurately ripped
10 | (124/126) Accurately ripped
11 | (125/126) Accurately ripped
[свернуть]

Файл CUE

REM GENRE Pop
REM DATE 1991
REM DISCID 900B4A0B
REM COMMENT "ExactAudioCopy v1.3"
PERFORMER "Sarah McLachlan"
TITLE "Solace"
REM COMPOSER ""
FILE "Sarah McLachlan - Solace.flac" WAVE
TRACK 01 AUDIO
TITLE "Drawn To The Rhythm"
PERFORMER "Sarah McLachlan"
REM COMPOSER ""
INDEX 00 00:00:00
INDEX 01 00:00:33
TRACK 02 AUDIO
TITLE "Into The Fire"
PERFORMER "Sarah McLachlan"
REM COMPOSER ""
INDEX 00 04:10:33
INDEX 01 04:12:63
TRACK 03 AUDIO
TITLE "The Path Of Thorns (Terms)"
PERFORMER "Sarah McLachlan"
REM COMPOSER ""
INDEX 00 07:42:20
INDEX 01 07:43:55
TRACK 04 AUDIO
TITLE "I Will Not Forget You"
PERFORMER "Sarah McLachlan"
REM COMPOSER ""
INDEX 00 13:33:10
INDEX 01 13:34:05
TRACK 05 AUDIO
TITLE "Lost"
PERFORMER "Sarah McLachlan"
REM COMPOSER ""
INDEX 00 18:53:73
INDEX 01 18:56:03
TRACK 06 AUDIO
TITLE "Back Door Man"
PERFORMER "Sarah McLachlan"
REM COMPOSER ""
INDEX 00 22:51:30
INDEX 01 22:52:60
TRACK 07 AUDIO
TITLE "Shelter"
PERFORMER "Sarah McLachlan"
REM COMPOSER ""
INDEX 00 27:02:33
INDEX 01 27:04:20
TRACK 08 AUDIO
TITLE "Black"
PERFORMER "Sarah McLachlan"
REM COMPOSER ""
INDEX 01 30:34:23
TRACK 09 AUDIO
TITLE "Home"
PERFORMER "Sarah McLachlan"
REM COMPOSER ""
INDEX 00 35:40:08
INDEX 01 35:42:45
TRACK 10 AUDIO
TITLE "Mercy"
PERFORMER "Sarah McLachlan"
REM COMPOSER ""
INDEX 00 40:25:48
INDEX 01 40:28:20
TRACK 11 AUDIO
TITLE "Wear Your Love Like Heaven"
PERFORMER "Sarah McLachlan"
REM COMPOSER ""
INDEX 00 44:50:40
INDEX 01 44:51:53
[свернуть]

Лог проверки качества

AUDIOCHECKER v2.0 beta (build 457) - by Dester -
~~~~~~~~~~~~~~~~~~~~~~~~~~~~~~~~~~
-=== НЕ РЕДАКТИРУЙТЕ ЭТОТ ФАЙЛ! ===-

Путь: ...\1991- Solace [261 955]

1 -=- Sarah McLachlan - Solace.flac -=- CDDA (100%)

120959124
[свернуть]

Спектр частот

[свернуть]

Скачать Sarah McLachlan - Solace



password: sergych
[свернуть]

Контрольная сумма (хеш-сумма) архива

MD5: 5fa74c31016c41823816a65b175b9352
[свернуть]
My opinion of release: 10/10
__________________
TAIFUN.Wings of Soul

Вверх
4 пользователя(ей) сказали cпасибо:
Показать список поблагодаривших
Похожие темы
Тема Автор Раздел Ответов Последнее сообщение
Альбом Sarah McLachlan - Touch sergych Зарубежная Поп-Музыка 1 20.08.2017 18:44
Сборник Sarah McLachlan - Closer: The Best Of Sarah McLachlan sergych Зарубежная Поп-Музыка 0 18.01.2015 11:02
Альбом Sarah McLachlan - Surfacing sergych Зарубежная Поп-Музыка 0 04.09.2014 17:54
Альбом Sarah McLachlan - Afterglow sergych Зарубежная Поп-Музыка 0 22.08.2014 17:46
Live Sarah McLachlan - Mirrorball sergych Зарубежная Поп-Музыка 0 09.12.2013 19:22


Метки
1991 , alternative , folk rock , sarah mclachlan , solace

Опции темы

Ваши права в разделе
Вы не можете создавать новые темы
Вы не можете отвечать в темах
Вы не можете прикреплять вложения
Вы не можете редактировать свои сообщения

Быстрый переход



Текущее время: 11:42. Часовой пояс GMT +3.
Powered by vBulletin® Version 3.8.10
Copyright ©2000 - 2018, vBulletin Solutions, Inc. Перевод: zCarot
© 2008 - 2018 Taifun With Song
Яндекс.Метрика