TAIFUN With Song
Навигация
Jazz и Blues Гибкая ритмика, импровизационное начало, гармонии и мелодии - все это Jazz. Blues - жизнеутверждающая музыка, рожденная из душевной боли

А знаете ли Вы, что...
В каком стиле играет группа, вокалистом которой является попугай?
«Единственная в мире группа, вокалистом которой является птица — попугай по кличке Вальдо, играет в стиле дэт-метал и называется Hatebeak. К настоящему времени группа выпустила три альбома, однако проект существует только в студии и концертов не даёт. Второй альбом Hatebeak записали с дэтграйнд-коллективом Caninus, в котором солировали два питбультерьера.»
 
Опции темы

  #1
Старый 18.11.2017, 08:06
sergych
Координатор
Досье
 
Аватар для sergych
Релиз Candy Dulfer - Big Girl


1995 - Candy Dulfer - Big Girl




Исполнитель/Artist: Candy Dulfer
Альбом/Album: Big Girl
Год/Year: 1995
Жанр/Genre: Smooth jazz, funk, nu jazz
Страна/Country: Германия
Рекорд-лейбл/Record label: BMG
Номер в каталоге/Catalogue #: 74321 315132
Формат/Format: Free Lossless Audio Codec (*.flac)
Качество/Quality: Lossless
Тип рипа/RIP Type: image+.cue
Продолжительность/Length: 01:08:49
Источник/Source: Собственный рип
Размер/Size: 512.3 MB

Сканы в комплекте

Треклист

01. Wake Me When It's Over (Featuring David Sanborn) [0:04:14.62]
02. I. L. U. [0:04:40.50]
03. Tommy Gun [0:03:17.33]
04. Jazz It's Me [0:04:38.67]
05. 2 Miles [0:06:18.63]
06. Funkyness [0:05:13.50]
07. Capone [0:04:46.40]
08. Get Funky [0:04:48.62]
09. Chains [0:05:05.18]
10. September [0:05:59.62]
11. Up Stairs [0:05:10.23]
12. I'll Still Be Looking Up To You [0:04:48.05]
13. Big Girl [0:04:05.65]
14. Wake Me When it's Over (Don Cher Processor Mix Featuring David Sanborn) [0:05:39.55]
[свернуть]

youtube.com

[свернуть]

EAC лог

Exact Audio Copy V1.3 from 2. September 2016

EAC extraction logfile from 14. November 2017, 20:01

Candy Dulfer / Big Girl

Used drive : ATAPI iHAS124 D Adapter: 0 ID: 2

Read mode : Secure
Utilize accurate stream : Yes
Defeat audio cache : Yes
Make use of C2 pointers : No

Read offset correction : 6
Overread into Lead-In and Lead-Out : No
Fill up missing offset samples with silence : Yes
Delete leading and trailing silent blocks : No
Null samples used in CRC calculations : Yes
Used interface : Installed external ASPI interface

Used output format : User Defined Encoder
Selected bitrate : 1024 kBit/s
Quality : High
Add ID3 tag : No
Command line compressor : C:\Program Files (x86)\Exact Audio Copy\Flac\flac.exe
Additional command line options : -6 -V -T "ARTIST=%artist%" -T "TITLE=%title%" -T "ALBUM=%albumtitle%" -T "DATE=%year%" -T "TRACKNUMBER=%tracknr%" -T "GENRE=%genre%" -T "COMMENT=%comment%" -T "BAND=%albuminterpret%" -T "ALBUMARTIST=%albuminterpret%" -T "COMPOSER=%composer%" %haslyrics%--tag-from-file=LYRICS="%lyricsfile%"%haslyrics% -T "DISCNUMBER=%cdnumber%" -T "TOTALDISCS=%totalcds%" -T "TOTALTRACKS=%numtracks%" %hascover%--picture="%coverfile%"%hascover% %source% -o %dest%


TOC of the extracted CD

Track | Start | Length | Start sector | End sector
---------------------------------------------------------
1 | 0:00.00 | 4:14.62 | 0 | 19111
2 | 4:14.62 | 4:40.50 | 19112 | 40161
3 | 8:55.37 | 3:17.33 | 40162 | 54969
4 | 12:12.70 | 4:38.67 | 54970 | 75886
5 | 16:51.62 | 6:18.63 | 75887 | 104299
6 | 23:10.50 | 5:13.50 | 104300 | 127824
7 | 28:24.25 | 4:46.40 | 127825 | 149314
8 | 33:10.65 | 4:48.62 | 149315 | 170976
9 | 37:59.52 | 5:05.18 | 170977 | 193869
10 | 43:04.70 | 5:59.62 | 193870 | 220856
11 | 49:04.57 | 5:10.23 | 220857 | 244129
12 | 54:15.05 | 4:48.05 | 244130 | 265734
13 | 59:03.10 | 4:05.65 | 265735 | 284174
14 | 63:09.00 | 5:39.55 | 284175 | 309654


Range status and errors

Selected range

Filename C:\mm\Candy Dulfer\1995 - Big Girl [74321 315132]\Candy Dulfer - Big Girl.wav

Peak level 100.0 %
Extraction speed 9.8 X
Range quality 99.9 %
Test CRC 73749466
Copy CRC 73749466
Copy OK

No errors occurred


AccurateRip summary

Track 1 accurately ripped (confidence 84) [0CD4B532] (AR v2)
Track 2 accurately ripped (confidence 85) [A4496593] (AR v2)
Track 3 accurately ripped (confidence 84) [175D0C34] (AR v2)
Track 4 accurately ripped (confidence 85) [0E22B072] (AR v2)
Track 5 accurately ripped (confidence 85) [06EA3144] (AR v2)
Track 6 accurately ripped (confidence 84) [4EE17078] (AR v2)
Track 7 accurately ripped (confidence 85) [980A13D3] (AR v2)
Track 8 accurately ripped (confidence 85) [C22A73C3] (AR v2)
Track 9 accurately ripped (confidence 84) [3F23F2C9] (AR v2)
Track 10 accurately ripped (confidence 83) [132CF258] (AR v2)
Track 11 accurately ripped (confidence 84) [F18A0036] (AR v2)
Track 12 accurately ripped (confidence 85) [9FD2CD8C] (AR v2)
Track 13 accurately ripped (confidence 86) [1EA88502] (AR v2)
Track 14 accurately ripped (confidence 84) [5BAE6D34] (AR v2)

All tracks accurately ripped

End of status report

---- CUETools DB Plugin V2.1.6

[CTDB TOCID: sR1pBHGZ3vcoPleXmvM8ZXJhREc-] found
Submit result: sR1pBHGZ3vcoPleXmvM8ZXJhREc- has been confirmed
Track | CTDB Status
1 | (174/174) Accurately ripped
2 | (174/174) Accurately ripped
3 | (173/174) Accurately ripped
4 | (171/174) Accurately ripped
5 | (172/174) Accurately ripped
6 | (172/174) Accurately ripped
7 | (171/174) Accurately ripped
8 | (173/174) Accurately ripped
9 | (170/174) Accurately ripped
10 | (172/174) Accurately ripped
11 | (170/174) Accurately ripped
12 | (170/174) Accurately ripped
13 | (172/174) Accurately ripped
14 | (170/174) Accurately ripped
[свернуть]

Файл CUE

REM GENRE "Contemporary Jazz"
REM DATE 1995
REM DISCID D010200E
REM COMMENT "ExactAudioCopy v1.3"
PERFORMER "Candy Dulfer"
TITLE "Big Girl"
REM COMPOSER ""
FILE "Candy Dulfer - Big Girl.flac" WAVE
TRACK 01 AUDIO
TITLE "Wake Me When It's Over (Featuring David Sanborn)"
PERFORMER "Candy Dulfer"
REM COMPOSER ""
INDEX 01 00:00:00
TRACK 02 AUDIO
TITLE "I. L. U."
PERFORMER "Candy Dulfer"
REM COMPOSER ""
INDEX 01 04:14:62
TRACK 03 AUDIO
TITLE "Tommy Gun"
PERFORMER "Candy Dulfer"
REM COMPOSER ""
INDEX 00 08:54:07
INDEX 01 08:55:37
TRACK 04 AUDIO
TITLE "Jazz It's Me"
PERFORMER "Candy Dulfer"
REM COMPOSER ""
INDEX 00 12:11:42
INDEX 01 12:12:70
TRACK 05 AUDIO
TITLE "2 Miles"
PERFORMER "Candy Dulfer"
REM COMPOSER ""
INDEX 01 16:51:62
TRACK 06 AUDIO
TITLE "Funkyness"
PERFORMER "Candy Dulfer"
REM COMPOSER ""
INDEX 00 23:08:12
INDEX 01 23:10:50
TRACK 07 AUDIO
TITLE "Capone"
PERFORMER "Candy Dulfer"
REM COMPOSER ""
INDEX 01 28:24:25
TRACK 08 AUDIO
TITLE "Get Funky"
PERFORMER "Candy Dulfer"
REM COMPOSER ""
INDEX 01 33:10:65
TRACK 09 AUDIO
TITLE "Chains"
PERFORMER "Candy Dulfer"
REM COMPOSER ""
INDEX 00 37:57:40
INDEX 01 37:59:52
TRACK 10 AUDIO
TITLE "September"
PERFORMER "Candy Dulfer"
REM COMPOSER ""
INDEX 01 43:04:70
TRACK 11 AUDIO
TITLE "Up Stairs"
PERFORMER "Candy Dulfer"
REM COMPOSER ""
INDEX 01 49:04:57
TRACK 12 AUDIO
TITLE "I'll Still Be Looking Up To You"
PERFORMER "Candy Dulfer"
REM COMPOSER ""
INDEX 00 54:13:32
INDEX 01 54:15:05
TRACK 13 AUDIO
TITLE "Big Girl"
PERFORMER "Candy Dulfer"
REM COMPOSER ""
INDEX 00 59:02:07
INDEX 01 59:03:10
TRACK 14 AUDIO
TITLE "Wake Me When it's Over (Don Cher Processor Mix Featuring David Sanborn)"
PERFORMER "Candy Dulfer"
REM COMPOSER ""
INDEX 00 63:07:10
INDEX 01 63:09:00
[свернуть]

Лог проверки качества

AUDIOCHECKER v2.0 beta (build 457) - by Dester -
~~~~~~~~~~~~~~~~~~~~~~~~~~~~~~~~~~
-=== НЕ РЕДАКТИРУЙТЕ ЭТОТ ФАЙЛ! ===-

Путь: ...\1995 - Big Girl [74321 315132]

1 -=- Candy Dulfer - Big Girl.flac -=- CDDA (100%)

165870452
[свернуть]

Спектр частот

[свернуть]

Скачать Candy Dulfer - Big Girl



password: sergych
[свернуть]

Контрольная сумма (хеш-сумма) архива

MD5: 3c55bf15b5482918d6d7f81a2fa8d5d0
[свернуть]
My opinion of release: 10/10
__________________
TAIFUN.Wings of Soul

Вверх
4 пользователя(ей) сказали cпасибо:
Показать список поблагодаривших
Похожие темы
Тема Автор Раздел Ответов Последнее сообщение
Альбом Candy Dulfer - Sax-A-Go-Go sergych Jazz и Blues 0 17.11.2017 07:15
Альбом Candy Dulfer - Girl Night Out sergych Jazz и Blues 0 17.08.2017 23:50
Сборник Candy Dulfer - Funked Up & Chilled Out [2CD] aheron Jazz и Blues 0 12.08.2014 16:19
Альбом Candy Dulfer - SAXuality sergych Jazz и Blues 0 26.04.2014 13:25
Релиз Candy Dulfer - Crazy PUPOKIN Jazz и Blues 0 10.10.2011 10:58


Метки
1995 , big girl , candy dulfer , funk , nu jazz , smooth jazz

Опции темы

Ваши права в разделе
Вы не можете создавать новые темы
Вы не можете отвечать в темах
Вы не можете прикреплять вложения
Вы не можете редактировать свои сообщения

Быстрый переход



Текущее время: 15:42. Часовой пояс GMT +3.
Powered by vBulletin® Version 3.8.10
Copyright ©2000 - 2017, vBulletin Solutions, Inc. Перевод: zCarot
© 2008 - 2017 Taifun With Song
Яндекс.Метрика