TAIFUN With Song
Навигация
R&B Ссылки на музыку в этом стиле

А знаете ли Вы, что...
Почему песня «Nothing Else Matters» начинается перебором на открытых струнах?
«В начале песни «Nothing Else Matters» группы Metallica слышен перебор на открытых первой, второй, третьей и шестой струнах. Такое композиционное решение появилось благодаря тому, что её автор Джеймс Хэтфилд, когда начинал сочинять песню, одной рукой держал телефонную трубку и разговаривал со своей девушкой.»
 
Опции темы

  #1
Старый 25.10.2017, 21:47
sergych
Координатор
Досье
 
Аватар для sergych
Релиз Craig David - Greatest Hits


2008 - Craig David - Greatest Hits




Исполнитель/Artist: Craig David
Альбом/Album: Greatest Hits
Год/Year: 2008
Жанр/Genre: R&B, soul, hip hop, pop
Страна/Country: Япония
Рекорд-лейбл/Record label: Warner Music / Teacup
Номер в каталоге/Catalogue #: WPCR-13204
Формат/Format: Free Lossless Audio Codec (*.flac)
Качество/Quality: Lossless
Тип рипа/RIP Type: image+.cue
Продолжительность/Length: 01:10:15
Источник/Source: Собственный рип
Размер/Size: 650.6 MB

Сканы в комплекте

Треклист

01. Fill Me In [0:04:16.56]
02. 7 Days [0:03:57.28]
03. Rise & Fall (Featuring Sting) [0:04:47.44]
04. Insomnia [0:03:27.23]
05. What's Your Flava? [0:03:38.31]
06. Walking Away [0:03:26.60]
07. Craig David feat Tinchy Stryder / Where's Your Love [0:03:35.08]
08. You Don't Miss Your Water ('Til The Well Runs Dry) [0:05:20.55]
09. All The Way [0:03:57.26]
10. Just My Imagination [0:03:35.68]
11. Don't Love You No More (I'm Sorry) [0:04:03.59]
12. 6 Of 1 Thing [0:03:48.12]
13. Hidden Agenda [0:04:12.45]
14. Hot Stuff (Let's Dance) [0:05:33.22]
15. Rewind [0:03:39.52]

Bonus tracks:
16. Craig David feat. Bonnie Pink / All The Way [0:03:46.74]
17. Are You Up For This? (Witty Boy REMIX) [0:05:06.68]
[свернуть]

youtube.com

[свернуть]

EAC лог

Exact Audio Copy V1.3 from 2. September 2016

EAC extraction logfile from 23. October 2017, 20:19

Craig David / Greatest Hits

Used drive : ATAPI iHAS124 D Adapter: 0 ID: 2

Read mode : Secure
Utilize accurate stream : Yes
Defeat audio cache : Yes
Make use of C2 pointers : No

Read offset correction : 6
Overread into Lead-In and Lead-Out : No
Fill up missing offset samples with silence : Yes
Delete leading and trailing silent blocks : No
Null samples used in CRC calculations : Yes
Used interface : Installed external ASPI interface

Used output format : User Defined Encoder
Selected bitrate : 1024 kBit/s
Quality : High
Add ID3 tag : No
Command line compressor : C:\Program Files (x86)\Exact Audio Copy\Flac\flac.exe
Additional command line options : -6 -V -T "ARTIST=%artist%" -T "TITLE=%title%" -T "ALBUM=%albumtitle%" -T "DATE=%year%" -T "TRACKNUMBER=%tracknr%" -T "GENRE=%genre%" -T "COMMENT=%comment%" -T "BAND=%albuminterpret%" -T "ALBUMARTIST=%albuminterpret%" -T "COMPOSER=%composer%" %haslyrics%--tag-from-file=LYRICS="%lyricsfile%"%haslyrics% -T "DISCNUMBER=%cdnumber%" -T "TOTALDISCS=%totalcds%" -T "TOTALTRACKS=%numtracks%" %hascover%--picture="%coverfile%"%hascover% %source% -o %dest%


TOC of the extracted CD

Track | Start | Length | Start sector | End sector
---------------------------------------------------------
1 | 0:00.00 | 4:16.56 | 0 | 19255
2 | 4:16.56 | 3:57.28 | 19256 | 37058
3 | 8:14.09 | 4:47.44 | 37059 | 58627
4 | 13:01.53 | 3:27.23 | 58628 | 74175
5 | 16:29.01 | 3:38.31 | 74176 | 90556
6 | 20:07.32 | 3:26.60 | 90557 | 106066
7 | 23:34.17 | 3:35.08 | 106067 | 122199
8 | 27:09.25 | 5:20.55 | 122200 | 146254
9 | 32:30.05 | 3:57.26 | 146255 | 164055
10 | 36:27.31 | 3:35.68 | 164056 | 180248
11 | 40:03.24 | 4:03.59 | 180249 | 198532
12 | 44:07.08 | 3:48.12 | 198533 | 215644
13 | 47:55.20 | 4:12.45 | 215645 | 234589
14 | 52:07.65 | 5:33.22 | 234590 | 259586
15 | 57:41.12 | 3:39.52 | 259587 | 276063
16 | 61:20.64 | 3:46.74 | 276064 | 293087
17 | 65:07.63 | 5:06.68 | 293088 | 316105


Range status and errors

Selected range

Filename C:\mm\Craig David\2008 - Greatest Hits [WPCR-13204]\Craig David - Greatest Hits.wav

Peak level 100.0 %
Extraction speed 9.6 X
Range quality 99.9 %
Test CRC 2E838599
Copy CRC 2E838599
Copy OK

No errors occurred


AccurateRip summary

Track 1 accurately ripped (confidence 3) [305737C8] (AR v2)
Track 2 accurately ripped (confidence 4) [306A232A] (AR v2)
Track 3 accurately ripped (confidence 4) [53D12000] (AR v2)
Track 4 accurately ripped (confidence 4) [330EA683] (AR v2)
Track 5 accurately ripped (confidence 4) [4993D3C3] (AR v2)
Track 6 accurately ripped (confidence 4) [C07FC1B8] (AR v2)
Track 7 accurately ripped (confidence 3) [3D1014B5] (AR v2)
Track 8 accurately ripped (confidence 4) [8075473B] (AR v2)
Track 9 accurately ripped (confidence 3) [BDE08F2E] (AR v2)
Track 10 accurately ripped (confidence 4) [37F9B064] (AR v2)
Track 11 accurately ripped (confidence 3) [D6CD4855] (AR v2)
Track 12 accurately ripped (confidence 3) [74711195] (AR v2)
Track 13 accurately ripped (confidence 4) [C4B6D20D] (AR v2)
Track 14 accurately ripped (confidence 3) [3AE22D8A] (AR v2)
Track 15 accurately ripped (confidence 3) [04796354] (AR v2)
Track 16 accurately ripped (confidence 4) [64CFA932] (AR v2)
Track 17 accurately ripped (confidence 2) [FDECABF9] (AR v2)

All tracks accurately ripped

End of status report

---- CUETools DB Plugin V2.1.6

[CTDB TOCID: jkIV08O61DHzipvcx45nIh17_aM-] found
Submit result: jkIV08O61DHzipvcx45nIh17_aM- has been confirmed
Track | CTDB Status
1 | (16/16) Accurately ripped
2 | (16/16) Accurately ripped
3 | (16/16) Accurately ripped
4 | (16/16) Accurately ripped
5 | (16/16) Accurately ripped
6 | (16/16) Accurately ripped
7 | (16/16) Accurately ripped
8 | (15/16) Accurately ripped
9 | (16/16) Accurately ripped
10 | (15/16) Accurately ripped, or (1/16) differs in 362 samples @00:28:16,00:29:07,00:29:40-00:29:41,00:29:57-00:29:58,00:29:74,00:30:32-00:30:33,00:30:49-00:30:50,00:30:66,00:31:24-00:31:25,00:31:41,00:31:58,00:31:74-00:32:00,00:32:33,00:35:60,00:36:01,00:36:51-00:36:52,00:36:68,00:38:69,00:39:44,00:41:45,00:43:12,00:46:39,00:46:56,00:47:65,00:48:23,00:48:57,00:49:66,00:50:07-00:50:08,00:50:41,00:50:58,00:51:00,00:51:16,00:51:33,00:51:67,00:52:08-00:52:09,00:52:25,00:52:41,00:53:01,00:53:34,00:54:60,00:55:36,00:55:52,01:05:58
11 | (16/16) Accurately ripped
12 | (16/16) Accurately ripped
13 | (16/16) Accurately ripped
14 | (16/16) Accurately ripped
15 | (16/16) Accurately ripped
16 | (15/16) Accurately ripped
17 | (16/16) Accurately ripped
[свернуть]

Файл CUE

REM GENRE R&B
REM DATE 2008
REM DISCID 11107611
REM COMMENT "ExactAudioCopy v1.3"
PERFORMER "Craig David"
TITLE "Greatest Hits"
REM COMPOSER ""
FILE "Craig David - Greatest Hits.flac" WAVE
TRACK 01 AUDIO
TITLE "Fill Me In"
PERFORMER "Craig David"
REM COMPOSER ""
INDEX 01 00:00:00
TRACK 02 AUDIO
TITLE "7 Days"
PERFORMER "Craig David"
REM COMPOSER ""
INDEX 01 04:16:56
TRACK 03 AUDIO
TITLE "Rise & Fall (Featuring Sting)"
PERFORMER "Craig David"
REM COMPOSER ""
INDEX 00 08:12:44
INDEX 01 08:14:09
TRACK 04 AUDIO
TITLE "Insomnia"
PERFORMER "Craig David"
REM COMPOSER ""
INDEX 00 13:00:37
INDEX 01 13:01:53
TRACK 05 AUDIO
TITLE "What's Your Flava?"
PERFORMER "Craig David"
REM COMPOSER ""
INDEX 00 16:27:65
INDEX 01 16:29:01
TRACK 06 AUDIO
TITLE "Walking Away"
PERFORMER "Craig David"
REM COMPOSER ""
INDEX 00 20:05:06
INDEX 01 20:07:32
TRACK 07 AUDIO
TITLE "Where's Your Love"
PERFORMER "Craig David feat Tinchy Stryder"
REM COMPOSER ""
INDEX 00 23:32:16
INDEX 01 23:34:17
TRACK 08 AUDIO
TITLE "You Don't Miss Your Water ('Til The Well Runs Dry)"
PERFORMER "Craig David"
REM COMPOSER ""
INDEX 00 27:05:67
INDEX 01 27:09:25
TRACK 09 AUDIO
TITLE "All The Way"
PERFORMER "Craig David"
REM COMPOSER ""
INDEX 00 32:28:35
INDEX 01 32:30:05
TRACK 10 AUDIO
TITLE "Just My Imagination"
PERFORMER "Craig David"
REM COMPOSER ""
INDEX 00 36:25:26
INDEX 01 36:27:31
TRACK 11 AUDIO
TITLE "Don't Love You No More (I'm Sorry)"
PERFORMER "Craig David"
REM COMPOSER ""
INDEX 00 40:01:64
INDEX 01 40:03:24
TRACK 12 AUDIO
TITLE "6 Of 1 Thing"
PERFORMER "Craig David"
REM COMPOSER ""
INDEX 01 44:07:08
TRACK 13 AUDIO
TITLE "Hidden Agenda"
PERFORMER "Craig David"
REM COMPOSER ""
INDEX 00 47:53:11
INDEX 01 47:55:20
TRACK 14 AUDIO
TITLE "Hot Stuff (Let's Dance)"
PERFORMER "Craig David"
REM COMPOSER ""
INDEX 00 52:06:60
INDEX 01 52:07:65
TRACK 15 AUDIO
TITLE "Rewind"
PERFORMER "Craig David"
REM COMPOSER ""
INDEX 00 57:40:46
INDEX 01 57:41:12
TRACK 16 AUDIO
TITLE "All The Way"
PERFORMER "Craig David feat. Bonnie Pink"
REM COMPOSER ""
INDEX 00 61:18:64
INDEX 01 61:20:64
TRACK 17 AUDIO
TITLE "Are You Up For This? (Witty Boy REMIX)"
PERFORMER "Craig David"
REM COMPOSER ""
INDEX 00 65:06:50
INDEX 01 65:07:63
[свернуть]

Лог проверки качества

AUDIOCHECKER v2.0 beta (build 457) - by Dester -
~~~~~~~~~~~~~~~~~~~~~~~~~~~~~~~~~~
-=== НЕ РЕДАКТИРУЙТЕ ЭТОТ ФАЙЛ! ===-

Путь: ...\2008 - Greatest Hits [WPCR-13204]

1 -=- Craig David - Greatest Hits.flac -=- CDDA (100%)

63237732
[свернуть]

Спектр частот

[свернуть]

Скачать Craig David - Greatest Hits



password: sergych
[свернуть]

Контрольная сумма (хеш-сумма) архива

MD5: 0266023fa6595b2ea93c50c2010f76fd
[свернуть]
My opinion of release: 10/10
__________________
TAIFUN.Wings of Soul

Вверх
2 пользователя(ей) сказали cпасибо:
johnsilver (26.10.2017), swint68 (26.10.2017)
  #2
Старый 26.10.2017, 20:51
swint68
Меломан
Досье
 
Аватар для swint68
По умолчанию Re: Craig David - Greatest Hits

Очередное редкое издание!
Большое спасибо!!

Вверх
Пользователь сказал cпасибо:
sergych (27.10.2017)
Похожие темы
Тема Автор Раздел Ответов Последнее сообщение
Альбом Craig David - The Story Goes... sergych R&B 0 24.08.2017 23:51
Альбом Craig David - Trust Me Alex1990 R&B 1 16.06.2009 13:44
Альбом Craig David - Slicker Than Your Average Alex1990 R&B 0 15.05.2008 12:49


Метки
2008 , craig david , greatest hits , hip hop , pop , r&b , soul

Опции темы

Ваши права в разделе
Вы не можете создавать новые темы
Вы не можете отвечать в темах
Вы не можете прикреплять вложения
Вы не можете редактировать свои сообщения

Быстрый переход



Текущее время: 04:31. Часовой пояс GMT +3.
Powered by vBulletin® Version 3.8.10
Copyright ©2000 - 2017, vBulletin Solutions, Inc. Перевод: zCarot
© 2008 - 2017 Taifun With Song
Яндекс.Метрика