TAIFUN With Song
Навигация
R&B Ссылки на музыку в этом стиле

А знаете ли Вы, что...
Какое музыкальное произведение планируется закончить исполнять к 2640 году?
«Среди произведений Джона Кейджа есть пьеса «Organ²/ASLSP (As SLow aS Possible)». Её типичное исполнение на фортепиано занимает от 20 до 70 минут, однако пояснение в скобках даёт указание играть пьесу настолько медленно, насколько это возможно. В связи с этим в 2001 году в церкви немецкого города Хальберштадт началось уникальное исполнение этой пьесы на органе, которое планируется завершить в 2640 году (через 639 лет после начала), а смена аккорда проходит примерно раз в год.»
 
Опции темы

  #1
Старый 24.08.2017, 23:51
sergych
Координатор
Досье
 
Аватар для sergych
Релиз Craig David - The Story Goes...


2005 - Craig David - The Story Goes...




Исполнитель/Artist: Craig David
Альбом/Album: The Story Goes...
Год/Year: 2005
Жанр/Genre: R&B, soul, pop
Страна/Country: Германия
Рекорд-лейбл/Record label: Warner Music
Номер в каталоге/Catalogue #: 25646 2523 2
Формат/Format: Free Lossless Audio Codec (*.flac)
Качество/Quality: Lossless
Тип рипа/RIP Type: image+.cue
Продолжительность/Length: 00:53:05
Источник/Source: Собственный рип
Размер/Size: 479.3 MB

Сканы в комплекте

Треклист

01. All The Way [0:03:56.06]
02. Don't Love You No More (I'm Sorry) [0:04:03.72]
03. Hypnotic [0:04:19.51]
04. Separate Ways [0:04:01.18]
05. Johnny [0:04:20.54]
06. Do You Believe In Love [0:03:46.09]
07. One Last Dance [0:03:47.00]
08. Unbelievable [0:03:22.09]
09. Just Chillin' [0:04:41.27]
10. Thief In The Night [0:04:26.19]
11. Take 'Em Off [0:04:06.23]
12. My Love Don't Stop [0:04:12.22]
13. Let Her Go [0:04:02.06]
[свернуть]

youtube.com

[свернуть]

EAC лог

Exact Audio Copy V1.3 from 2. September 2016

EAC extraction logfile from 24. August 2017, 19:47

Craig David / The Story Goes...

Used drive : PLEXTOR DVDR PX-716A Adapter: 1 ID: 0

Read mode : Secure
Utilize accurate stream : Yes
Defeat audio cache : Yes
Make use of C2 pointers : No

Read offset correction : 30
Overread into Lead-In and Lead-Out : No
Fill up missing offset samples with silence : Yes
Delete leading and trailing silent blocks : No
Null samples used in CRC calculations : Yes
Used interface : Installed external ASPI interface

Used output format : User Defined Encoder
Selected bitrate : 1024 kBit/s
Quality : High
Add ID3 tag : No
Command line compressor : C:\Program Files (x86)\Exact Audio Copy\Flac\flac.exe
Additional command line options : -6 -V -T "ARTIST=%artist%" -T "TITLE=%title%" -T "ALBUM=%albumtitle%" -T "DATE=%year%" -T "TRACKNUMBER=%tracknr%" -T "GENRE=%genre%" -T "COMMENT=%comment%" -T "BAND=%albuminterpret%" -T "ALBUMARTIST=%albuminterpret%" -T "COMPOSER=%composer%" %haslyrics%--tag-from-file=LYRICS="%lyricsfile%"%haslyrics% -T "DISCNUMBER=%cdnumber%" -T "TOTALDISCS=%totalcds%" -T "TOTALTRACKS=%numtracks%" %hascover%--picture="%coverfile%"%hascover% %source% -o %dest%


TOC of the extracted CD

Track | Start | Length | Start sector | End sector
---------------------------------------------------------
1 | 0:00.00 | 3:56.06 | 0 | 17705
2 | 3:56.06 | 4:03.72 | 17706 | 36002
3 | 8:00.03 | 4:19.51 | 36003 | 55478
4 | 12:19.54 | 4:01.18 | 55479 | 73571
5 | 16:20.72 | 4:20.54 | 73572 | 93125
6 | 20:41.51 | 3:46.09 | 93126 | 110084
7 | 24:27.60 | 3:47.00 | 110085 | 127109
8 | 28:14.60 | 3:22.09 | 127110 | 142268
9 | 31:36.69 | 4:41.27 | 142269 | 163370
10 | 36:18.21 | 4:26.19 | 163371 | 183339
11 | 40:44.40 | 4:06.23 | 183340 | 201812
12 | 44:50.63 | 4:12.22 | 201813 | 220734
13 | 49:03.10 | 4:02.06 | 220735 | 238890


Range status and errors

Selected range

Filename C:\mm\Craig David\2005 - The Story Goes... [2546 2523 2]\Craig David - The Story Goes....wav

Peak level 100.0 %
Extraction speed 12.4 X
Range quality 99.9 %
Test CRC 20BCD585
Copy CRC 20BCD585
Copy OK

No errors occurred

End of status report

---- CUETools DB Plugin V2.1.6

[CTDB TOCID: BLHVhcm3MhniHn1mADWo7u8HxjI-] found
Submit result: BLHVhcm3MhniHn1mADWo7u8HxjI- has been confirmed
Track | CTDB Status
1 | (88/91) Accurately ripped
2 | (89/91) Accurately ripped
3 | (89/91) Accurately ripped
4 | (90/91) Accurately ripped
5 | (89/91) Accurately ripped
6 | (87/91) Accurately ripped
7 | (89/91) Accurately ripped
8 | (89/91) Accurately ripped
9 | (87/91) Accurately ripped
10 | (89/91) Accurately ripped
11 | (88/91) Accurately ripped
12 | (88/91) Accurately ripped
13 | (87/91) Accurately ripped, or (2/91) differs in 219 samples @03:27:53,03:31:43,03:46:20-03:46:21,03:48:64,03:49:08,03:52:16,03:52:54-03:52:55,03:58:49,03:59:52-03:59:53
[свернуть]

Файл CUE

REM GENRE Soul
REM DATE 2005
REM DISCID CC0C710D
REM COMMENT "ExactAudioCopy v1.3"
PERFORMER "Craig David"
TITLE "The Story Goes..."
REM COMPOSER ""
FILE "Craig David - The Story Goes....flac" WAVE
TRACK 01 AUDIO
TITLE "All The Way"
PERFORMER "Craig David"
REM COMPOSER ""
INDEX 01 00:00:00
TRACK 02 AUDIO
TITLE "Don't Love You No More (I'm Sorry)"
PERFORMER "Craig David"
REM COMPOSER ""
INDEX 01 03:56:06
TRACK 03 AUDIO
TITLE "Hypnotic"
PERFORMER "Craig David"
REM COMPOSER ""
INDEX 01 08:00:03
TRACK 04 AUDIO
TITLE "Separate Ways"
PERFORMER "Craig David"
REM COMPOSER ""
INDEX 01 12:19:54
TRACK 05 AUDIO
TITLE "Johnny"
PERFORMER "Craig David"
REM COMPOSER ""
INDEX 01 16:20:72
TRACK 06 AUDIO
TITLE "Do You Believe In Love"
PERFORMER "Craig David"
REM COMPOSER ""
INDEX 01 20:41:51
TRACK 07 AUDIO
TITLE "One Last Dance"
PERFORMER "Craig David"
REM COMPOSER ""
INDEX 01 24:27:60
TRACK 08 AUDIO
TITLE "Unbelievable"
PERFORMER "Craig David"
REM COMPOSER ""
INDEX 01 28:14:60
TRACK 09 AUDIO
TITLE "Just Chillin'"
PERFORMER "Craig David"
REM COMPOSER ""
INDEX 01 31:36:69
TRACK 10 AUDIO
TITLE "Thief In The Night"
PERFORMER "Craig David"
REM COMPOSER ""
INDEX 01 36:18:21
TRACK 11 AUDIO
TITLE "Take 'Em Off"
PERFORMER "Craig David"
REM COMPOSER ""
INDEX 01 40:44:40
TRACK 12 AUDIO
TITLE "My Love Don't Stop"
PERFORMER "Craig David"
REM COMPOSER ""
INDEX 01 44:50:63
TRACK 13 AUDIO
TITLE "Let Her Go"
PERFORMER "Craig David"
REM COMPOSER ""
INDEX 01 49:03:10
[свернуть]

Лог проверки качества

AUDIOCHECKER v2.0 beta (build 457) - by Dester -
~~~~~~~~~~~~~~~~~~~~~~~~~~~~~~~~~~
-=== НЕ РЕДАКТИРУЙТЕ ЭТОТ ФАЙЛ! ===-

Путь: ...\2005 - The Story Goes... [2546 2523 2]

1 -=- Craig David - The Story Goes....flac -=- CDDA (100%)

127703684
[свернуть]

Спектр частот

[свернуть]

Скачать Craig David - The Story Goes...



password: sergych
[свернуть]

Контрольная сумма (хеш-сумма) архива

MD5: 5ed5361ad3573d3eda6cf5f5510b2de4
[свернуть]
My opinion of release: 10/10
__________________
TAIFUN.Wings of Soul

Вверх
2 пользователя(ей) сказали cпасибо:
johnsilver (25.08.2017), swint68 (26.08.2017)
Похожие темы
Тема Автор Раздел Ответов Последнее сообщение
Альбом Craig David - Signed Sealed Delivered PUPOKIN R&B 0 26.03.2010 09:37
Альбом Craig David - Trust Me Alex1990 R&B 1 16.06.2009 13:44
Альбом Craig David - Slicker Than Your Average Alex1990 R&B 0 15.05.2008 12:49


Метки
2005 , craig david , pop , r&b , soul , the story goes...

Опции темы

Ваши права в разделе
Вы не можете создавать новые темы
Вы не можете отвечать в темах
Вы не можете прикреплять вложения
Вы не можете редактировать свои сообщения

Быстрый переход



Текущее время: 04:28. Часовой пояс GMT +3.
Powered by vBulletin® Version 3.8.10
Copyright ©2000 - 2017, vBulletin Solutions, Inc. Перевод: zCarot
© 2008 - 2017 Taifun With Song
Яндекс.Метрика