TAIFUN With Song
Навигация
Вернуться   TAIFUN With Song > Music (обменник) > Rock > Art Rock
Расширенный поиск
Art Rock ART ROCK - под этим термином подразумевается такая форма рока, в которой совмещаются электронное звучание, ритм-энд-блюз, восточный и средневековый европейский фольклор, классика и джаз

А знаете ли Вы, что...
Какова самая низкая нота, которую может взять человек?
«Американский певец Тим Стормс обладает самым широким в мире вокальным диапазоном. Ещё один зафиксированный рекорд, принадлежащий Стормсу — самая низкая нота, взятая человеком. Эта нота частотой 0,189 Гц — соль на восемь октав ниже, чем самая низкая соль на фортепиано. Данный звук очень далеко отстоит от порога человеческого восприятия (для обычного человека — 16 Гц), а рекорд фиксировался специальными акустическими приборами.»
 
Опции темы

  #1
Старый 18.04.2017, 20:05
sergych
Координатор
Досье
 
Аватар для sergych
Релиз Kate Bush - Hounds Of Love


1985 - Kate Bush - Hounds Of Love




Исполнитель/Artist: Kate Bush
Альбом/Album: Hounds Of Love
Год/Year: 1985
Жанр/Genre: Art pop, Progressive pop
Страна/Country: Европа
Рекорд-лейбл/Record label: Fish People
Номер в каталоге/Catalogue #: 5099902930220
Формат/Format: Free Lossless Audio Codec (*.flac)
Качество/Quality: Lossless
Тип рипа/RIP Type: image+.cue
Продолжительность/Length: 00:47:31
Источник/Source: Собственный рип
Размер/Size: 296.4 MB

Сканы в комплекте

Треклист

01. Running Up That Hill (A Deal With God) [0:05:02.37]
02. Hounds Of Love [0:03:03.10]
03. The Big Sky [0:04:38.12]
04. Mother Stands For Comfort [0:03:08.30]
05. Cloudbusting [0:05:10.27]
06. And Dream Of Sheep [0:02:45.58]
07. Under Ice [0:02:21.60]
08. Waking The Witch [0:04:18.55]
09. Watching You Without Me [0:04:07.22]
10. Jig Of Life [0:04:04.23]
11. Hello Earth [0:06:13.07]
12. The Morning Fog [0:02:37.02]
[свернуть]

youtube.com

[свернуть]

Исполнители/Performers

Kate Bush – vocals, Fairlight CMI, piano
Stuart Elliott – drums on tracks 1, 2, 4, 5, 9, 10, 11
Del Palmer – bass on 1, 10, handclapping on 3, backing vocals on 5, Fairlight bass on 8, Linn programming
Alan Murphy – guitar on 1, 3, 8
Paddy Bush – violins on 10, balalaika on 1, backing vocals on 5, didjeridu on 3, harmonic vocals on 7, fujara on 12
Charlie Morgan – drums on 2, 3, 5, 8, 10, handclapping on 3

Additional musicians
Jonathan Williams – cello on 2
Youth – bass on 3
Morris Pert – percussion on 3
Eberhard Weber – bass on 4, 11, 12
The Medici Sextet – strings on 5
Dave Lawson – string arrangements on 5
Brian Bath – backing vocals on 5, guitar on 11
John Carder Bush – backing vocals on 5, narration on 10
Dónal Lunny – bouzouki on 6, 11, Irish bouzouki on 10
John Sheahan – whistles on 6
Kevin McAlea – synthesiser sequences on 8, synthesiser on 12
Danny Thompson – double bass on 9
Liam O'Flynn – uilleann pipes on 10, 11
The Richard Hickox Singers – choir on 11
Richard Hickox – vocals, choir master on 11
Michael Berkeley – vocal arrangements on 11
John Williams – guitar on 12
[свернуть]

EAC лог

Exact Audio Copy V1.3 from 2. September 2016

EAC extraction logfile from 17. April 2017, 0:14

Kate Bush / Hounds Of Love

Used drive : PLEXTOR DVDR PX-716A Adapter: 1 ID: 0

Read mode : Secure
Utilize accurate stream : Yes
Defeat audio cache : Yes
Make use of C2 pointers : No

Read offset correction : 30
Overread into Lead-In and Lead-Out : No
Fill up missing offset samples with silence : Yes
Delete leading and trailing silent blocks : No
Null samples used in CRC calculations : Yes
Used interface : Native Win32 interface for Win NT & 2000

Used output format : User Defined Encoder
Selected bitrate : 1024 kBit/s
Quality : High
Add ID3 tag : No
Command line compressor : C:\Program Files (x86)\Exact Audio Copy\FLAC\FLAC.EXE
Additional command line options : -6 -V -T "ARTIST=%artist%" -T "TITLE=%title%" -T "ALBUM=%albumtitle%" -T "DATE=%year%" -T "TRACKNUMBER=%tracknr%" -T "GENRE=%genre%" -T "COMMENT=%comment%" -T "BAND=%albuminterpret%" -T "ALBUMARTIST=%albuminterpret%" -T "COMPOSER=%composer%" %haslyrics%--tag-from-file=LYRICS="%lyricsfile%"%haslyrics% -T "DISCNUMBER=%cdnumber%" -T "TOTALDISCS=%totalcds%" -T "TOTALTRACKS=%numtracks%" %hascover%--picture="%coverfile%"%hascover% %source% -o %dest%


TOC of the extracted CD

Track | Start | Length | Start sector | End sector
---------------------------------------------------------
1 | 0:00.00 | 5:02.37 | 0 | 22686
2 | 5:02.37 | 3:03.10 | 22687 | 36421
3 | 8:05.47 | 4:38.12 | 36422 | 57283
4 | 12:43.59 | 3:08.30 | 57284 | 71413
5 | 15:52.14 | 5:10.27 | 71414 | 94690
6 | 21:02.41 | 2:45.58 | 94691 | 107123
7 | 23:48.24 | 2:21.60 | 107124 | 117758
8 | 26:10.09 | 4:18.55 | 117759 | 137163
9 | 30:28.64 | 4:07.22 | 137164 | 155710
10 | 34:36.11 | 4:04.23 | 155711 | 174033
11 | 38:40.34 | 6:13.07 | 174034 | 202015
12 | 44:53.41 | 2:37.02 | 202016 | 213792


Range status and errors

Selected range

Filename C:\mm\Kate Bush\1985 - Hounds Of Love [5099902930220]\Kate Bush - Hounds Of Love.wav

Peak level 100.0 %
Extraction speed 3.7 X
Range quality 99.9 %
Test CRC 07F98AEA
Copy CRC 07F98AEA
Copy OK

No errors occurred


AccurateRip summary

Track 1 accurately ripped (confidence 57) [2B0B44AD] (AR v2)
Track 2 accurately ripped (confidence 57) [EBECC101] (AR v2)
Track 3 accurately ripped (confidence 57) [734A0A82] (AR v2)
Track 4 accurately ripped (confidence 57) [0CBC117E] (AR v2)
Track 5 accurately ripped (confidence 57) [A132F5B2] (AR v2)
Track 6 accurately ripped (confidence 57) [8218DEE9] (AR v2)
Track 7 accurately ripped (confidence 57) [87F6DFB7] (AR v2)
Track 8 accurately ripped (confidence 57) [08D90A94] (AR v2)
Track 9 accurately ripped (confidence 57) [822D478D] (AR v2)
Track 10 accurately ripped (confidence 57) [655CBD0B] (AR v2)
Track 11 accurately ripped (confidence 57) [24F1C9F3] (AR v2)
Track 12 accurately ripped (confidence 57) [FE586037] (AR v2)

All tracks accurately ripped

End of status report

---- CUETools DB Plugin V2.1.6

[CTDB TOCID: SEAjFEQQgpRrNdMEVpVsZpnrlNk-] found
Submit result: SEAjFEQQgpRrNdMEVpVsZpnrlNk- has been confirmed
Track | CTDB Status
1 | (260/261) Accurately ripped
2 | (260/261) Accurately ripped
3 | (260/261) Accurately ripped
4 | (261/261) Accurately ripped
5 | (261/261) Accurately ripped
6 | (260/261) Accurately ripped
7 | (260/261) Accurately ripped
8 | (260/261) Accurately ripped
9 | (261/261) Accurately ripped
10 | (260/261) Accurately ripped
11 | (260/261) Accurately ripped
12 | (261/261) Accurately ripped
[свернуть]

Файл CUE

REM GENRE Alternative
REM DATE 1985
REM DISCID A00B220C
REM COMMENT "ExactAudioCopy v1.3"
PERFORMER "Kate Bush"
TITLE "Hounds Of Love "
REM COMPOSER ""
FILE "Kate Bush - Hounds Of Love.flac" WAVE
TRACK 01 AUDIO
TITLE "Running Up That Hill (A Deal With God)"
PERFORMER "Kate Bush"
REM COMPOSER ""
INDEX 01 00:00:00
TRACK 02 AUDIO
TITLE "Hounds Of Love"
PERFORMER "Kate Bush"
REM COMPOSER ""
INDEX 01 05:02:37
TRACK 03 AUDIO
TITLE "The Big Sky "
PERFORMER "Kate Bush"
REM COMPOSER ""
INDEX 01 08:05:47
TRACK 04 AUDIO
TITLE "Mother Stands For Comfort"
PERFORMER "Kate Bush"
REM COMPOSER ""
INDEX 01 12:43:59
TRACK 05 AUDIO
TITLE "Cloudbusting"
PERFORMER "Kate Bush"
REM COMPOSER ""
INDEX 01 15:52:14
TRACK 06 AUDIO
TITLE "And Dream Of Sheep"
PERFORMER "Kate Bush"
REM COMPOSER ""
INDEX 01 21:02:41
TRACK 07 AUDIO
TITLE "Under Ice"
PERFORMER "Kate Bush"
REM COMPOSER ""
INDEX 01 23:48:24
TRACK 08 AUDIO
TITLE "Waking The Witch"
PERFORMER "Kate Bush"
REM COMPOSER ""
INDEX 01 26:10:09
TRACK 09 AUDIO
TITLE "Watching You Without Me"
PERFORMER "Kate Bush"
REM COMPOSER ""
INDEX 01 30:28:64
TRACK 10 AUDIO
TITLE "Jig Of Life"
PERFORMER "Kate Bush"
REM COMPOSER ""
INDEX 01 34:36:11
TRACK 11 AUDIO
TITLE "Hello Earth"
PERFORMER "Kate Bush"
REM COMPOSER ""
INDEX 01 38:40:34
TRACK 12 AUDIO
TITLE "The Morning Fog"
PERFORMER "Kate Bush"
REM COMPOSER ""
INDEX 01 44:53:41
[свернуть]

Лог проверки качества

AUDIOCHECKER v2.0 beta (build 457) - by Dester -
~~~~~~~~~~~~~~~~~~~~~~~~~~~~~~~~~~
-=== НЕ РЕДАКТИРУЙТЕ ЭТОТ ФАЙЛ! ===-

Путь: ...\1985 - Hounds Of Love [5099902930220]

1 -=- Kate Bush - Hounds Of Love.flac -=- CDDA (100%)

243064932
[свернуть]

Спектр частот

[свернуть]

Скачать Kate Bush - Hounds Of Love



password: sergych
[свернуть]

Контрольная сумма (хеш-сумма) архива

MD5: 7ad4c7fecd86f565b1d2e79f81d421fe
[свернуть]
My opinion of release: 10/10
__________________
TAIFUN.Wings of Soul

Вверх
2 пользователя(ей) сказали cпасибо:
johnsilver (18.04.2017), swint68 (18.04.2017)
  #2
Старый 29.08.2017, 14:01
Павел1
Меломан
Досье
 
Аватар для Павел1
По умолчанию Re: Kate Bush - Hounds Of Love

Имею в своей коллекции данный альбом, дополненный несколькими бонус треками (переиздание), и несказАнно этому рад!

Вверх
Пользователь сказал cпасибо:
sergych (30.08.2017)
  #3
Старый 30.08.2017, 01:20
sergych
Координатор
Досье
 
Аватар для sergych
По умолчанию Re: Kate Bush - Hounds Of Love

Цитата: Сообщение от Павел1 Посмотреть сообщение
Имею в своей коллекции данный альбом, дополненный несколькими бонус треками

Так поделитесь, если к этому нет особенного неприятия
__________________
TAIFUN.Wings of Soul

Вверх
Похожие темы
Тема Автор Раздел Ответов Последнее сообщение
Сборник Kate Bush - Gold Ballads henrik Alternative Rock 3 05.06.2017 21:57
Сборник Kate Bush - The Whole Story sergych Art Rock 1 04.06.2017 13:14
Альбом Kate Bush - 50 Words For Snow sergych Art Rock 0 01.04.2017 21:36
Релиз Such Hounds – Strangers PUPOKIN Indie Rock 0 11.05.2016 16:57
Релиз The Bailey Hounds – Along The Gallows PUPOKIN Indie Rock 0 04.12.2011 10:36


Метки
1985 , art pop , hounds of love , kate bush , progressive pop

Опции темы

Ваши права в разделе
Вы не можете создавать новые темы
Вы не можете отвечать в темах
Вы не можете прикреплять вложения
Вы не можете редактировать свои сообщения

Быстрый переход



Текущее время: 04:29. Часовой пояс GMT +3.
Powered by vBulletin® Version 3.8.10
Copyright ©2000 - 2017, vBulletin Solutions, Inc. Перевод: zCarot
© 2008 - 2017 Taifun With Song
Яндекс.Метрика