TAIFUN With Song
Навигация
Вернуться   TAIFUN With Song > Music (обменник) > Rock > Art Rock
Расширенный поиск
Art Rock ART ROCK - под этим термином подразумевается такая форма рока, в которой совмещаются электронное звучание, ритм-энд-блюз, восточный и средневековый европейский фольклор, классика и джаз

А знаете ли Вы, что...
Какая песня, часто приписываемая Элвису Пресли, никогда им не записывалась?
«Песню «Only You» часто приписывают Элвису Пресли, хотя на самом деле наиболее известными её исполнителями является группа «The Platters». Элвис пел «Only You» на некоторых концертах, но не существует ни одной аудио- или видеозаписи этой композиции в его исполнении.»
 
Опции темы

  #1
Старый 30.03.2017, 19:59
sergych
Координатор
Досье
 
Аватар для sergych
Релиз Kate Bush - The Whole Story


1986 - Kate Bush - The Whole Story




Исполнитель/Artist: Kate Bush
Альбом/Album: The Whole Story
Год/Year: 1986
Жанр/Genre: art rock, soft rock
Страна/Country: Европа
Рекорд-лейбл/Record label: EMI Records
Номер в каталоге/Catalogue #: 7464142
Формат/Format: Free Lossless Audio Codec (*.flac)
Качество/Quality: Lossless
Тип рипа/RIP Type: image+.cue
Продолжительность/Length: 00:48:53
Источник/Source: Собственный рип
Размер/Size: 309.4 MB

Сканы в комплекте

Треклист

01. Wuthering Heights [0:04:58.35]
02. Cloudbusting [0:05:10.12]
03. The Man With The Child In His Eyes [0:02:40.50]
04. Breathing [0:05:28.73]
05. Wow [0:03:45.12]
06. Hounds Of Love [0:03:03.20]
07. Running Up That Hill [0:04:58.70]
08. Army Dreamers [0:03:14.05]
09. Sat In Your Lap [0:03:29.25]
10. Experiment IV [0:04:21.33]
11. The Dreaming [0:04:13.70]
12. Babooshka [0:03:28.45]
[свернуть]

youtube.com

[свернуть]

EAC лог

Exact Audio Copy V1.3 from 2. September 2016

EAC extraction logfile from 26. March 2017, 22:40

Kate Bush / The Whole Story

Used drive : PLEXTOR DVDR PX-716A Adapter: 1 ID: 0

Read mode : Secure
Utilize accurate stream : Yes
Defeat audio cache : Yes
Make use of C2 pointers : No

Read offset correction : 30
Overread into Lead-In and Lead-Out : No
Fill up missing offset samples with silence : Yes
Delete leading and trailing silent blocks : No
Null samples used in CRC calculations : Yes
Used interface : Native Win32 interface for Win NT & 2000

Used output format : User Defined Encoder
Selected bitrate : 1024 kBit/s
Quality : High
Add ID3 tag : No
Command line compressor : C:\Program Files (x86)\Exact Audio Copy\FLAC\FLAC.EXE
Additional command line options : -6 -V -T "ARTIST=%artist%" -T "TITLE=%title%" -T "ALBUM=%albumtitle%" -T "DATE=%year%" -T "TRACKNUMBER=%tracknr%" -T "GENRE=%genre%" -T "COMMENT=%comment%" -T "BAND=%albuminterpret%" -T "ALBUMARTIST=%albuminterpret%" -T "COMPOSER=%composer%" %haslyrics%--tag-from-file=LYRICS="%lyricsfile%"%haslyrics% -T "DISCNUMBER=%cdnumber%" -T "TOTALDISCS=%totalcds%" -T "TOTALTRACKS=%numtracks%" %hascover%--picture="%coverfile%"%hascover% %source% -o %dest%


TOC of the extracted CD

Track | Start | Length | Start sector | End sector
---------------------------------------------------------
1 | 0:00.33 | 4:58.35 | 33 | 22417
2 | 4:58.68 | 5:10.12 | 22418 | 45679
3 | 10:09.05 | 2:40.50 | 45680 | 57729
4 | 12:49.55 | 5:28.73 | 57730 | 82402
5 | 18:18.53 | 3:45.12 | 82403 | 99289
6 | 22:03.65 | 3:03.20 | 99290 | 113034
7 | 25:07.10 | 4:58.70 | 113035 | 135454
8 | 30:06.05 | 3:14.05 | 135455 | 150009
9 | 33:20.10 | 3:29.25 | 150010 | 165709
10 | 36:49.35 | 4:21.33 | 165710 | 185317
11 | 41:10.68 | 4:13.70 | 185318 | 204362
12 | 45:24.63 | 3:28.45 | 204363 | 220007


Range status and errors

Selected range

Filename C:\mm\Kate Bush\1986 - The Whole Story [7464142]\Kate Bush - The Whole Story.wav

Peak level 100.0 %
Extraction speed 12.2 X
Range quality 100.0 %
Test CRC 3876A197
Copy CRC 3876A197
Copy OK

No errors occurred


AccurateRip summary

Track 1 accurately ripped (confidence 51) [497C863B] (AR v2)
Track 2 accurately ripped (confidence 51) [8EAA0D3F] (AR v2)
Track 3 accurately ripped (confidence 50) [1ACF042B] (AR v2)
Track 4 accurately ripped (confidence 50) [6BA8CF29] (AR v2)
Track 5 accurately ripped (confidence 50) [F88CFDEF] (AR v2)
Track 6 accurately ripped (confidence 50) [2AF028E1] (AR v2)
Track 7 accurately ripped (confidence 51) [5111BB2F] (AR v2)
Track 8 accurately ripped (confidence 50) [2571B8B0] (AR v2)
Track 9 accurately ripped (confidence 49) [B0C271D5] (AR v2)
Track 10 accurately ripped (confidence 49) [E7D49301] (AR v2)
Track 11 accurately ripped (confidence 49) [09589A63] (AR v2)
Track 12 accurately ripped (confidence 51) [232E42A5] (AR v2)

All tracks accurately ripped

End of status report

---- CUETools DB Plugin V2.1.6

[CTDB TOCID: GrLG6aQC2YcYh7TfRvdrXsSCOFI-] found
Submit result: GrLG6aQC2YcYh7TfRvdrXsSCOFI- has been confirmed
Track | CTDB Status
1 | (1259/1298) Accurately ripped
2 | (1260/1298) Accurately ripped
3 | (1274/1298) Accurately ripped
4 | (1282/1298) Accurately ripped
5 | (1273/1298) Accurately ripped
6 | (1279/1298) Accurately ripped
7 | (1143/1298) Accurately ripped, or (2/1298) differs in 3 samples @02:08:60, or (113/1298) differs in 3 samples @02:08:60
8 | (1275/1298) Accurately ripped
9 | (1262/1298) Accurately ripped
10 | (1256/1298) Accurately ripped
11 | (1268/1298) Accurately ripped
12 | (1276/1298) Accurately ripped
[свернуть]

Файл CUE

REM GENRE Pop
REM DATE 1986
REM DISCID 730B750C
REM COMMENT "ExactAudioCopy v1.3"
PERFORMER "Kate Bush"
TITLE "The Whole Story"
REM COMPOSER ""
FILE "Kate Bush - The Whole Story.flac" WAVE
TRACK 01 AUDIO
TITLE "Wuthering Heights"
PERFORMER "Kate Bush"
REM COMPOSER ""
INDEX 00 00:00:00
INDEX 01 00:00:33
TRACK 02 AUDIO
TITLE "Cloudbusting"
PERFORMER "Kate Bush"
REM COMPOSER ""
INDEX 00 04:57:30
INDEX 01 04:58:68
TRACK 03 AUDIO
TITLE "The Man With The Child In His Eyes"
PERFORMER "Kate Bush"
REM COMPOSER ""
INDEX 00 10:08:05
INDEX 01 10:09:05
TRACK 04 AUDIO
TITLE "Breathing"
PERFORMER "Kate Bush"
REM COMPOSER ""
INDEX 00 12:48:25
INDEX 01 12:49:55
TRACK 05 AUDIO
TITLE "Wow"
PERFORMER "Kate Bush"
REM COMPOSER ""
INDEX 00 18:18:40
INDEX 01 18:18:53
TRACK 06 AUDIO
TITLE "Hounds Of Love"
PERFORMER "Kate Bush"
REM COMPOSER ""
INDEX 00 22:03:10
INDEX 01 22:03:65
TRACK 07 AUDIO
TITLE "Running Up That Hill"
PERFORMER "Kate Bush"
REM COMPOSER ""
INDEX 00 25:06:28
INDEX 01 25:07:10
TRACK 08 AUDIO
TITLE "Army Dreamers"
PERFORMER "Kate Bush"
REM COMPOSER ""
INDEX 00 30:06:03
INDEX 01 30:06:05
TRACK 09 AUDIO
TITLE "Sat In Your Lap"
PERFORMER "Kate Bush"
REM COMPOSER ""
INDEX 00 33:19:08
INDEX 01 33:20:10
TRACK 10 AUDIO
TITLE "Experiment IV"
PERFORMER "Kate Bush"
REM COMPOSER ""
INDEX 00 36:49:33
INDEX 01 36:49:35
TRACK 11 AUDIO
TITLE "The Dreaming"
PERFORMER "Kate Bush"
REM COMPOSER ""
INDEX 00 41:10:55
INDEX 01 41:10:68
TRACK 12 AUDIO
TITLE "Babooshka"
PERFORMER "Kate Bush"
REM COMPOSER ""
INDEX 00 45:23:43
INDEX 01 45:24:63
[свернуть]

Лог проверки качества

AUDIOCHECKER v2.0 beta (build 457) - by Dester -
~~~~~~~~~~~~~~~~~~~~~~~~~~~~~~~~~~
-=== НЕ РЕДАКТИРУЙТЕ ЭТОТ ФАЙЛ! ===-

Путь: ...\1986 - The Whole Story [7464142]

1 -=- Kate Bush - The Whole Story.flac -=- CDDA (94%)

62942996
[свернуть]

Спектр частот

[свернуть]

Скачать Kate Bush - The Whole Story



password: sergych
[свернуть]

Контрольная сумма (хеш-сумма) архива

MD5: b05e69a6984f0a8a8cfabf13d259d8b0
[свернуть]
My opinion of release: 10/10
__________________
TAIFUN.Wings of Soul

Вверх
2 пользователя(ей) сказали cпасибо:
johnsilver (05.06.2017), swint68 (30.03.2017)
  #2
Старый 04.06.2017, 13:14
Павел1
Меломан
Досье
 
Аватар для Павел1
По умолчанию Re: Kate Bush - The Whole Story

В моей коллекции есть этот альбом, изготовленный с упрощённым оформлением в другой стране.

Вверх
Пользователь сказал cпасибо:
sergych (05.06.2017)
Похожие темы
Тема Автор Раздел Ответов Последнее сообщение
Сборник Kate Bush - Gold Ballads henrik Alternative Rock 3 05.06.2017 21:57
Релиз Lil Kate - I Am Star For You PUPOKIN Русский, украинский 0 06.07.2012 10:20
Релиз Bush - The Sea of Memories PUPOKIN Alternative Rock 0 14.09.2011 10:52
Live Europe - Live at Shepherd's Bush PUPOKIN Heavy Metal 0 07.07.2011 09:41
Kate Ryan - Free SERAF Dance 0 01.07.2008 10:03


Метки
1986 , art rock , kate bush , soft rock , the whole story

Опции темы

Ваши права в разделе
Вы не можете создавать новые темы
Вы не можете отвечать в темах
Вы не можете прикреплять вложения
Вы не можете редактировать свои сообщения

Быстрый переход



Текущее время: 04:28. Часовой пояс GMT +3.
Powered by vBulletin® Version 3.8.10
Copyright ©2000 - 2017, vBulletin Solutions, Inc. Перевод: zCarot
© 2008 - 2017 Taifun With Song
Яндекс.Метрика