TAIFUN With Song
Навигация
Country Кантри объединяет две разновидности американского фольклора — это музыка белых поселенцев, обосновавшихся в Новом Свете в XVII—XVIII вв. и ковбойские баллады Дикого Запада. В этой музыке сильно наследие елизаветинских мадригалов, ирландской и шотландской народной музыки. Основные музыкальные инструменты этого стиля — гитара, банджо и скрипка.

А знаете ли Вы, что...
Кто написал сонату, в которой имитируется половой акт?
«Чешский авангардный композитор Эрвин Шульгоф в 1919 году написал Эротическую сонату, которая по сей день исполняется на музыкальных фестивалях. Фактически соната состоит из одной партии для женского голоса, имитирующего стоны и вздохи при половом акте.»
 
Опции темы

  #1
Старый 03.12.2016, 17:57
sergych
Координатор
Досье
 
Аватар для sergych
Релиз John Mayer - Born and Raised


2012 - John Mayer - Born and Raised




Исполнитель/Artist: John Mayer
Альбом/Album: Born and Raised
Год/Year: 2012
Жанр/Genre: Folk rock, Country rock, Southern rock
Страна/Country: Соединённые Штаты
Рекорд-лейбл/Record label: Columbia
Номер в каталоге/Catalogue #: 88691 97606 2
Формат/Format: Free Lossless Audio Codec (*.flac)
Качество/Quality: Lossless
Тип рипа/RIP Type: image+.cue
Продолжительность/Length: 00:46:43
Источник/Source: Собственный рип
Размер/Size: 387.9 MB

Сканы в комплекте

Треклист

01. Queen of California [0:04:10.10]
02. The Age of Worry [0:02:39.54]
03. Shadow Days [0:03:50.22]
04. Speak for Me [0:03:45.38]
05. Something Like Olivia [0:03:01.26]
06. Born and Raised [0:04:49.19]
07. If I Ever Get Around To Living [0:05:21.54]
08. Love Is a Verb [0:02:27.72]
09. Walt Grace's Submarine Test, January 1967 [0:05:10.18]
10. Whiskey, Whiskey, Whiskey [0:04:39.33]
11. A Face To Call Home [0:04:46.35]
12. Born and Raised (Reprise) [0:02:00.53]
[свернуть]

youtube.com

[свернуть]

Исполнители/Performers

John Mayer – vocals, guitars, harmonica, keyboards, percussion, production
Sean Hurley – bass
Aaron Sterling – drums, percussion
Chuck Leavell – keyboards

Featured artists
Chris Botti – Trumpet on track 9
David Crosby – Vocals on track 6
Jim Keltner - Drums on track 5
Greg Leisz – Pedal Steel on tracks 1, 3, 10, 12, Lap Steel on track 6
Graham Nash – Vocals on track 6
Sara Watkins – Vocals and violin on track 11
[свернуть]

EAC лог

Exact Audio Copy V1.2 from 12. August 2016

EAC extraction logfile from 6. September 2016, 2:02

John Mayer / Born and Raised

Used drive : PLEXTOR DVDR PX-716A Adapter: 1 ID: 0

Read mode : Secure
Utilize accurate stream : Yes
Defeat audio cache : Yes
Make use of C2 pointers : No

Read offset correction : 30
Overread into Lead-In and Lead-Out : No
Fill up missing offset samples with silence : Yes
Delete leading and trailing silent blocks : No
Null samples used in CRC calculations : Yes
Used interface : Native Win32 interface for Win NT & 2000

Used output format : User Defined Encoder
Selected bitrate : 1024 kBit/s
Quality : High
Add ID3 tag : No
Command line compressor : C:\Program Files (x86)\Exact Audio Copy\FLAC\FLAC.EXE
Additional command line options : -6 -V -T "ARTIST=%artist%" -T "TITLE=%title%" -T "ALBUM=%albumtitle%" -T "DATE=%year%" -T "TRACKNUMBER=%tracknr%" -T "GENRE=%genre%" -T "COMMENT=%comment%" -T "BAND=%albuminterpret%" -T "ALBUMARTIST=%albuminterpret%" -T "COMPOSER=%composer%" %haslyrics%--tag-from-file=LYRICS="%lyricsfile%"%haslyrics% -T "DISCNUMBER=%cdnumber%" -T "TOTALDISCS=%totalcds%" -T "TOTALTRACKS=%numtracks%" %hascover%--picture="%coverfile%"%hascover% %source% -o %dest%


TOC of the extracted CD

Track | Start | Length | Start sector | End sector
---------------------------------------------------------
1 | 0:00.00 | 4:10.10 | 0 | 18759
2 | 4:10.10 | 2:39.54 | 18760 | 30738
3 | 6:49.64 | 3:50.22 | 30739 | 48010
4 | 10:40.11 | 3:45.38 | 48011 | 64923
5 | 14:25.49 | 3:01.26 | 64924 | 78524
6 | 17:27.00 | 4:49.19 | 78525 | 100218
7 | 22:16.19 | 5:21.54 | 100219 | 124347
8 | 27:37.73 | 2:27.72 | 124348 | 135444
9 | 30:05.70 | 5:10.18 | 135445 | 158712
10 | 35:16.13 | 4:39.33 | 158713 | 179670
11 | 39:55.46 | 4:46.35 | 179671 | 201155
12 | 44:42.06 | 2:00.53 | 201156 | 210208


Range status and errors

Selected range

Filename C:\mm\John Mayer\2012 - Born And Raised [88691 97606 2]\John Mayer - Born and Raised.wav

Peak level 100.0 %
Extraction speed 12.6 X
Range quality 100.0 %
Test CRC 9BB4F135
Copy CRC 9BB4F135
Copy OK

No errors occurred


AccurateRip summary

Track 1 accurately ripped (confidence 200) [71782E7A] (AR v2)
Track 2 accurately ripped (confidence 200) [83207A5B] (AR v2)
Track 3 accurately ripped (confidence 200) [382AB82B] (AR v2)
Track 4 accurately ripped (confidence 200) [8F8232FC] (AR v2)
Track 5 accurately ripped (confidence 200) [C556CBD9] (AR v2)
Track 6 accurately ripped (confidence 200) [BC258A43] (AR v2)
Track 7 accurately ripped (confidence 200) [C998D025] (AR v2)
Track 8 accurately ripped (confidence 200) [57948C9C] (AR v2)
Track 9 accurately ripped (confidence 200) [336306E9] (AR v2)
Track 10 accurately ripped (confidence 200) [A342F18F] (AR v2)
Track 11 accurately ripped (confidence 200) [AD181727] (AR v2)
Track 12 accurately ripped (confidence 200) [76555D19] (AR v2)

All tracks accurately ripped

End of status report

---- CUETools DB Plugin V2.1.6

[CTDB TOCID: CtwE7EDf8GZEttSDOm3r_OVzbyk-] found
Submit result: CtwE7EDf8GZEttSDOm3r_OVzbyk- has been confirmed
Track | CTDB Status
1 | (460/461) Accurately ripped
2 | (461/461) Accurately ripped
3 | (460/461) Accurately ripped
4 | (461/461) Accurately ripped
5 | (461/461) Accurately ripped
6 | (461/461) Accurately ripped
7 | (461/461) Accurately ripped
8 | (461/461) Accurately ripped
9 | (461/461) Accurately ripped
10 | (460/461) Accurately ripped
11 | (453/461) Accurately ripped
12 | (451/461) Accurately ripped
[свернуть]

Файл CUE

REM GENRE Blues
REM DATE 2012
REM DISCID A90AF20C
REM COMMENT "ExactAudioCopy v1.2"
PERFORMER "John Mayer"
TITLE "Born and Raised"
REM COMPOSER ""
FILE "John Mayer - Born and Raised.flac" WAVE
TRACK 01 AUDIO
TITLE "Queen of California"
PERFORMER "John Mayer"
REM COMPOSER ""
INDEX 01 00:00:00
TRACK 02 AUDIO
TITLE "The Age of Worry"
PERFORMER "John Mayer"
REM COMPOSER ""
INDEX 01 04:10:10
TRACK 03 AUDIO
TITLE "Shadow Days"
PERFORMER "John Mayer"
REM COMPOSER ""
INDEX 00 06:47:54
INDEX 01 06:49:64
TRACK 04 AUDIO
TITLE "Speak for Me"
PERFORMER "John Mayer"
REM COMPOSER ""
INDEX 00 10:38:02
INDEX 01 10:40:11
TRACK 05 AUDIO
TITLE "Something Like Olivia"
PERFORMER "John Mayer"
REM COMPOSER ""
INDEX 00 14:24:62
INDEX 01 14:25:49
TRACK 06 AUDIO
TITLE "Born and Raised"
PERFORMER "John Mayer"
REM COMPOSER ""
INDEX 00 17:26:21
INDEX 01 17:27:00
TRACK 07 AUDIO
TITLE "If I Ever Get Around To Living"
PERFORMER "John Mayer"
REM COMPOSER ""
INDEX 00 22:14:48
INDEX 01 22:16:19
TRACK 08 AUDIO
TITLE "Love Is a Verb"
PERFORMER "John Mayer"
REM COMPOSER ""
INDEX 01 27:37:73
TRACK 09 AUDIO
TITLE "Walt Grace's Submarine Test, January 1967"
PERFORMER "John Mayer"
REM COMPOSER ""
INDEX 00 30:02:28
INDEX 01 30:05:70
TRACK 10 AUDIO
TITLE "Whiskey, Whiskey, Whiskey"
PERFORMER "John Mayer"
REM COMPOSER ""
INDEX 00 35:13:69
INDEX 01 35:16:13
TRACK 11 AUDIO
TITLE "A Face To Call Home"
PERFORMER "John Mayer"
REM COMPOSER ""
INDEX 00 39:54:63
INDEX 01 39:55:46
TRACK 12 AUDIO
TITLE "Born and Raised (Reprise)"
PERFORMER "John Mayer"
REM COMPOSER ""
INDEX 00 44:40:69
INDEX 01 44:42:06
[свернуть]

Лог проверки качества

AUDIOCHECKER v2.0 beta (build 457) - by Dester -
~~~~~~~~~~~~~~~~~~~~~~~~~~~~~~~~~~
-=== НЕ РЕДАКТИРУЙТЕ ЭТОТ ФАЙЛ! ===-

Путь: ...\2012 - Born And Raised [88691 97606 2]

1 -=- John Mayer - Born and Raised.flac -=- CDDA (99%)

172981172
[свернуть]

Спектр частот

[свернуть]

Скачать John Mayer - Born and Raised



password: sergych
[свернуть]

Контрольная сумма (хеш-сумма) архива

MD5: 2a18d41cb0d66baec9b030123c1215cb
[свернуть]
My opinion of release: 10/10
__________________
TAIFUN.Wings of Soul

Вверх
Пользователь сказал cпасибо:
swint68 (03.12.2016)
Похожие темы
Тема Автор Раздел Ответов Последнее сообщение
Альбом John Mayer - Battle Studies sergych Pop Rock 1 27.11.2017 07:04
Альбом John Mayer - Continuum sergych Pop Rock 1 03.06.2016 19:23
Live John Mayer Trio - Try! John Mayer Trio Live In Concert sergych Blues Rock 0 16.05.2016 19:29
Live John Mayer Trio - Where the Light Is: John Mayer Live in Los Angeles sergych Blues Rock 0 21.02.2012 19:59
Релиз John Wetton - Raised In Captivity PUPOKIN Progressive Rock 0 09.07.2011 10:39


Метки
2012 , born and raised , country rock , folk rock , john mayer , southern rock

Опции темы

Ваши права в разделе
Вы не можете создавать новые темы
Вы не можете отвечать в темах
Вы не можете прикреплять вложения
Вы не можете редактировать свои сообщения

Быстрый переход



Текущее время: 04:35. Часовой пояс GMT +3.
Powered by vBulletin® Version 3.8.10
Copyright ©2000 - 2017, vBulletin Solutions, Inc. Перевод: zCarot
© 2008 - 2017 Taifun With Song
Яндекс.Метрика