TAIFUN With Song
Навигация
Вернуться   TAIFUN With Song > Music (обменник) > Rock > Blues Rock
Расширенный поиск
Blues Rock К концу сороковых годов прошлого столетия в блюзе окончательно обосновалась электрогитара. Трудно сказать, что подтолкнуло многих блюзменов перейти с привычной акустической гитары на электрическую, но блюз с тех пор очень сильно изменился.

А знаете ли Вы, что...
Как реагировала Монсеррат Кабалье, если кто-либо из зрителей записывал концерт на магнитофон?
«Монсеррат Кабалье иногда на своих концертах прибегала к следующей шутке. Если кто-либо из зрителей записывал концерт на магнитофон, и в какой-то момент ему надо было перевернуть кассету, Кабалье прекращала петь. Помолчав несколько секунд, она говорила: «Кивните мне, когда можно будет продолжать».»
 
Опции темы

  #1
Старый 16.05.2016, 19:29
sergych
Координатор
Досье
 
Аватар для sergych
Релиз John Mayer Trio - Try! John Mayer Trio Live In Concert


2005 - John Mayer Trio - Try! John Mayer Trio Live In Concert




Исполнитель/Artist: John Mayer Trio
Альбом/Album: Try! John Mayer Trio Live In Concert
Год/Year: 2005
Жанр/Genre: Blues rock, Rock, Electric blues
Страна/Country: Соединённые Штаты
Рекорд-лейбл/Record label: Aware Records / Columbia
Номер в каталоге/Catalogue #: 8 2796 95115 2
Формат/Format: Free Lossless Audio Codec (*.flac)
Качество/Quality: Lossless
Тип рипа/RIP Type: image+.cue
Продолжительность/Length: 01:03:27
Источник/Source: Собственный рип
Размер/Size: 424.1 MB

Сканы в комплекте

Треклист

01. Who Did You Think I Was [0:03:09.12]
02. Good Love Is On The Way [0:04:50.45]
03. Wait Until Tomorrow [0:04:14.51]
04. Gravity [0:05:49.19]
05. Vultures [0:05:19.18]
06. Out Of My Mind [0:07:39.15]
07. Another Kind Of Green [0:04:39.73]
08. I Got A Woman [0:07:40.10]
09. Something's Missing [0:06:56.60]
10. Daughters [0:06:14.44]
11. Try [0:06:53.22]
[свернуть]

youtube.com

[свернуть]

Исполнители/Performers

John Mayer – vocals, guitar, production, art direction, graphic design
Steve Jordan – drums, backing vocals, production
Pino Palladino – bass, backing vocals
Chalmers Alford – guitar on track 11
[свернуть]

EAC лог

Exact Audio Copy V1.1 from 23. June 2015

EAC extraction logfile from 14. May 2016, 21:33

John Mayer Trio / Try! John Mayer Trio Live In Concert

Used drive : ATAPI iHAS124 D Adapter: 0 ID: 2

Read mode : Secure
Utilize accurate stream : Yes
Defeat audio cache : Yes
Make use of C2 pointers : No

Read offset correction : 6
Overread into Lead-In and Lead-Out : No
Fill up missing offset samples with silence : Yes
Delete leading and trailing silent blocks : No
Null samples used in CRC calculations : Yes
Used interface : Installed external ASPI interface

Used output format : User Defined Encoder
Selected bitrate : 1024 kBit/s
Quality : High
Add ID3 tag : Yes
Command line compressor : C:\Program Files (x86)\Exact Audio Copy\Flac\flac.exe
Additional command line options : -6 -V -T "ARTIST=%artist%" -T "TITLE=%title%" -T "ALBUM=%albumtitle%" -T "DATE=%year%" -T "TRACKNUMBER=%tracknr%" -T "GENRE=%genre%" -T "COMMENT=%comment%" -T "BAND=%albuminterpret%" -T "COMPOSER=%composer%" %haslyrics%--tag-from-file=LYRICS="%lyricsfile%"%haslyrics% -T "DISCNUMBER=%cdnumber%" -T "TOTALDISCS=%totalcds%" -T "TOTALTRACKS=%numtracks%" %hascover%--picture="%coverfile%"%hascover% %source% -o %dest%


TOC of the extracted CD

Track | Start | Length | Start sector | End sector
---------------------------------------------------------
1 | 0:00.00 | 3:09.12 | 0 | 14186
2 | 3:09.12 | 4:50.45 | 14187 | 35981
3 | 7:59.57 | 4:14.51 | 35982 | 55082
4 | 12:14.33 | 5:49.19 | 55083 | 81276
5 | 18:03.52 | 5:19.18 | 81277 | 105219
6 | 23:22.70 | 7:39.15 | 105220 | 139659
7 | 31:02.10 | 4:39.73 | 139660 | 160657
8 | 35:42.08 | 7:40.10 | 160658 | 195167
9 | 43:22.18 | 6:56.60 | 195168 | 226427
10 | 50:19.03 | 6:14.44 | 226428 | 254521
11 | 56:33.47 | 6:53.22 | 254522 | 285518


Range status and errors

Selected range

Filename C:\mm\John Mayer\2005 - Try! John Mayer Trio Live In Concert [8 2796 95115 2]\John Mayer Trio - Try! John Mayer Trio Live In Concert.wav

Peak level 98.0 %
Extraction speed 3.6 X
Range quality 100.0 %
Test CRC 99B707A7
Copy CRC 99B707A7
Copy OK

No errors occurred


AccurateRip summary

Track 1 accurately ripped (confidence 99) [C36B862A] (AR v2)
Track 2 accurately ripped (confidence 99) [2579C34A] (AR v2)
Track 3 accurately ripped (confidence 99) [E67F5507] (AR v2)
Track 4 accurately ripped (confidence 99) [F3072329] (AR v2)
Track 5 accurately ripped (confidence 99) [D1BD32DC] (AR v2)
Track 6 accurately ripped (confidence 98) [68CF09E1] (AR v2)
Track 7 accurately ripped (confidence 99) [75C49168] (AR v2)
Track 8 accurately ripped (confidence 99) [BD39EF87] (AR v2)
Track 9 accurately ripped (confidence 97) [A03A25F4] (AR v2)
Track 10 accurately ripped (confidence 97) [7BA5EDDC] (AR v2)
Track 11 accurately ripped (confidence 97) [6895639D] (AR v2)

All tracks accurately ripped

End of status report
[свернуть]

Файл CUE

REM GENRE Rock
REM DATE 2005
REM DISCID 850EDE0B
REM COMMENT "ExactAudioCopy v1.1"
PERFORMER "John Mayer Trio"
TITLE "Try! John Mayer Trio Live In Concert"
FILE "John Mayer Trio - Try! John Mayer Trio Live In Concert.flac" WAVE
TRACK 01 AUDIO
TITLE "Who Did You Think I Was"
PERFORMER "John Mayer Trio"
INDEX 01 00:00:00
TRACK 02 AUDIO
TITLE "Good Love Is On The Way"
PERFORMER "John Mayer Trio"
INDEX 01 03:09:12
TRACK 03 AUDIO
TITLE "Wait Until Tomorrow"
PERFORMER "John Mayer Trio"
INDEX 01 07:59:57
TRACK 04 AUDIO
TITLE "Gravity"
PERFORMER "John Mayer Trio"
INDEX 01 12:14:33
TRACK 05 AUDIO
TITLE "Vultures"
PERFORMER "John Mayer Trio"
INDEX 01 18:03:52
TRACK 06 AUDIO
TITLE "Out Of My Mind"
PERFORMER "John Mayer Trio"
INDEX 01 23:22:70
TRACK 07 AUDIO
TITLE "Another Kind Of Green"
PERFORMER "John Mayer Trio"
INDEX 01 31:02:10
TRACK 08 AUDIO
TITLE "I Got A Woman"
PERFORMER "John Mayer Trio"
INDEX 01 35:42:08
TRACK 09 AUDIO
TITLE "Something's Missing"
PERFORMER "John Mayer Trio"
INDEX 01 43:22:18
TRACK 10 AUDIO
TITLE "Daughters"
PERFORMER "John Mayer Trio"
INDEX 01 50:19:03
TRACK 11 AUDIO
TITLE "Try"
PERFORMER "John Mayer Trio"
INDEX 01 56:33:47
[свернуть]

Лог проверки качества

AUDIOCHECKER v2.0 beta (build 457) - by Dester -
~~~~~~~~~~~~~~~~~~~~~~~~~~~~~~~~~~
-=== НЕ РЕДАКТИРУЙТЕ ЭТОТ ФАЙЛ! ===-

Путь: ...\2005 - Try! John Mayer Trio Live In Concert [8 2796 95115 2]

1 -=- John Mayer Trio - Try! John Mayer Trio Live In Concert.flac -=- CDDA (100%)

60624004
[свернуть]

Спектр частот

[свернуть]

Скачать John Mayer Trio - Try! John Mayer Trio Live In Concert



password: sergych
[свернуть]
My opinion of release: 9/10
__________________
TAIFUN.Wings of Soul

Вверх
Похожие темы
Тема Автор Раздел Ответов Последнее сообщение
Альбом John Mayer - Battle Studies sergych Pop Rock 1 27.11.2017 07:04
Альбом John Mayer - Room For Squares sergych Pop Rock 1 26.08.2017 14:06
Альбом John Mayer - Continuum sergych Pop Rock 1 03.06.2016 19:23
Live John Mayer Trio - Where the Light Is: John Mayer Live in Los Angeles sergych Blues Rock 0 21.02.2012 19:59


Метки
2005 , blues rock , electric blues , john mayer trio , rock , try! john mayer trio live in concert

Опции темы

Ваши права в разделе
Вы не можете создавать новые темы
Вы не можете отвечать в темах
Вы не можете прикреплять вложения
Вы не можете редактировать свои сообщения

Быстрый переход



Текущее время: 04:36. Часовой пояс GMT +3.
Powered by vBulletin® Version 3.8.10
Copyright ©2000 - 2017, vBulletin Solutions, Inc. Перевод: zCarot
© 2008 - 2017 Taifun With Song
Яндекс.Метрика