TAIFUN With Song
Навигация
R&B Ссылки на музыку в этом стиле

А знаете ли Вы, что...
Почему в английском хит-параде 1965 года песню ‘Yesterday’ исполняли не Beatles?
«Когда Пол Маккартни записывал песню ‘Yesterday’, профессиональные музыканты из аккомпанирующего ему струнного квартета назвали композицию семитактным неквадратным построением и сказали, что музыку так не пишут.»
 
Опции темы

  #1
Старый 13.03.2015, 21:16
sergych
Координатор
Досье
 
Аватар для sergych
Релиз Mariah Carey - #1's


1998 - Mariah Carey - #1's




Исполнитель/Artist: Mariah Carey
Альбом/Album: #1's
Год/Year: 1998
Жанр/Genre: R&B, pop, hip-hop
Страна/Country: Австрия
Рекорд-лейбл/Record label: Columbia / Sony Music
Номер в каталоге/Catalogue #: 492604 2
Формат/Format: Free Lossless Audio Codec (*.flac)
Качество/Quality: Lossless
Тип рипа/RIP Type: image+.cue
Продолжительность/Length: 01:15:55
Источник/Source: Собственный рип
Размер/Size: 609.7 MB

Сканы в комплекте

Треклист

01. Sweetheart (feat. JD) [0:04:25.60]
02. When You Believe (from The Prince Of Egypt) (with Whitney Houston) [0:04:36.12]
03. Whenever You Call (with Brian McKnight) [0:04:23.30]
04. My All [0:03:52.13]
05. Honey [0:05:00.72]
06. Always Be My Baby [0:04:19.23]
07. One Sweet Day (with Boyz II Men) [0:04:42.72]
08. Fantasy (feat. O.D.B.) [0:04:54.08]
09. Hero [0:04:20.32]
10. Dreamlover [0:03:54.65]
11. I'll Be There (feat. Trey Lorenz) [0:04:25.15]
12. Emotions [0:04:11.13]
13. Someday [0:04:07.65]
14. Love Takes Time [0:03:49.25]
15. Vision Of Love [0:03:31.17]
16. I Still Believe [0:03:56.63]
17. Without You [0:03:35.52]
18. Do You Know Where You're Going To (Theme From Mahogany) [0:03:47.08]
[свернуть]

youtube.com

[свернуть]

Исполнители/Performers

Mariah Carey – lead vocals, background vocals
Walter Afanasieff – keyboards, additional keyboards, synthesizers
Dave Hall – synthesizers, keyboards, rhythm programming
Ben Margulies – drums, keyboards, programming
Babyface – arranger
Narada Michael Walden – drums
Dan Shea – drums, percussion
Ric Wake – drum programming
Rhett Lawrence – keyboards
Robert Clivillés – drums, percussion
Loris Holland – synthesizers, keyboards, rhythm programming
David Cole – keyboards
Sean "Puffy" Combs – background vocals, keyboards, synthesizers
Cory Rooney – drum programming, keyboards
Kamall Fareed – programming, drums
James T. Alfano – programming, guitars
Anthony Henderson – guitars, background vocals, keyboards
Charles Scruggs – bass, background vocals, keyboards
Cindy Mizelle, Mark C. Rooney, Melonie Daniels, Kelly Price, Shanrae Price – background vocals
[свернуть]

EAC лог

Exact Audio Copy V1.0 beta 3 from 29. August 2011

EAC extraction logfile from 13. March 2015, 21:26

Mariah Carey / #1's

Used drive : ATAPI iHAS124 D Adapter: 0 ID: 2

Read mode : Secure
Utilize accurate stream : Yes
Defeat audio cache : Yes
Make use of C2 pointers : No

Read offset correction : 6
Overread into Lead-In and Lead-Out : No
Fill up missing offset samples with silence : Yes
Delete leading and trailing silent blocks : No
Null samples used in CRC calculations : Yes
Used interface : Installed external ASPI interface

Used output format : User Defined Encoder
Selected bitrate : 1024 kBit/s
Quality : High
Add ID3 tag : No
Command line compressor : C:\Program Files (x86)\Exact Audio Copy\Flac\flac.exe
Additional command line options : -6 -V -T "ARTIST=%artist%" -T "TITLE=%title%" -T "ALBUM=%albumtitle%" -T "DATE=%year%" -T "TRACKNUMBER=%tracknr%" -T "GENRE=%genre%" -T "COMMENT=%comment%" -T "BAND=%albuminterpret%" -T "COMPOSER=%composer%" %haslyrics%--tag-from-file=LYRICS="%lyricsfile%"%haslyrics% -T "DISCNUMBER=%cdnumber%" -T "TOTALDISCS=%totalcds%" -T "TOTALTRACKS=%numtracks%" %hascover%--picture="%coverfile%"%hascover% %source% -o %dest%


TOC of the extracted CD

Track | Start | Length | Start sector | End sector
---------------------------------------------------------
1 | 0:00.00 | 4:25.60 | 0 | 19934
2 | 4:25.60 | 4:36.12 | 19935 | 40646
3 | 9:01.72 | 4:23.30 | 40647 | 60401
4 | 13:25.27 | 3:52.13 | 60402 | 77814
5 | 17:17.40 | 5:00.72 | 77815 | 100386
6 | 22:18.37 | 4:19.23 | 100387 | 119834
7 | 26:37.60 | 4:42.72 | 119835 | 141056
8 | 31:20.57 | 4:54.08 | 141057 | 163114
9 | 36:14.65 | 4:20.32 | 163115 | 182646
10 | 40:35.22 | 3:54.65 | 182647 | 200261
11 | 44:30.12 | 4:25.15 | 200262 | 220151
12 | 48:55.27 | 4:11.13 | 220152 | 238989
13 | 53:06.40 | 4:07.65 | 238990 | 257579
14 | 57:14.30 | 3:49.25 | 257580 | 274779
15 | 61:03.55 | 3:31.17 | 274780 | 290621
16 | 64:34.72 | 3:56.63 | 290622 | 308384
17 | 68:31.60 | 3:35.52 | 308385 | 324561
18 | 72:07.37 | 3:47.08 | 324562 | 341594


Range status and errors

Selected range

Filename C:\mm\Mariah Carey\1998 - #1's [492604 2]\Mariah Carey - #1's.wav

Peak level 100.0 %
Extraction speed 10.5 X
Range quality 100.0 %
Test CRC 37575A23
Copy CRC 37575A23
Copy OK

No errors occurred


AccurateRip summary

Track 1 accurately ripped (confidence 28) [EFED5EDB] (AR v2)
Track 2 accurately ripped (confidence 28) [2D4033F6] (AR v2)
Track 3 accurately ripped (confidence 28) [69602784] (AR v2)
Track 4 accurately ripped (confidence 28) [D344EE68] (AR v2)
Track 5 accurately ripped (confidence 28) [C80143BD] (AR v2)
Track 6 accurately ripped (confidence 28) [B0C04CA8] (AR v2)
Track 7 accurately ripped (confidence 28) [C283925C] (AR v2)
Track 8 accurately ripped (confidence 28) [BC21760B] (AR v2)
Track 9 accurately ripped (confidence 28) [9222B0A6] (AR v2)
Track 10 accurately ripped (confidence 28) [DECDE7FD] (AR v2)
Track 11 accurately ripped (confidence 28) [23973B05] (AR v2)
Track 12 accurately ripped (confidence 28) [2551A11A] (AR v2)
Track 13 accurately ripped (confidence 28) [64049B1C] (AR v2)
Track 14 accurately ripped (confidence 28) [7DA0797B] (AR v2)
Track 15 accurately ripped (confidence 28) [58FEF7B1] (AR v2)
Track 16 accurately ripped (confidence 28) [E9CDEAC0] (AR v2)
Track 17 accurately ripped (confidence 28) [557F6260] (AR v2)
Track 18 accurately ripped (confidence 28) [AEE61CCF] (AR v2)

All tracks accurately ripped

End of status report
[свернуть]

Файл CUE

REM GENRE R&B
REM DATE 1998
REM DISCID 1E11CA12
REM COMMENT "ExactAudioCopy v1.0b3"
PERFORMER "Mariah Carey"
TITLE "#1's"
FILE "Mariah Carey - #1's.flac" WAVE
TRACK 01 AUDIO
TITLE "Sweetheart (feat. JD)"
PERFORMER "Mariah Carey feat. JD"
INDEX 01 00:00:00
TRACK 02 AUDIO
TITLE "When You Believe (from The Prince Of Egypt) (with Whitney Houston)"
PERFORMER "Mariah Carey with Whitney Houston"
INDEX 00 04:22:32
INDEX 01 04:25:60
TRACK 03 AUDIO
TITLE "Whenever You Call (with Brian McKnight)"
PERFORMER "Mariah Carey with Brian McKnight"
INDEX 00 09:00:37
INDEX 01 09:01:72
TRACK 04 AUDIO
TITLE "My All"
PERFORMER "Mariah Carey"
INDEX 00 13:23:27
INDEX 01 13:25:27
TRACK 05 AUDIO
TITLE "Honey"
PERFORMER "Mariah Carey"
INDEX 00 17:15:65
INDEX 01 17:17:40
TRACK 06 AUDIO
TITLE "Always Be My Baby"
PERFORMER "Mariah Carey"
INDEX 00 22:16:55
INDEX 01 22:18:37
TRACK 07 AUDIO
TITLE "One Sweet Day (with Boyz II Men)"
PERFORMER "Mariah Carey with Boyz II Men"
INDEX 00 26:36:40
INDEX 01 26:37:60
TRACK 08 AUDIO
TITLE "Fantasy (feat. O.D.B.)"
PERFORMER "Mariah Carey feat. O.D.B."
INDEX 00 31:18:62
INDEX 01 31:20:57
TRACK 09 AUDIO
TITLE "Hero"
PERFORMER "Mariah Carey"
INDEX 00 36:10:72
INDEX 01 36:14:65
TRACK 10 AUDIO
TITLE "Dreamlover"
PERFORMER "Mariah Carey"
INDEX 00 40:32:50
INDEX 01 40:35:22
TRACK 11 AUDIO
TITLE "I'll Be There (feat. Trey Lorenz)"
PERFORMER "Mariah Carey feat. Trey Lorenz"
INDEX 00 44:29:22
INDEX 01 44:30:12
TRACK 12 AUDIO
TITLE "Emotions"
PERFORMER "Mariah Carey"
INDEX 00 48:54:07
INDEX 01 48:55:27
TRACK 13 AUDIO
TITLE "Someday"
PERFORMER "Mariah Carey"
INDEX 00 53:04:12
INDEX 01 53:06:40
TRACK 14 AUDIO
TITLE "Love Takes Time"
PERFORMER "Mariah Carey"
INDEX 00 57:13:00
INDEX 01 57:14:30
TRACK 15 AUDIO
TITLE "Vision Of Love"
PERFORMER "Mariah Carey"
INDEX 00 61:02:32
INDEX 01 61:03:55
TRACK 16 AUDIO
TITLE "I Still Believe"
PERFORMER "Mariah Carey"
INDEX 00 64:33:20
INDEX 01 64:34:72
TRACK 17 AUDIO
TITLE "Without You"
PERFORMER "Mariah Carey"
INDEX 00 68:29:42
INDEX 01 68:31:60
TRACK 18 AUDIO
TITLE "Do You Know Where You're Going To (Theme From Mahogany)"
PERFORMER "Mariah Carey"
INDEX 00 72:05:45
INDEX 01 72:07:37
[свернуть]

Лог проверки качества

AUDIOCHECKER v2.0 beta (build 457) - by Dester -
~~~~~~~~~~~~~~~~~~~~~~~~~~~~~~~~~~
-=== НЕ РЕДАКТИРУЙТЕ ЭТОТ ФАЙЛ! ===-

Путь: ...\1998 - #1's [492604 2]

1 -=- Mariah Carey - #1's.flac -=- CDDA (100%)

199134644
[свернуть]

Спектр частот

[свернуть]

Скачать Mariah Carey - #1's



password: sergych
[свернуть]
My opinion of release: 9/10
__________________
TAIFUN.Wings of Soul

Вверх
5 пользователя(ей) сказали cпасибо:
Показать список поблагодаривших
  #2
Старый 14.10.2017, 23:35
sergych
Координатор
Досье
 
Аватар для sergych
Релиз Re: Mariah Carey - #1's


1998 - Mariah Carey - The Ones




Исполнитель/Artist: Mariah Carey
Альбом/Album: The Ones
Год/Year: 1998
Жанр/Genre: R&B, pop, hip-hop
Страна/Country: Япония
Рекорд-лейбл/Record label: Sony Music
Номер в каталоге/Catalogue #: SRCS 8820
Формат/Format: Free Lossless Audio Codec (*.flac)
Качество/Quality: Lossless
Тип рипа/RIP Type: image+.cue
Продолжительность/Length: 01:19:57
Источник/Source: Собственный рип
Размер/Size: 643.6 MB

Сканы в комплекте

Треклист

01. Sweetheart (feat. JD) [0:04:25.62]
02. When You Believe (From The Prince Of Egypt) (with Whitney Houston) [0:04:36.13]
03. Whenever You Call (with Brian McKnight) [0:04:23.30]
04. My All [0:03:52.12]
05. Honey [0:05:00.73]
06. Always Be My Baby [0:04:19.22]
07. One Sweet Day (with Boyz II Men) [0:04:42.70]
08. Fantasy (feat. O.D.B.) [0:04:54.10]
09. Hero [0:04:20.33]
10. Dreamlover [0:03:54.67]
11. I'll Be There (feat. Trey Lorenz) [0:04:25.13]
12. Emotions [0:04:11.10]
13. Someday [0:04:07.67]
14. Love Takes Time [0:03:49.23]
15. Vision Of Love [0:03:31.20]
16. I Still Believe [0:03:56.62]
17. Without You [0:03:35.53]
18. Do You Know Where You're Going To (Theme From Mahogany) [0:03:47.60]
19. All I Want For Christmas Is You [0:04:01.47]
[свернуть]

youtube.com

[свернуть]

Исполнители/Performers

Mariah Carey – lead vocals, background vocals
Walter Afanasieff – keyboards, additional keyboards, synthesizers
Dave Hall – synthesizers, keyboards, rhythm programming
Ben Margulies – drums, keyboards, programming
Babyface – arranger
Narada Michael Walden – drums
Dan Shea – drums, percussion
Ric Wake – drum programming
Rhett Lawrence – keyboards
Robert Clivillés – drums, percussion
Loris Holland – synthesizers, keyboards, rhythm programming
David Cole – keyboards
Sean "Puffy" Combs – background vocals, keyboards, synthesizers
Cory Rooney – drum programming, keyboards
Kamall Fareed – programming, drums
James T. Alfano – programming, guitars
Anthony Henderson – guitars, background vocals, keyboards
Charles Scruggs – bass, background vocals, keyboards
Cindy Mizelle, Mark C. Rooney, Melonie Daniels, Kelly Price, Shanrae Price – background vocals
[свернуть]

EAC лог

Exact Audio Copy V1.3 from 2. September 2016

EAC extraction logfile from 19. July 2017, 0:54

Mariah Carey / The Ones

Used drive : PLEXTOR DVDR PX-716A Adapter: 1 ID: 0

Read mode : Secure
Utilize accurate stream : Yes
Defeat audio cache : Yes
Make use of C2 pointers : No

Read offset correction : 30
Overread into Lead-In and Lead-Out : No
Fill up missing offset samples with silence : Yes
Delete leading and trailing silent blocks : No
Null samples used in CRC calculations : Yes
Used interface : Installed external ASPI interface

Used output format : User Defined Encoder
Selected bitrate : 1024 kBit/s
Quality : High
Add ID3 tag : No
Command line compressor : C:\Program Files (x86)\Exact Audio Copy\Flac\flac.exe
Additional command line options : -6 -V -T "ARTIST=%artist%" -T "TITLE=%title%" -T "ALBUM=%albumtitle%" -T "DATE=%year%" -T "TRACKNUMBER=%tracknr%" -T "GENRE=%genre%" -T "COMMENT=%comment%" -T "BAND=%albuminterpret%" -T "ALBUMARTIST=%albuminterpret%" -T "COMPOSER=%composer%" %haslyrics%--tag-from-file=LYRICS="%lyricsfile%"%haslyrics% -T "DISCNUMBER=%cdnumber%" -T "TOTALDISCS=%totalcds%" -T "TOTALTRACKS=%numtracks%" %hascover%--picture="%coverfile%"%hascover% %source% -o %dest%


TOC of the extracted CD

Track | Start | Length | Start sector | End sector
---------------------------------------------------------
1 | 0:00.00 | 4:25.62 | 0 | 19936
2 | 4:25.62 | 4:36.13 | 19937 | 40649
3 | 9:02.00 | 4:23.30 | 40650 | 60404
4 | 13:25.30 | 3:52.12 | 60405 | 77816
5 | 17:17.42 | 5:00.73 | 77817 | 100389
6 | 22:18.40 | 4:19.22 | 100390 | 119836
7 | 26:37.62 | 4:42.70 | 119837 | 141056
8 | 31:20.57 | 4:54.10 | 141057 | 163116
9 | 36:14.67 | 4:20.33 | 163117 | 182649
10 | 40:35.25 | 3:54.67 | 182650 | 200266
11 | 44:30.17 | 4:25.13 | 200267 | 220154
12 | 48:55.30 | 4:11.10 | 220155 | 238989
13 | 53:06.40 | 4:07.67 | 238990 | 257581
14 | 57:14.32 | 3:49.23 | 257582 | 274779
15 | 61:03.55 | 3:31.20 | 274780 | 290624
16 | 64:35.00 | 3:56.62 | 290625 | 308386
17 | 68:31.62 | 3:35.53 | 308387 | 324564
18 | 72:07.40 | 3:47.60 | 324565 | 341649
19 | 75:55.25 | 4:01.47 | 341650 | 359771


Range status and errors

Selected range

Filename C:\mm\Mariah Carey\1998 - The Ones [SRCS 8820]\Mariah Carey - The Ones.wav

Peak level 100.0 %
Extraction speed 11.7 X
Range quality 100.0 %
Test CRC D8AC48FC
Copy CRC D8AC48FC
Copy OK

No errors occurred

End of status report

---- CUETools DB Plugin V2.1.6

[CTDB TOCID: _Lde1b6MHrcwszF2U77aOBLU2lw-] found
Submit result: _Lde1b6MHrcwszF2U77aOBLU2lw- has been confirmed
Track | CTDB Status
1 | (294/296) Accurately ripped
2 | (296/296) Accurately ripped
3 | (296/296) Accurately ripped
4 | (295/296) Accurately ripped
5 | (294/296) Accurately ripped
6 | (296/296) Accurately ripped
7 | (296/296) Accurately ripped
8 | (295/296) Accurately ripped
9 | (293/296) Accurately ripped
10 | (296/296) Accurately ripped
11 | (293/296) Accurately ripped
12 | (295/296) Accurately ripped
13 | (293/296) Accurately ripped
14 | (296/296) Accurately ripped
15 | (296/296) Accurately ripped
16 | (294/296) Accurately ripped
17 | (291/296) Accurately ripped
18 | (294/296) Accurately ripped
19 | (286/296) Accurately ripped
[свернуть]

Файл CUE

REM GENRE R&B
REM DATE 1998
REM DISCID 3512BC13
REM COMMENT "ExactAudioCopy v1.3"
PERFORMER "Mariah Carey"
TITLE "The Ones"
REM COMPOSER ""
FILE "Mariah Carey - The Ones.flac" WAVE
TRACK 01 AUDIO
TITLE "Sweetheart"
PERFORMER "Mariah feat. JD"
REM COMPOSER ""
INDEX 01 00:00:00
TRACK 02 AUDIO
TITLE "When You Believe (From The Prince Of Egypt)"
PERFORMER "Mariah Carey & Whitney Houston"
REM COMPOSER ""
INDEX 00 04:23:50
INDEX 01 04:25:62
TRACK 03 AUDIO
TITLE "Whenever You Call"
PERFORMER "Mariah Carey & Brian McKnight"
REM COMPOSER ""
INDEX 01 09:02:00
TRACK 04 AUDIO
TITLE "My All"
PERFORMER "Mariah Carey"
REM COMPOSER ""
INDEX 01 13:25:30
TRACK 05 AUDIO
TITLE "Honey"
PERFORMER "Mariah Carey"
REM COMPOSER ""
INDEX 01 17:17:42
TRACK 06 AUDIO
TITLE "Always Be My Baby"
PERFORMER "Mariah Carey"
REM COMPOSER ""
INDEX 01 22:18:40
TRACK 07 AUDIO
TITLE "One Sweet Day"
PERFORMER "Mariah Carey & Boyz II Men"
REM COMPOSER ""
INDEX 01 26:37:62
TRACK 08 AUDIO
TITLE "Fantasy"
PERFORMER "Mariah Carey feat. O.D.B."
REM COMPOSER ""
INDEX 01 31:20:57
TRACK 09 AUDIO
TITLE "Hero"
PERFORMER "Mariah Carey"
REM COMPOSER ""
INDEX 00 36:12:22
INDEX 01 36:14:67
TRACK 10 AUDIO
TITLE "Dreamlover"
PERFORMER "Mariah Carey"
REM COMPOSER ""
INDEX 01 40:35:25
TRACK 11 AUDIO
TITLE "I'll Be There"
PERFORMER "Mariah Carey feat. Trey Lorenz"
REM COMPOSER ""
INDEX 01 44:30:17
TRACK 12 AUDIO
TITLE "Emotions"
PERFORMER "Mariah Carey"
REM COMPOSER ""
INDEX 01 48:55:30
TRACK 13 AUDIO
TITLE "Someday"
PERFORMER "Mariah Carey"
REM COMPOSER ""
INDEX 00 53:05:22
INDEX 01 53:06:40
TRACK 14 AUDIO
TITLE "Love Takes Time"
PERFORMER "Mariah Carey"
REM COMPOSER ""
INDEX 01 57:14:32
TRACK 15 AUDIO
TITLE "Vision Of Love"
PERFORMER "Mariah Carey"
REM COMPOSER ""
INDEX 01 61:03:55
TRACK 16 AUDIO
TITLE "I Still Believe"
PERFORMER "Mariah Carey"
REM COMPOSER ""
INDEX 01 64:35:00
TRACK 17 AUDIO
TITLE "Without You"
PERFORMER "Mariah Carey"
REM COMPOSER ""
INDEX 01 68:31:62
TRACK 18 AUDIO
TITLE "Do You Know Where You're Going To (Theme From Mahogany)"
PERFORMER "Mariah Carey"
REM COMPOSER ""
INDEX 01 72:07:40
TRACK 19 AUDIO
TITLE "All I Want For Christmas Is You"
PERFORMER "Mariah Carey"
REM COMPOSER ""
INDEX 01 75:55:25
[свернуть]

Лог проверки качества

AUDIOCHECKER v2.0 beta (build 457) - by Dester -
~~~~~~~~~~~~~~~~~~~~~~~~~~~~~~~~~~
-=== НЕ РЕДАКТИРУЙТЕ ЭТОТ ФАЙЛ! ===-

Путь: ...\1998 - The Ones [SRCS 8820]

1 -=- Mariah Carey - The Ones.flac -=- CDDA (100%)

7681380
[свернуть]

Спектр частот

[свернуть]

Скачать Mariah Carey - #1's



password: sergych
[свернуть]

Контрольная сумма (хеш-сумма) архива

MD5: b6ba76cfc1d09cee8abb0f4768960d7d
[свернуть]
My opinion of release: 10/10
__________________
TAIFUN.Wings of Soul

Вверх
3 пользователя(ей) сказали cпасибо:
Показать список поблагодаривших
Похожие темы
Тема Автор Раздел Ответов Последнее сообщение
Альбом Mariah Carey - Butterfly sergych R&B 1 13.10.2017 19:07
Релиз Mariah Carey - Lovesongs PUPOKIN R&B 0 19.02.2010 10:09
Mariah Carey - The Remixes Chapter II PUPOKIN R&B 0 24.10.2008 10:02
Mariah Carey - The Ballads PUPOKIN R&B 0 11.10.2008 13:50
Альбом Mariah Carey - E=MC2 LUСIAN R&B 0 20.04.2008 00:25


Метки
#1's , 1998 , hip-hop , mariah carey , pop , r&b

Опции темы

Ваши права в разделе
Вы не можете создавать новые темы
Вы не можете отвечать в темах
Вы не можете прикреплять вложения
Вы не можете редактировать свои сообщения

Быстрый переход



Текущее время: 04:30. Часовой пояс GMT +3.
Powered by vBulletin® Version 3.8.10
Copyright ©2000 - 2017, vBulletin Solutions, Inc. Перевод: zCarot
© 2008 - 2017 Taifun With Song
Яндекс.Метрика