TAIFUN With Song
Навигация
Вернуться   TAIFUN With Song > Music (обменник) > Rock > Blues Rock
Расширенный поиск
Blues Rock К концу сороковых годов прошлого столетия в блюзе окончательно обосновалась электрогитара. Трудно сказать, что подтолкнуло многих блюзменов перейти с привычной акустической гитары на электрическую, но блюз с тех пор очень сильно изменился.

А знаете ли Вы, что...
Почему американская полиция однажды решила, что одну из радиостанций захватили террористы Саддама Хусейна?
«В 1991 году радиостанция KLSK FM в американском городе Альбукерке решила сменить формат на классический рок, в связи с чем 24 часа подряд в эфире звучала песня Led Zeppelin «Stairway to Heaven». Дважды на станцию по просьбе взволнованных слушателей приезжала полиция: один человек заявил, что ди-джей, видимо, получил инфаркт, а другой — что радио захватили террористы, ведь фанатом Led Zeppelin является Саддам Хусейн.»
 
Опции темы

  #1
Старый 21.02.2012, 19:59
sergych
Координатор
Досье
 
Аватар для sergych
Релиз John Mayer Trio - Where the Light Is: John Mayer Live in Los Angeles


2008 - John Mayer Trio - Where the Light Is: John Mayer Live in Los Angeles




Исполнитель/Artist: John Mayer Trio
Альбом/Album: Where the Light Is: John Mayer Live in Los Angeles
Год/Year: 2008
Жанр/Genre: Blues rock, Rock
Рекорд-лейбл/Record label: Columbia
Дата записи/Recording date: 2007-12-08
Формат/Format: Free Lossless Audio Codec (*.flac)
Качество/Quality: Lossless
Тип рипа/RIP Type: tracks+.cue
Продолжительность/Length: 01:10:57
Источник/Source: Из интернета
Размер/Size: 715 MB

Сканы в комплекте

Треклист

CD1
John Mayer acoustic set
01 - Neon [Inside Wants Out (1999)]
02 - Stop This Train [Continuum (2006)]
03 - In Your Atmosphere [Previously unreleased]
04 - Daughters [Heavier Things (2003)]
05 - Free Fallin' (Tom Petty cover) [Previously unreleased]

John Mayer Trio set
06 - Everyday I Have the Blues [Previously unreleased]
07 - Wait Until Tomorrow (The Jimi Hendrix Experience cover) [Try! (2005)]
08 - Who Did You Think I Was [Try! (2005)]
09 - Come When I Call ["Who Did You Think I Was" (2005)]
10 - Good Love Is on the Way [Try! (2005)]
11 - Out of My Mind [Try! (2005)]
12 - Vultures [Try! (2005)]
13 - Bold as Love (The Jimi Hendrix Experience cover) [Continuum (2006)]

CD2
John Mayer band set
01 - Waiting on the World to Change [Continuum (2006)]
02 - Slow Dancing in a Burning Room [Continuum (2006)]
03 - Why Georgia [Room for Squares (2001)]
04 - The Heart of Life [Continuum (2006)]
05 - I Don't Need No Doctor (Ray Charles cover) [That's What I Say: John Scofield Plays the Music of Ray Charles (John Scofield ft. John Mayer) (2005)]
06 - I've Got Dreams to Remember (Otis Redding cover)/ Gravity [Try! (2005)]
07 - I Don't Trust Myself (With Loving You) [Continuum (2006)]
08 - Belief [Continuum (2006)]
09 - I'm Gonna Find Another You [Continuum (2006)]
[свернуть]

youtube.com

[свернуть]

Исполнители/Performers

John Mayer – lead vocals, guitar

John Mayer Trio set:
Steve Jordan – drums, backing vocals
Pino Palladino – bass

John Mayer band set:
David Ryan Harris – guitar, tambourine, backing vocals
Robbie McIntosh – guitar, slide guitar, backing vocals
David LaBruyere – bass
J.J. Johnson – drums
Tim Bradshaw – keyboards, lap steel guitar, backing vocals
Bob Reynolds – tenor saxophone, soprano saxophone
Brad Mason – trumpet, flugelhorn
[свернуть]

EAC лог

Exact Audio Copy V0.99 prebeta 4 from 23. January 2008

EAC extraction logfile from 1. July 2008, 19:48

John Mayer / Where the Light Is: John Mayer Live in Los Angeles (Disc 1)

Used drive : PIONEER DVD-RW DVR-112D Adapter: 0 ID: 0

Read mode : Secure
Utilize accurate stream : Yes
Defeat audio cache : Yes
Make use of C2 pointers : No

Read offset correction : 48
Overread into Lead-In and Lead-Out : No
Fill up missing offset samples with silence : Yes
Delete leading and trailing silent blocks : No
Null samples used in CRC calculations : No
Used interface : Native Win32 interface for Win NT & 2000
Gap handling : Appended to previous track

Used output format : User Defined Encoder
Selected bitrate : 1024 kBit/s
Quality : High
Add ID3 tag : No
Command line compressor : C:\Program Files\Exact Audio Copy\FLAC\FLAC.EXE
Additional command line options : -8 -V -T "ARTIST=%a" -T "TITLE=%t" -T "ALBUM=%g" -T "DATE=%y" -T "TRACKNUMBER=%n" -T "GENRE=%m" -T "COMMENT=%e" %s -o %d


TOC of the extracted CD

Track | Start | Length | Start sector | End sector
---------------------------------------------------------
1 | 0:00.00 | 5:55.55 | 0 | 26679
2 | 5:55.55 | 5:00.15 | 26680 | 49194
3 | 10:55.70 | 5:45.47 | 49195 | 75116
4 | 16:41.42 | 5:04.45 | 75117 | 97961
5 | 21:46.12 | 4:23.43 | 97962 | 117729
6 | 26:09.55 | 4:14.20 | 117730 | 136799
7 | 30:24.00 | 4:19.12 | 136800 | 156236
8 | 34:43.12 | 4:23.28 | 156237 | 175989
9 | 39:06.40 | 3:23.37 | 175990 | 191251
10 | 42:30.02 | 4:18.70 | 191252 | 210671
11 | 46:48.72 | 10:10.40 | 210672 | 256461
12 | 56:59.37 | 5:19.70 | 256462 | 280456
13 | 62:19.32 | 8:37.73 | 280457 | 319304


Track 1

Filename C:\Users\sarpolus\Desktop\New Folder\01. Neon - John Mayer.wav

Pre-gap length 0:00:02.00

Peak level 91.1 %
Track quality 100.0 %
Test CRC 1A382C56
Copy CRC 1A382C56
Track not present in AccurateRip database
Copy OK

Track 2

Filename C:\Users\sarpolus\Desktop\New Folder\02. Stop This Train - John Mayer.wav

Peak level 95.4 %
Track quality 99.9 %
Test CRC 9D406576
Copy CRC 9D406576
Track not present in AccurateRip database
Copy OK

Track 3

Filename C:\Users\sarpolus\Desktop\New Folder\03. In Your Atmosphere - John Mayer.wav

Peak level 91.1 %
Track quality 100.0 %
Test CRC 165D6414
Copy CRC 165D6414
Track not present in AccurateRip database
Copy OK

Track 4

Filename C:\Users\sarpolus\Desktop\New Folder\04. Daughters - John Mayer.wav

Peak level 91.4 %
Track quality 100.0 %
Test CRC 831F16FD
Copy CRC 831F16FD
Track not present in AccurateRip database
Copy OK

Track 5

Filename C:\Users\sarpolus\Desktop\New Folder\05. Free Fallin' - John Mayer.wav

Peak level 94.3 %
Track quality 100.0 %
Test CRC 473019BA
Copy CRC 473019BA
Track not present in AccurateRip database
Copy OK

Track 6

Filename C:\Users\sarpolus\Desktop\New Folder\06. Everyday I Have the Blues - John Mayer.wav

Peak level 99.1 %
Track quality 100.0 %
Test CRC 0C02DBBC
Copy CRC 0C02DBBC
Track not present in AccurateRip database
Copy OK

Track 7

Filename C:\Users\sarpolus\Desktop\New Folder\07. Wait Until Tomorrow - John Mayer.wav

Peak level 99.8 %
Track quality 100.0 %
Test CRC C3FAEA84
Copy CRC C3FAEA84
Track not present in AccurateRip database
Copy OK

Track 8

Filename C:\Users\sarpolus\Desktop\New Folder\08. Who Did You Think I Was - John Mayer.wav

Peak level 98.7 %
Track quality 100.0 %
Test CRC 67CE79C0
Copy CRC 67CE79C0
Track not present in AccurateRip database
Copy OK

Track 9

Filename C:\Users\sarpolus\Desktop\New Folder\09. Come When I Call - John Mayer.wav

Peak level 99.8 %
Track quality 100.0 %
Test CRC 84648993
Copy CRC 84648993
Track not present in AccurateRip database
Copy OK

Track 10

Filename C:\Users\sarpolus\Desktop\New Folder\10. Good Love Is on the Way - John Mayer.wav

Peak level 98.7 %
Track quality 100.0 %
Test CRC 17F3F70A
Copy CRC 17F3F70A
Track not present in AccurateRip database
Copy OK

Track 11

Filename C:\Users\sarpolus\Desktop\New Folder\11. Out of My Mind - John Mayer.wav

Peak level 99.8 %
Track quality 100.0 %
Test CRC 22944EAA
Copy CRC 22944EAA
Track not present in AccurateRip database
Copy OK

Track 12

Filename C:\Users\sarpolus\Desktop\New Folder\12. Vultures - John Mayer.wav

Peak level 99.8 %
Track quality 100.0 %
Test CRC E7C7BD40
Copy CRC E7C7BD40
Track not present in AccurateRip database
Copy OK

Track 13

Filename C:\Users\sarpolus\Desktop\New Folder\13. Bold as Love - John Mayer.wav

Peak level 98.7 %
Track quality 100.0 %
Test CRC 91D0B80B
Copy CRC 91D0B80B
Track not present in AccurateRip database
Copy OK


None of the tracks are present in the AccurateRip database

No errors occurred

End of status report


==========
Exact Audio Copy V0.99 prebeta 4 from 23. January 2008

EAC extraction logfile from 1. July 2008, 23:11

John Mayer / Where the Light Is: John Mayer Live in Los Angeles (disc 2)

Used drive : PIONEER DVD-RW DVR-112D Adapter: 0 ID: 0

Read mode : Secure
Utilize accurate stream : Yes
Defeat audio cache : Yes
Make use of C2 pointers : No

Read offset correction : 48
Overread into Lead-In and Lead-Out : No
Fill up missing offset samples with silence : Yes
Delete leading and trailing silent blocks : No
Null samples used in CRC calculations : No
Used interface : Native Win32 interface for Win NT & 2000
Gap handling : Appended to previous track

Used output format : User Defined Encoder
Selected bitrate : 1024 kBit/s
Quality : High
Add ID3 tag : No
Command line compressor : C:\Program Files\Exact Audio Copy\FLAC\FLAC.EXE
Additional command line options : -8 -V -T "ARTIST=%a" -T "TITLE=%t" -T "ALBUM=%g" -T "DATE=%y" -T "TRACKNUMBER=%n" -T "GENRE=%m" -T "COMMENT=%e" %s -o %d


TOC of the extracted CD

Track | Start | Length | Start sector | End sector
---------------------------------------------------------
1 | 0:00.00 | 3:50.60 | 0 | 17309
2 | 3:50.60 | 5:19.17 | 17310 | 41251
3 | 9:10.02 | 4:27.30 | 41252 | 61306
4 | 13:37.32 | 3:40.10 | 61307 | 77816
5 | 17:17.42 | 6:02.43 | 77817 | 105009
6 | 23:20.10 | 9:41.05 | 105010 | 148589
7 | 33:01.15 | 8:44.67 | 148590 | 187956
8 | 41:46.07 | 6:03.33 | 187957 | 215214
9 | 47:49.40 | 5:40.47 | 215215 | 240761


Track 1

Filename C:\Users\sarpolus\Desktop\John Mayer Where The Light Is\01. Waiting on the World to Change - John Mayer.wav

Pre-gap length 0:00:02.00

Peak level 99.8 %
Track quality 100.0 %
Test CRC B910EC94
Copy CRC B910EC94
Track not present in AccurateRip database
Copy OK

Track 2

Filename C:\Users\sarpolus\Desktop\John Mayer Where The Light Is\02. Slow Dancing in a Burning Room - John Mayer.wav

Peak level 99.8 %
Track quality 100.0 %
Test CRC D5FF273D
Copy CRC D5FF273D
Track not present in AccurateRip database
Copy OK

Track 3

Filename C:\Users\sarpolus\Desktop\John Mayer Where The Light Is\03. Why Georgia - John Mayer.wav

Peak level 99.8 %
Track quality 100.0 %
Test CRC 23BA7977
Copy CRC 23BA7977
Track not present in AccurateRip database
Copy OK

Track 4

Filename C:\Users\sarpolus\Desktop\John Mayer Where The Light Is\04. The Heart of Life - John Mayer.wav

Peak level 98.7 %
Track quality 99.9 %
Test CRC 0F4B6B76
Copy CRC 0F4B6B76
Track not present in AccurateRip database
Copy OK

Track 5

Filename C:\Users\sarpolus\Desktop\John Mayer Where The Light Is\05. I Don't Need No Doctor - John Mayer.wav

Peak level 99.8 %
Track quality 100.0 %
Test CRC E39DA2BC
Copy CRC E39DA2BC
Track not present in AccurateRip database
Copy OK

Track 6

Filename C:\Users\sarpolus\Desktop\John Mayer Where The Light Is\06. Gravity - John Mayer.wav

Peak level 98.7 %
Track quality 100.0 %
Test CRC C7F704D8
Copy CRC C7F704D8
Track not present in AccurateRip database
Copy OK

Track 7

Filename C:\Users\sarpolus\Desktop\John Mayer Where The Light Is\07. I Don't Trust Myself (With Loving You) - John Mayer.wav

Peak level 98.7 %
Track quality 100.0 %
Test CRC 8FD4CD38
Copy CRC 8FD4CD38
Track not present in AccurateRip database
Copy OK

Track 8

Filename C:\Users\sarpolus\Desktop\John Mayer Where The Light Is\08. Belief - John Mayer.wav

Peak level 99.8 %
Track quality 100.0 %
Test CRC C45891F5
Copy CRC C45891F5
Track not present in AccurateRip database
Copy OK

Track 9

Filename C:\Users\sarpolus\Desktop\John Mayer Where The Light Is\09. I'm Gonna Find Another You - John Mayer.wav

Peak level 99.8 %
Track quality 100.0 %
Test CRC 45637524
Copy CRC 45637524
Track not present in AccurateRip database
Copy OK


None of the tracks are present in the AccurateRip database

No errors occurred

End of status report
[свернуть]

Файл CUE

REM GENRE Rock
REM DATE 2008
REM DISCID A410A10D
REM COMMENT "ExactAudioCopy v0.99pb4"
PERFORMER "John Mayer"
TITLE "Where the Light Is: John Mayer Live in Los Angeles (Disc 1)"
FILE "01. Neon - John Mayer.wav" WAVE
TRACK 01 AUDIO
TITLE "Neon"
PERFORMER "John Mayer"
ISRC USSM10801200
INDEX 01 00:00:00
FILE "02. Stop This Train - John Mayer.wav" WAVE
TRACK 02 AUDIO
TITLE "Stop This Train"
PERFORMER "John Mayer"
ISRC USSM10801201
INDEX 01 00:00:00
FILE "03. In Your Atmosphere - John Mayer.wav" WAVE
TRACK 03 AUDIO
TITLE "In Your Atmosphere"
PERFORMER "John Mayer"
ISRC USSM10801202
INDEX 01 00:00:00
FILE "04. Daughters - John Mayer.wav" WAVE
TRACK 04 AUDIO
TITLE "Daughters"
PERFORMER "John Mayer"
ISRC USSM10801203
INDEX 01 00:00:00
FILE "05. Free Fallin' - John Mayer.wav" WAVE
TRACK 05 AUDIO
TITLE "Free Fallin'"
PERFORMER "John Mayer"
ISRC USSM10801204
INDEX 01 00:00:00
FILE "06. Everyday I Have the Blues - John Mayer.wav" WAVE
TRACK 06 AUDIO
TITLE "Everyday I Have the Blues"
PERFORMER "John Mayer"
ISRC USSM10801205
INDEX 01 00:00:00
FILE "07. Wait Until Tomorrow - John Mayer.wav" WAVE
TRACK 07 AUDIO
TITLE "Wait Until Tomorrow"
PERFORMER "John Mayer"
ISRC USSM10801206
INDEX 01 00:00:00
FILE "08. Who Did You Think I Was - John Mayer.wav" WAVE
TRACK 08 AUDIO
TITLE "Who Did You Think I Was"
PERFORMER "John Mayer"
ISRC USSM10801207
INDEX 01 00:00:00
FILE "09. Come When I Call - John Mayer.wav" WAVE
TRACK 09 AUDIO
TITLE "Come When I Call"
PERFORMER "John Mayer"
ISRC USSM10801208
INDEX 01 00:00:00
FILE "10. Good Love Is on the Way - John Mayer.wav" WAVE
TRACK 10 AUDIO
TITLE "Good Love Is on the Way"
PERFORMER "John Mayer"
ISRC USSM10801209
INDEX 01 00:00:00
FILE "11. Out of My Mind - John Mayer.wav" WAVE
TRACK 11 AUDIO
TITLE "Out of My Mind"
PERFORMER "John Mayer"
ISRC USSM10801210
INDEX 01 00:00:00
FILE "12. Vultures - John Mayer.wav" WAVE
TRACK 12 AUDIO
TITLE "Vultures"
PERFORMER "John Mayer"
ISRC USSM10801211
INDEX 01 00:00:00
FILE "13. Bold as Love - John Mayer.wav" WAVE
TRACK 13 AUDIO
TITLE "Bold as Love"
PERFORMER "John Mayer"
ISRC USSM10801212
INDEX 01 00:00:00



=============
REM GENRE Unknown
REM DATE 2008
REM DISCID 710C8A09
REM COMMENT "ExactAudioCopy v0.99pb4"
PERFORMER "John Mayer"
TITLE "Where the Light Is: John Mayer Live in Los Angeles (disc 2)"
FILE "01. Waiting on the World to Change - John Mayer.wav" WAVE
TRACK 01 AUDIO
TITLE "Waiting on the World to Change"
PERFORMER "John Mayer"
ISRC USSM10801213
INDEX 01 00:00:00
FILE "02. Slow Dancing in a Burning Room - John Mayer.wav" WAVE
TRACK 02 AUDIO
TITLE "Slow Dancing in a Burning Room"
PERFORMER "John Mayer"
ISRC USSM10801214
INDEX 01 00:00:00
FILE "03. Why Georgia - John Mayer.wav" WAVE
TRACK 03 AUDIO
TITLE "Why Georgia"
PERFORMER "John Mayer"
ISRC USSM10801215
INDEX 01 00:00:00
FILE "04. The Heart of Life - John Mayer.wav" WAVE
TRACK 04 AUDIO
TITLE "The Heart of Life"
PERFORMER "John Mayer"
ISRC USSM10801216
INDEX 01 00:00:00
FILE "05. I Don't Need No Doctor - John Mayer.wav" WAVE
TRACK 05 AUDIO
TITLE "I Don't Need No Doctor"
PERFORMER "John Mayer"
ISRC USSM10801217
INDEX 01 00:00:00
FILE "06. Gravity - John Mayer.wav" WAVE
TRACK 06 AUDIO
TITLE "Gravity"
PERFORMER "John Mayer"
ISRC USSM10801376
INDEX 01 00:00:00
FILE "07. I Don't Trust Myself (With Loving You) - John Mayer.wav" WAVE
TRACK 07 AUDIO
TITLE "I Don't Trust Myself (With Loving You)"
PERFORMER "John Mayer"
ISRC USSM10801219
INDEX 01 00:00:00
FILE "08. Belief - John Mayer.wav" WAVE
TRACK 08 AUDIO
TITLE "Belief"
PERFORMER "John Mayer"
ISRC USSM10801220
INDEX 01 00:00:00
FILE "09. I'm Gonna Find Another You - John Mayer.wav" WAVE
TRACK 09 AUDIO
TITLE "I'm Gonna Find Another You"
PERFORMER "John Mayer"
ISRC USSM10801221
INDEX 01 00:00:00
[свернуть]

Лог проверки качества

AUDIOCHECKER v2.0 beta (build 457) - by Dester -
~~~~~~~~~~~~~~~~~~~~~~~~~~~~~~~~~~
-=== НЕ РЕДАКТИРУЙТЕ ЭТОТ ФАЙЛ! ===-

Путь: ...\CD 1

01 -=- 01. Neon - John Mayer.flac -=- CDDA (100%)
02 -=- 02. Stop This Train - John Mayer.flac -=- CDDA (100%)
03 -=- 03. In Your Atmosphere - John Mayer.flac -=- CDDA (100%)
04 -=- 04. Daughters - John Mayer.flac -=- CDDA (100%)
05 -=- 05. Free Fallin' - John Mayer.flac -=- CDDA (100%)
06 -=- 06. Everyday I Have the Blues - John Mayer.flac -=- CDDA (100%)
07 -=- 07. Wait Until Tomorrow - John Mayer.flac -=- CDDA (100%)
08 -=- 08. Who Did You Think I Was - John Mayer.flac -=- CDDA (99%)
09 -=- 09. Come When I Call - John Mayer.flac -=- CDDA (100%)
10 -=- 10. Good Love Is on the Way - John Mayer.flac -=- CDDA (99%)
11 -=- 11. Out of My Mind - John Mayer.flac -=- CDDA (100%)
12 -=- 12. Vultures - John Mayer.flac -=- CDDA (100%)
13 -=- 13. Bold as Love - John Mayer.flac -=- CDDA (100%)

Сводка 99,85% CDDA

10515860


========
AUDIOCHECKER v2.0 beta (build 457) - by Dester -
~~~~~~~~~~~~~~~~~~~~~~~~~~~~~~~~~~
-=== НЕ РЕДАКТИРУЙТЕ ЭТОТ ФАЙЛ! ===-

Путь: ...\CD 2

01 -=- 01. Waiting on the World to Change - John Mayer.flac -=- CDDA (100%)
02 -=- 02. Slow Dancing in a Burning Room - John Mayer.flac -=- CDDA (100%)
03 -=- 03. Why Georgia - John Mayer.flac -=- CDDA (100%)
04 -=- 04. The Heart of Life - John Mayer.flac -=- CDDA (100%)
05 -=- 05. I Don't Need No Doctor - John Mayer.flac -=- CDDA (100%)
06 -=- 06. Gravity - John Mayer.flac -=- CDDA (100%)
07 -=- 07. I Don't Trust Myself (With Loving You) - John Mayer.flac -=- CDDA (100%)
08 -=- 08. Belief - John Mayer.flac -=- CDDA (99%)
09 -=- 09. I'm Gonna Find Another You - John Mayer.flac -=- CDDA (100%)

Сводка 99,89% CDDA

15724804
[свернуть]

Скачать John Mayer Trio - Where the Light Is: John Mayer Live in Los Angeles



password: sergych
[свернуть]
My opinion of release: 7/10
__________________
TAIFUN.Wings of Soul


Последний раз редактировалось sergych, 05.07.2014 в 16:37. Причина: перезаливка
Вверх
Похожие темы
Тема Автор Раздел Ответов Последнее сообщение
Альбом John Mayer - Heavier Things sergych Pop Rock 1 28.11.2017 06:04
Альбом John Mayer - Room For Squares sergych Pop Rock 1 26.08.2017 14:06
Альбом John Mayer - Continuum sergych Pop Rock 1 03.06.2016 19:23
Альбом John Campbelljohn Trio - Weight Of The World PUPOKIN Blues Rock 0 22.07.2010 10:05


Метки
2008 , blues rock , john , john mayer , john mayer trio , mayer , rock , where the light is: john mayer live in los angeles

Опции темы

Ваши права в разделе
Вы не можете создавать новые темы
Вы не можете отвечать в темах
Вы не можете прикреплять вложения
Вы не можете редактировать свои сообщения

Быстрый переход



Текущее время: 04:33. Часовой пояс GMT +3.
Powered by vBulletin® Version 3.8.10
Copyright ©2000 - 2017, vBulletin Solutions, Inc. Перевод: zCarot
© 2008 - 2017 Taifun With Song
Яндекс.Метрика