TAIFUN With Song
Навигация
Вернуться   TAIFUN With Song > Music (обменник) > Rock > Pop Rock
Расширенный поиск
Pop Rock Поп-рок — жанр музыки, объединяющий элементы поп-музыки и рок-музыки. Песни характеризуются простой структурой, запоминающимися мелодиями, повторением музыкальных фраз (от попа), использованием в качестве основных инструментов электрогитар и ударных и агрессивным настроением (от рока).

А знаете ли Вы, что...
Кто написал песню «Во поле берёза стояла»?
«Многие источники утверждают, что песню «Во поле берёза стояла» написал татарский поэт Нигмат Ибрагимов. Однако эта песня всё-таки является русской народной.»
 
Опции темы

  #1
Старый 20.02.2012, 18:26
sergych
Координатор
Досье
 
Аватар для sergych
Релиз John Mayer - Continuum


2006 - John Mayer - Continuum




Исполнитель/Artist: John Mayer
Альбом/Album: Continuum
Год/Year: 2006
Жанр/Genre: Rock, pop, blues rock, soul
Рекорд-лейбл/Record label: Columbia Records / Aware Records
Формат/Format: Free Lossless Audio Codec (*.flac)
Качество/Quality: Lossless
Тип рипа/RIP Type: image+.cue
Продолжительность/Length: 00:49:58
Источник/Source: Из интернета
Размер/Size: 466.4 MB

Сканы в комплекте

Треклист

01 - Waiting On The World To Change
02 - I Don't Trust Myself (With Loving You)
03 - Belief
04 - Gravity
05 - The Heart Of Life
06 - Vultures
07 - Stop This Train
08 - Slow Dancing In A Burning Room
09 - Bold As Love
10. Dreaming With A Broken Heart
11. In Repair
12. I'm Gonna Find Another You
[свернуть]

youtube.com

[свернуть]

Исполнители/Performers

John Mayer – vocals, guitars, production
Pino Palladino – bass, backing vocals
Steve Jordan – drums, percussion, production
Ricky Peterson – keyboards, backing vocals
Roy Hargrove – horns
Willie Weeks – bass
Ben Harper – guitar
Manolo Badrena – percussion
Larry Goldings – keyboards
James Valentine – guitar
Jamie Muhoberac – keyboards
[свернуть]

EAC лог

Exact Audio Copy V0.99 prebeta 3 from 28. July 2007

EAC extraction logfile from 9. June 2010, 19:25

John Mayer / Continuum

Used drive : Optiarc DVD RW AD-7173S Adapter: 3 ID: 0

Read mode : Secure
Utilize accurate stream : Yes
Defeat audio cache : Yes
Make use of C2 pointers : No

Read offset correction : 48
Overread into Lead-In and Lead-Out : No
Fill up missing offset samples with silence : Yes
Delete leading and trailing silent blocks : No
Null samples used in CRC calculations : Yes
Used interface : Native Win32 interface for Win NT & 2000

Used output format : Internal WAV Routines
Sample format : 44.100 Hz; 16 Bit; Stereo


TOC of the extracted CD

Track | Start | Length | Start sector | End sector
---------------------------------------------------------
1 | 0:00.00 | 3:21.13 | 0 | 15087
2 | 3:21.13 | 4:52.01 | 15088 | 36988
3 | 8:13.14 | 4:02.25 | 36989 | 55163
4 | 12:15.39 | 4:05.62 | 55164 | 73600
5 | 16:21.26 | 3:19.11 | 73601 | 88536
6 | 19:40.37 | 4:11.62 | 88537 | 107423
7 | 23:52.24 | 4:45.04 | 107424 | 128802
8 | 28:37.28 | 4:02.00 | 128803 | 146952
9 | 32:39.28 | 4:18.12 | 146953 | 166314
10 | 36:57.40 | 4:07.61 | 166315 | 184900
11 | 41:05.26 | 6:09.61 | 184901 | 212636
12 | 47:15.12 | 2:43.02 | 212637 | 224863


Range status and errors

Selected range

Filename W:\CD\John Mayer (Continuum) 2006\John Mayer - Continuum.wav

Peak level 99.8 %
Range quality 100.0 %
Test CRC 389C1EBC
Copy CRC 389C1EBC
Copy OK

No errors occurred


AccurateRip summary

Track 1 accurately ripped (confidence 106) [64637EE0]
Track 2 accurately ripped (confidence 107) [831302BC]
Track 3 accurately ripped (confidence 106) [9EB1F4C3]
Track 4 accurately ripped (confidence 106) [971DD7DD]
Track 5 accurately ripped (confidence 106) [0990D0B8]
Track 6 accurately ripped (confidence 107) [E0FE171B]
Track 7 accurately ripped (confidence 107) [9F877145]
Track 8 accurately ripped (confidence 106) [D77483D7]
Track 9 accurately ripped (confidence 106) [83A579CF]
Track 10 accurately ripped (confidence 107) [5E8C64EA]
Track 11 accurately ripped (confidence 107) [1E2614D8]
Track 12 accurately ripped (confidence 107) [132A5FDE]

All tracks accurately ripped

End of status report
[свернуть]

Файл CUE

REM GENRE Blues
REM DATE 2006
REM DISCID AE0BB60C
REM COMMENT "ExactAudioCopy v0.99pb3"
PERFORMER "John Mayer"
TITLE "Continuum"
FILE "John Mayer - Continuum.wav" WAVE
TRACK 01 AUDIO
TITLE "Waiting On The World To Change"
PERFORMER "John Mayer"
INDEX 01 00:00:00
TRACK 02 AUDIO
TITLE "I Don't Trust Myself (With Loving You)"
PERFORMER "John Mayer"
INDEX 01 03:21:13
TRACK 03 AUDIO
TITLE "Belief"
PERFORMER "John Mayer"
INDEX 01 08:13:14
TRACK 04 AUDIO
TITLE "Gravity"
PERFORMER "John Mayer"
INDEX 01 12:15:39
TRACK 05 AUDIO
TITLE "The Heart Of Life"
PERFORMER "John Mayer"
INDEX 01 16:21:26
TRACK 06 AUDIO
TITLE "Vultures"
PERFORMER "John Mayer"
INDEX 00 19:39:41
INDEX 01 19:40:37
TRACK 07 AUDIO
TITLE "Stop This Train"
PERFORMER "John Mayer"
INDEX 00 23:51:25
INDEX 01 23:52:24
TRACK 08 AUDIO
TITLE "Slow Dancing In A Burning Room"
PERFORMER "John Mayer"
INDEX 01 28:37:28
TRACK 09 AUDIO
TITLE "Bold As Love"
PERFORMER "John Mayer"
INDEX 01 32:39:28
TRACK 10 AUDIO
TITLE "Dreaming With A Broken Heart"
PERFORMER "John Mayer"
INDEX 01 36:57:40
TRACK 11 AUDIO
TITLE "In Repair"
PERFORMER "John Mayer"
INDEX 00 41:03:21
INDEX 01 41:05:26
TRACK 12 AUDIO
TITLE "I'm Gonna Find Another You"
PERFORMER "John Mayer"
INDEX 00 47:13:12
INDEX 01 47:15:12
[свернуть]

Лог проверки качества

AUDIOCHECKER v2.0 beta (build 457) - by Dester -
~~~~~~~~~~~~~~~~~~~~~~~~~~~~~~~~~~
-=== НЕ РЕДАКТИРУЙТЕ ЭТОТ ФАЙЛ! ===-

Путь: ...\2006 - Continuum

01 -=- John Mayer - Continuum.flac -=- CDDA (100%)

196902324
[свернуть]

Скачать John Mayer - Continuum



password: sergych
[свернуть]
My opinion of release: 8/10
__________________
TAIFUN.Wings of Soul


Последний раз редактировалось sergych, 05.07.2014 в 16:17. Причина: перезаливка
Вверх
  #2
Старый 03.06.2016, 19:23
sergych
Координатор
Досье
 
Аватар для sergych
Релиз Re: John Mayer - Continuum


2006 - John Mayer - Continuum




Исполнитель/Artist: John Mayer
Альбом/Album: Continuum
Год/Year: 2006
Жанр/Genre: Rock, pop, blues rock, soul
Страна/Country: Соединённые Штаты
Рекорд-лейбл/Record label: Columbia Records / Aware Records
Номер в каталоге/Catalogue #: 82876 79019 2
Формат/Format: Free Lossless Audio Codec (*.flac)
Качество/Quality: Lossless
Тип рипа/RIP Type: image+.cue
Продолжительность/Length: 00:49:58
Источник/Source: Собственный рип
Размер/Size: 414 MB

Сканы в комплекте

Треклист

01. Waiting On The World To Change [0:03:21.13]
02. I Don't Trust Myself (With Loving You) [0:04:52.01]
03. Belief [0:04:02.25]
04. Gravity [0:04:05.62]
05. The Heart of Life [0:03:19.11]
06. Vultures [0:04:11.62]
07. Stop This Train [0:04:45.04]
08. Slow Dancing In A Burning Room [0:04:02.00]
09. Bold As Love [0:04:18.12]
10. Dreaming With A Broken Heart [0:04:07.61]
11. In Repair [0:06:09.61]
12. I'm Gonna Find Another You [0:02:43.02]
[свернуть]

youtube.com

[свернуть]

Исполнители/Performers

John Mayer – vocals, guitars, production
Pino Palladino – bass on every track
Steve Jordan – drums, percussion, backing vocals, production
Ricky Peterson – keyboards on tracks 1, 6, 11 and 12, backing vocals on track 1
Roy Hargrove – horns on tracks 1 and 2
Willie Weeks – bass on track 2
Ben Harper – guitar on track 3
Clayton Cameron – Drums on track 3
Manolo Badrena – percussion on track 3
Larry Goldings – keyboards and organ on track 4
James Valentine – guitar on tracks 7 and 11.
Jamie Muhoberac – keyboards on tracks 7 and 11
Charlie Hunter – eight-string guitar on track 11
Lester Snell – keyboards and horn arrangements assistance on track 12
Boo Mitchell, Willie Mitchell – horn arrangements on track 12
Carlos Saucedo, Harley Pasternak, Jeannie Martinez, Kristen Moss, Lee Padgett, Maggie Slavonic, Ricky Cytonbaum, Sandy Vongdasy, Scotty Crowe – backing vocals on track 1
[свернуть]

EAC лог

Exact Audio Copy V1.1 from 23. June 2015

EAC extraction logfile from 2. June 2016, 0:47

John Mayer / Continuum

Used drive : ATAPI iHAS124 D Adapter: 0 ID: 2

Read mode : Secure
Utilize accurate stream : Yes
Defeat audio cache : Yes
Make use of C2 pointers : No

Read offset correction : 6
Overread into Lead-In and Lead-Out : No
Fill up missing offset samples with silence : Yes
Delete leading and trailing silent blocks : No
Null samples used in CRC calculations : Yes
Used interface : Installed external ASPI interface

Used output format : User Defined Encoder
Selected bitrate : 1024 kBit/s
Quality : High
Add ID3 tag : Yes
Command line compressor : C:\Program Files (x86)\Exact Audio Copy\Flac\flac.exe
Additional command line options : -6 -V -T "ARTIST=%artist%" -T "TITLE=%title%" -T "ALBUM=%albumtitle%" -T "DATE=%year%" -T "TRACKNUMBER=%tracknr%" -T "GENRE=%genre%" -T "COMMENT=%comment%" -T "BAND=%albuminterpret%" -T "COMPOSER=%composer%" %haslyrics%--tag-from-file=LYRICS="%lyricsfile%"%haslyrics% -T "DISCNUMBER=%cdnumber%" -T "TOTALDISCS=%totalcds%" -T "TOTALTRACKS=%numtracks%" %hascover%--picture="%coverfile%"%hascover% %source% -o %dest%


TOC of the extracted CD

Track | Start | Length | Start sector | End sector
---------------------------------------------------------
1 | 0:00.00 | 3:21.13 | 0 | 15087
2 | 3:21.13 | 4:52.01 | 15088 | 36988
3 | 8:13.14 | 4:02.25 | 36989 | 55163
4 | 12:15.39 | 4:05.62 | 55164 | 73600
5 | 16:21.26 | 3:19.11 | 73601 | 88536
6 | 19:40.37 | 4:11.62 | 88537 | 107423
7 | 23:52.24 | 4:45.04 | 107424 | 128802
8 | 28:37.28 | 4:02.00 | 128803 | 146952
9 | 32:39.28 | 4:18.12 | 146953 | 166314
10 | 36:57.40 | 4:07.61 | 166315 | 184900
11 | 41:05.26 | 6:09.61 | 184901 | 212636
12 | 47:15.12 | 2:43.02 | 212637 | 224863


Range status and errors

Selected range

Filename C:\mm\John Mayer\2006 - Continuum {Music by John Mayer} [82876 79019 2]\John Mayer - Continuum.wav

Peak level 99.8 %
Extraction speed 9.1 X
Range quality 100.0 %
Test CRC 30097B52
Copy CRC 30097B52
Copy OK

No errors occurred


AccurateRip summary

Track 1 accurately ripped (confidence 200) [353EF35F] (AR v2)
Track 2 accurately ripped (confidence 200) [BD435BEF] (AR v2)
Track 3 accurately ripped (confidence 200) [3410B5D7] (AR v2)
Track 4 accurately ripped (confidence 200) [378ACDEA] (AR v2)
Track 5 accurately ripped (confidence 200) [51603921] (AR v2)
Track 6 accurately ripped (confidence 200) [4F537884] (AR v2)
Track 7 accurately ripped (confidence 200) [266BDF6D] (AR v2)
Track 8 accurately ripped (confidence 200) [7CEA04DE] (AR v2)
Track 9 accurately ripped (confidence 200) [89672336] (AR v2)
Track 10 accurately ripped (confidence 200) [C26C60F5] (AR v2)
Track 11 accurately ripped (confidence 200) [B9367C65] (AR v2)
Track 12 accurately ripped (confidence 200) [C16A25D7] (AR v2)

All tracks accurately ripped

End of status report

---- CUETools DB Plugin V2.1.6

[CTDB TOCID: VDPzC2hrb9tRajSECm_554ezANY-] found
Submit result: VDPzC2hrb9tRajSECm_554ezANY- has been confirmed
Track | CTDB Status
1 | (563/564) Accurately ripped
2 | (563/564) Accurately ripped
3 | (562/564) Accurately ripped
4 | (563/564) Accurately ripped
5 | (563/564) Accurately ripped
6 | (563/564) Accurately ripped
7 | (564/564) Accurately ripped
8 | (563/564) Accurately ripped
9 | (562/564) Accurately ripped
10 | (562/564) Accurately ripped
11 | (562/564) Accurately ripped
12 | (562/564) Accurately ripped
[свернуть]

Файл CUE

REM GENRE Blues
REM DATE 2006
REM DISCID AE0BB60C
REM COMMENT "ExactAudioCopy v1.1"
PERFORMER "John Mayer"
TITLE "Continuum"
FILE "John Mayer - Continuum.flac" WAVE
TRACK 01 AUDIO
TITLE "Waiting On The World To Change"
PERFORMER "John Mayer"
INDEX 01 00:00:00
TRACK 02 AUDIO
TITLE "I Don't Trust Myself (With Loving You)"
PERFORMER "John Mayer"
INDEX 01 03:21:13
TRACK 03 AUDIO
TITLE "Belief"
PERFORMER "John Mayer"
INDEX 01 08:13:14
TRACK 04 AUDIO
TITLE "Gravity"
PERFORMER "John Mayer"
INDEX 01 12:15:39
TRACK 05 AUDIO
TITLE "The Heart of Life"
PERFORMER "John Mayer"
INDEX 01 16:21:26
TRACK 06 AUDIO
TITLE "Vultures"
PERFORMER "John Mayer"
INDEX 00 19:39:41
INDEX 01 19:40:37
TRACK 07 AUDIO
TITLE "Stop This Train"
PERFORMER "John Mayer"
INDEX 00 23:51:25
INDEX 01 23:52:24
TRACK 08 AUDIO
TITLE "Slow Dancing In A Burning Room"
PERFORMER "John Mayer"
INDEX 01 28:37:28
TRACK 09 AUDIO
TITLE "Bold As Love"
PERFORMER "John Mayer"
INDEX 01 32:39:28
TRACK 10 AUDIO
TITLE "Dreaming With A Broken Heart"
PERFORMER "John Mayer"
INDEX 01 36:57:40
TRACK 11 AUDIO
TITLE "In Repair"
PERFORMER "John Mayer"
INDEX 00 41:03:21
INDEX 01 41:05:26
TRACK 12 AUDIO
TITLE "I'm Gonna Find Another You"
PERFORMER "John Mayer"
INDEX 00 47:13:12
INDEX 01 47:15:12
[свернуть]

Лог проверки качества

AUDIOCHECKER v2.0 beta (build 457) - by Dester -
~~~~~~~~~~~~~~~~~~~~~~~~~~~~~~~~~~
-=== НЕ РЕДАКТИРУЙТЕ ЭТОТ ФАЙЛ! ===-

Путь: ...\2006 - Continuum {Music by John Mayer} [82876 79019 2]

1 -=- John Mayer - Continuum.flac -=- CDDA (100%)

196902324
[свернуть]

Спектр частот

[свернуть]

Скачать John Mayer - Continuum



password: sergych
[свернуть]
My opinion of release: 10/10
__________________
TAIFUN.Wings of Soul

Вверх
Похожие темы
Тема Автор Раздел Ответов Последнее сообщение
Альбом John Mayer - Heavier Things sergych Pop Rock 1 28.11.2017 06:04
Альбом John Mayer - Room For Squares sergych Pop Rock 1 26.08.2017 14:06
Сборник John Lennon - Lennon Legend: The Very Best Of John Lennon PUPOKIN Rock`n`Roll 0 15.07.2009 14:50
Альбом John Fogerty - The Long Road Home /The Ultimate John Fogerty. Creedence Collection PUPOKIN Rock 0 08.06.2009 12:11
Релиз John ME - I Am John PUPOKIN Pop Rock 0 12.05.2009 10:56


Метки
2006 , blues rock , continuum , john mayer , pop , rock , soul

Опции темы

Ваши права в разделе
Вы не можете создавать новые темы
Вы не можете отвечать в темах
Вы не можете прикреплять вложения
Вы не можете редактировать свои сообщения

Быстрый переход



Текущее время: 04:35. Часовой пояс GMT +3.
Powered by vBulletin® Version 3.8.10
Copyright ©2000 - 2017, vBulletin Solutions, Inc. Перевод: zCarot
© 2008 - 2017 Taifun With Song
Яндекс.Метрика