TAIFUN With Song
Навигация
Вернуться   TAIFUN With Song > Music (обменник) > Rock > Pop Rock
Расширенный поиск
Pop Rock Поп-рок — жанр музыки, объединяющий элементы поп-музыки и рок-музыки. Песни характеризуются простой структурой, запоминающимися мелодиями, повторением музыкальных фраз (от попа), использованием в качестве основных инструментов электрогитар и ударных и агрессивным настроением (от рока).

А знаете ли Вы, что...
Откуда взялось выражение «играть на нервах»?
«Когда древние врачи открыли значение нервов в организме человека, они назвали их по сходству со струнами музыкальных инструментов тем же словом — nervus. Отсюда возникло выражение для раздражающих действий — «играть на нервах».»
 
Опции темы

  #1
Старый 20.02.2012, 17:35
sergych
Координатор
Досье
 
Аватар для sergych
Релиз John Mayer - Room For Squares


2001 - John Mayer - Room For Squares




Исполнитель/Artist: John Mayer
Альбом/Album: Room For Squares
Год/Year: 2001
Ремастеринг/Remaster: 2005
Жанр/Genre: Pop rock, acoustic rock, smooth
Рекорд-лейбл/Record label: Columbia Records / Aware Records
Формат/Format: Free Lossless Audio Codec (*.flac)
Качество/Quality: Lossless
Тип рипа/RIP Type: image+.cue
Продолжительность/Length: 00:54:19
Источник/Source: Из интернета
Размер/Size: 385.5 MB

Сканы в комплекте

Треклист

01 - No Such Thing
02 - Why Georgia
03 - My Stupid Mouth
04 - Your Body Is A Wonderland
05 - Neon
06 - City Love
07 - 83
08 - 3x5
09 - Love Song For No One
10 - Back To You
11 - Great Indoors
12 - Not Myself
13 - (unnamed track)
14 - St. Patrick's Day
[свернуть]

youtube.com

[свернуть]

Исполнители/Performers

John Mayer – Vocal, Guitars, Korg Triton synthesizer, Omnichord, Piano, vibraphone, Vibraslap, Percussion
David LaBruyere – bass
Nir Z – drums
Brandon Bush – Hammond organ, Wurlitzer electric piano, Rhodes piano, Mellotron
John Alagía - Guitar, Percussion, Bells, Engineer, Wurlitzer, Mixing, Producer, Organ (Hammond)
[свернуть]

EAC лог

Exact Audio Copy V0.99 prebeta 3 from 28. July 2007

EAC extraction logfile from 9. February 2009, 12:03

John Mayer / Room For Squares

Used drive : TSSTcorpCDDVDW SE-S204N Adapter: 6 ID: 4

Read mode : Secure
Utilize accurate stream : Yes
Defeat audio cache : Yes
Make use of C2 pointers : No

Read offset correction : 6
Overread into Lead-In and Lead-Out : No
Fill up missing offset samples with silence : Yes
Delete leading and trailing silent blocks : No
Null samples used in CRC calculations : Yes
Used interface : Installed external ASPI interface

Used output format : User Defined Encoder
Selected bitrate : 768 kBit/s
Quality : High
Add ID3 tag : No
Command line compressor : H:\Program Files\Exact Audio Copy\FLAC\FLAC.EXE
Additional command line options : -6 -V -T "ARTIST=%a" -T "TITLE=%t" -T "ALBUM=%g" -T "DATE=%y" -T "TRACKNUMBER=%n" -T "GENRE=%m" -T "COMMENT=%e" %s -o %d


TOC of the extracted CD

Track | Start | Length | Start sector | End sector
---------------------------------------------------------
1 | 0:00.00 | 3:51.35 | 0 | 17359
2 | 3:51.35 | 4:28.73 | 17360 | 37532
3 | 8:20.33 | 3:45.00 | 37533 | 54407
4 | 12:05.33 | 4:09.47 | 54408 | 73129
5 | 16:15.05 | 4:22.08 | 73130 | 92787
6 | 20:37.13 | 4:00.15 | 92788 | 110802
7 | 24:37.28 | 4:50.70 | 110803 | 132622
8 | 29:28.23 | 4:50.30 | 132623 | 154402
9 | 34:18.53 | 3:21.42 | 154403 | 169519
10 | 37:40.20 | 4:01.48 | 169520 | 187642
11 | 41:41.68 | 3:36.27 | 187643 | 203869
12 | 45:18.20 | 3:36.43 | 203870 | 220112
13 | 48:54.63 | 0:04.00 | 220113 | 220412
14 | 48:58.63 | 5:21.07 | 220413 | 244494


Range status and errors

Selected range

Filename C:\TTT\John Mayer - Room For Squares\John Mayer - Room For Squares.wav

Peak level 100.0 %
Range quality 100.0 %
Test CRC BFF7C2EC
Copy CRC BFF7C2EC
Copy OK

No errors occurred


AccurateRip summary

Track 1 cannot be verified as accurate (confidence 7) [EEDA5756], AccurateRip returned [684C10D2]
Track 2 cannot be verified as accurate (confidence 7) [3E99D0BD], AccurateRip returned [D4B2A6C9]
Track 3 cannot be verified as accurate (confidence 6) [170BC333], AccurateRip returned [D8D98F93]
Track 4 cannot be verified as accurate (confidence 6) [C505097C], AccurateRip returned [A7D257FC]
Track 5 cannot be verified as accurate (confidence 5) [EA57D508], AccurateRip returned [87055C94]
Track 6 cannot be verified as accurate (confidence 5) [5B7ACE26], AccurateRip returned [3AE0A366]
Track 7 cannot be verified as accurate (confidence 5) [7C723F7C], AccurateRip returned [100C65AC]
Track 8 cannot be verified as accurate (confidence 5) [86DAB3A2], AccurateRip returned [2F9F347A]
Track 9 cannot be verified as accurate (confidence 5) [FEC11657], AccurateRip returned [8B3A7B1F]
Track 10 cannot be verified as accurate (confidence 5) [38894D70], AccurateRip returned [E29891E7]
Track 11 cannot be verified as accurate (confidence 5) [F92D11C4], AccurateRip returned [1F6F5AC9]
Track 12 cannot be verified as accurate (confidence 5) [A64ACC21], AccurateRip returned [2602B34A]
Track 13 not present in database
Track 14 cannot be verified as accurate (confidence 5) [D681EF55], AccurateRip returned [1145F33D]

13 track(s) could not be verified as accurate
1 track(s) not present in the AccurateRip database

No tracks could be verified as accurate
You may have a different pressing from the one(s) in the database

End of status report
[свернуть]

Файл CUE

REM GENRE Pop-Folk
REM DATE 2001
REM DISCID B70CBB0E
REM COMMENT "ExactAudioCopy v0.99pb3"
PERFORMER "John Mayer"
TITLE "Room For Squares"
FILE "John Mayer - Room For Squares.flac" WAVE
TRACK 01 AUDIO
TITLE "No Such Thing"
PERFORMER "John Mayer"
ISRC H2KM10102940
INDEX 01 00:00:00
TRACK 02 AUDIO
TITLE "Why Georgia"
PERFORMER "John Mayer"
ISRC H2KM10102942
INDEX 01 03:51:35
TRACK 03 AUDIO
TITLE "My Stupid Mouth"
PERFORMER "John Mayer"
ISRC H2KM10102942
INDEX 01 08:20:33
TRACK 04 AUDIO
TITLE "Your Body Is A Wonderland"
PERFORMER "John Mayer"
ISRC H2KM10102943
INDEX 00 12:04:30
INDEX 01 12:05:33
TRACK 05 AUDIO
TITLE "Neon"
PERFORMER "John Mayer"
ISRC H2KM10102941
INDEX 01 16:15:05
TRACK 06 AUDIO
TITLE "City Love"
PERFORMER "John Mayer"
ISRC H2KM10102947
INDEX 01 20:37:13
TRACK 07 AUDIO
TITLE "83"
PERFORMER "John Mayer"
ISRC H2KM10102945
INDEX 01 24:37:28
TRACK 08 AUDIO
TITLE "3x5"
PERFORMER "John Mayer"
ISRC H2KM10102945
INDEX 01 29:28:23
TRACK 09 AUDIO
TITLE "Love Song For No One"
PERFORMER "John Mayer"
ISRC H2KM10102948
INDEX 00 34:17:40
INDEX 01 34:18:53
TRACK 10 AUDIO
TITLE "Back To You"
PERFORMER "John Mayer"
ISRC H2KM10102939
INDEX 01 37:40:20
TRACK 11 AUDIO
TITLE "Great Indoors"
PERFORMER "John Mayer"
ISRC H2KM10102939
INDEX 01 41:41:68
TRACK 12 AUDIO
TITLE "Not Myself"
PERFORMER "John Mayer"
ISRC H2KM10102944
INDEX 01 45:18:20
TRACK 13 AUDIO
TITLE "(unnamed track)"
PERFORMER "John Mayer"
ISRC H2KM10102949
INDEX 01 48:54:63
TRACK 14 AUDIO
TITLE "St. Patrick's Day"
PERFORMER "John Mayer"
ISRC H2KM10102949
INDEX 01 48:58:63
[свернуть]

Лог проверки качества

AUDIOCHECKER v2.0 beta (build 457) - by Dester -
~~~~~~~~~~~~~~~~~~~~~~~~~~~~~~~~~~
-=== НЕ РЕДАКТИРУЙТЕ ЭТОТ ФАЙЛ! ===-

Путь: ...\2001 - Room For Squares

1 -=- John Mayer - Room For Squares.flac -=- CDDA (100%)

228277028
[свернуть]

Скачать John Mayer - Room For Squares



password: sergych
[свернуть]
My opinion of release: 8/10

Release info RInfo

Переиздание альбома 2001 года студией Columbia Records с дополнительным треком "3x5" на двухстороннем диске, вторая сторона которого (DVD) записана в формате 5.1 Surround
__________________
TAIFUN.Wings of Soul


Последний раз редактировалось sergych, 05.07.2014 в 15:36. Причина: перезаливка
Вверх
  #2
Старый 26.08.2017, 14:06
sergych
Координатор
Досье
 
Аватар для sergych
Релиз Re: John Mayer - Room For Squares


2002 - John Mayer - Room For Squares




Исполнитель/Artist: John Mayer
Альбом/Album: Room For Squares
Год/Year: 2001
Ремастеринг/Remaster: 2002
Жанр/Genre: Pop rock, acoustic rock, smooth rock
Страна/Country: Япония
Рекорд-лейбл/Record label: Sony Music
Номер в каталоге/Catalogue #: SICP 119
Формат/Format: Free Lossless Audio Codec (*.flac)
Качество/Quality: Lossless
Тип рипа/RIP Type: image+.cue
Продолжительность/Length: 01:00:14
Источник/Source: Собственный рип
Размер/Size: 457.1 MB

Сканы в комплекте

Треклист

01. No Such Thing [0:03:51.51]
02. Why Georgia [0:04:28.61]
03. My Stupid Mouth [0:03:45.08]
04. Your Body Is A Wonderland [0:04:09.40]
05. Neon [0:04:22.06]
06. City Love [0:04:00.14]
07. 83 [0:04:50.71]
08. 3x5 [0:04:50.40]
09. Love Song For No One [0:03:21.32]
10. Back To You [0:04:01.57]
11. Great Indoors [0:03:36.18]
12. Not Myself [0:03:40.42]
13. St. Patrick's Day [0:05:26.00]
14. Lenny [0:02:10.39]
15. The Wind Cries Mary (Live At The X-Lounge) [0:03:38.29]
[свернуть]

youtube.com

[свернуть]

Исполнители/Performers

John Mayer – vocal, guitars, Korg Triton synthesizer, omnichord, piano, vibraphone, vibraslap, percussion
David LaBruyere – bass
Nir Z – drums, percussion
Brandon Bush – Hammond organ, Wurlitzer electric piano, Rhodes piano, mellotron
John Alagía - guitar, percussion, bells, Wurlitzer, Hammond Organ
Clay Cook, Doug Derryberry – backing vocals (2, 5, 9)
Chris Fischer – congas (4)
Carole Rabinowitz, Jon Catchings – cello (6)
Kristin Wilkinson – viola (6)
David Angell, David Davidson – violin (6)
Jerry Marotta – drums (8)
[свернуть]

EAC лог

Exact Audio Copy V1.3 from 2. September 2016

EAC extraction logfile from 25. August 2017, 1:05

John Mayer / Room For Squares

Used drive : PLEXTOR DVDR PX-716A Adapter: 1 ID: 0

Read mode : Secure
Utilize accurate stream : Yes
Defeat audio cache : Yes
Make use of C2 pointers : No

Read offset correction : 30
Overread into Lead-In and Lead-Out : No
Fill up missing offset samples with silence : Yes
Delete leading and trailing silent blocks : No
Null samples used in CRC calculations : Yes
Used interface : Installed external ASPI interface

Used output format : User Defined Encoder
Selected bitrate : 1024 kBit/s
Quality : High
Add ID3 tag : No
Command line compressor : C:\Program Files (x86)\Exact Audio Copy\Flac\flac.exe
Additional command line options : -6 -V -T "ARTIST=%artist%" -T "TITLE=%title%" -T "ALBUM=%albumtitle%" -T "DATE=%year%" -T "TRACKNUMBER=%tracknr%" -T "GENRE=%genre%" -T "COMMENT=%comment%" -T "BAND=%albuminterpret%" -T "ALBUMARTIST=%albuminterpret%" -T "COMPOSER=%composer%" %haslyrics%--tag-from-file=LYRICS="%lyricsfile%"%haslyrics% -T "DISCNUMBER=%cdnumber%" -T "TOTALDISCS=%totalcds%" -T "TOTALTRACKS=%numtracks%" %hascover%--picture="%coverfile%"%hascover% %source% -o %dest%


TOC of the extracted CD

Track | Start | Length | Start sector | End sector
---------------------------------------------------------
1 | 0:00.00 | 3:51.51 | 0 | 17375
2 | 3:51.51 | 4:28.61 | 17376 | 37536
3 | 8:20.37 | 3:45.08 | 37537 | 54419
4 | 12:05.45 | 4:09.40 | 54420 | 73134
5 | 16:15.10 | 4:22.06 | 73135 | 92790
6 | 20:37.16 | 4:00.14 | 92791 | 110804
7 | 24:37.30 | 4:50.71 | 110805 | 132625
8 | 29:28.26 | 4:50.40 | 132626 | 154415
9 | 34:18.66 | 3:21.32 | 154416 | 169522
10 | 37:40.23 | 4:01.57 | 169523 | 187654
11 | 41:42.05 | 3:36.18 | 187655 | 203872
12 | 45:18.23 | 3:40.42 | 203873 | 220414
13 | 48:58.65 | 5:26.00 | 220415 | 244864
14 | 54:24.65 | 2:10.39 | 244865 | 254653
15 | 56:35.29 | 3:38.29 | 254654 | 271032


Range status and errors

Selected range

Filename C:\mm\John Mayer\2002 - Room For Squares [SICP 119]\John Mayer - Room For Squares.wav

Peak level 100.0 %
Extraction speed 13.3 X
Range quality 100.0 %
Test CRC 3A35FFD4
Copy CRC 3A35FFD4
Copy OK

No errors occurred

End of status report

---- CUETools DB Plugin V2.1.6

[CTDB TOCID: 7WqUk8wJAC1NhAQOcA_yc7goWws-] found
Submit result: already submitted
Track | CTDB Status
1 | (98/98) Accurately ripped
2 | (98/98) Accurately ripped
3 | (98/98) Accurately ripped
4 | (97/98) Accurately ripped
5 | (98/98) Accurately ripped
6 | (98/98) Accurately ripped
7 | (98/98) Accurately ripped
8 | (97/98) Accurately ripped
9 | (96/98) Accurately ripped
10 | (96/98) Accurately ripped
11 | (97/98) Accurately ripped
12 | (98/98) Accurately ripped
13 | (96/98) Accurately ripped
14 | (97/98) Accurately ripped
15 | (97/98) Accurately ripped
[свернуть]

Файл CUE

REM GENRE Blues
REM DATE 2002
REM DISCID CB0E1D0F
REM COMMENT "ExactAudioCopy v1.3"
PERFORMER "John Mayer"
TITLE "Room For Squares"
REM COMPOSER ""
FILE "John Mayer - Room For Squares.flac" WAVE
TRACK 01 AUDIO
TITLE "No Such Thing"
PERFORMER "John Mayer"
REM COMPOSER ""
INDEX 01 00:00:00
TRACK 02 AUDIO
TITLE "Why Georgia"
PERFORMER "John Mayer"
REM COMPOSER ""
INDEX 01 03:51:51
TRACK 03 AUDIO
TITLE "My Stupid Mouth"
PERFORMER "John Mayer"
REM COMPOSER ""
INDEX 01 08:20:37
TRACK 04 AUDIO
TITLE "Your Body Is A Wonderland"
PERFORMER "John Mayer"
REM COMPOSER ""
INDEX 01 12:05:45
TRACK 05 AUDIO
TITLE "Neon"
PERFORMER "John Mayer"
REM COMPOSER ""
INDEX 01 16:15:10
TRACK 06 AUDIO
TITLE "City Love"
PERFORMER "John Mayer"
REM COMPOSER ""
INDEX 01 20:37:16
TRACK 07 AUDIO
TITLE "83"
PERFORMER "John Mayer"
REM COMPOSER ""
INDEX 01 24:37:30
TRACK 08 AUDIO
TITLE "3x5"
PERFORMER "John Mayer"
REM COMPOSER ""
INDEX 01 29:28:26
TRACK 09 AUDIO
TITLE "Love Song For No One"
PERFORMER "John Mayer"
REM COMPOSER ""
INDEX 01 34:18:66
TRACK 10 AUDIO
TITLE "Back To You"
PERFORMER "John Mayer"
REM COMPOSER ""
INDEX 01 37:40:23
TRACK 11 AUDIO
TITLE "Great Indoors"
PERFORMER "John Mayer"
REM COMPOSER ""
INDEX 01 41:42:05
TRACK 12 AUDIO
TITLE "Not Myself"
PERFORMER "John Mayer"
REM COMPOSER ""
INDEX 01 45:18:23
TRACK 13 AUDIO
TITLE "St. Patrick's Day"
PERFORMER "John Mayer"
REM COMPOSER ""
INDEX 00 48:57:63
INDEX 01 48:58:65
TRACK 14 AUDIO
TITLE "Lenny"
PERFORMER "John Mayer"
REM COMPOSER ""
INDEX 00 54:20:01
INDEX 01 54:24:65
TRACK 15 AUDIO
TITLE "The Wind Cries Mary (Live At The X-Lounge)"
PERFORMER "John Mayer"
REM COMPOSER ""
INDEX 00 56:34:03
INDEX 01 56:35:29
[свернуть]

Лог проверки качества

AUDIOCHECKER v2.0 beta (build 457) - by Dester -
~~~~~~~~~~~~~~~~~~~~~~~~~~~~~~~~~~
-=== НЕ РЕДАКТИРУЙТЕ ЭТОТ ФАЙЛ! ===-

Путь: ...\2002 - Room For Squares [SICP 119]

1 -=- John Mayer - Room For Squares.flac -=- CDDA (100%)

228277028
[свернуть]

Спектр частот

[свернуть]

Скачать John Mayer - Room For Squares



password: sergych
[свернуть]

Контрольная сумма (хеш-сумма) архива

MD5: 36619de256a92ea171ab166fb6ce1d43
[свернуть]
My opinion of release: 10/10

Release info RInfo

В дополнение темы, - "свой" японец, изданный "тётей Соней" в 2002 году с бонус-треками
__________________
TAIFUN.Wings of Soul

Вверх
2 пользователя(ей) сказали cпасибо:
johnsilver (26.08.2017), swint68 (26.08.2017)
Похожие темы
Тема Автор Раздел Ответов Последнее сообщение
Сборник Red Room Chill Out Lounge PUPOKIN Downtempo 0 02.12.2009 13:53
Релиз Living Room - Changes PUPOKIN Lounge 0 10.06.2009 10:54
Альбом John Fogerty - The Long Road Home /The Ultimate John Fogerty. Creedence Collection PUPOKIN Rock 0 08.06.2009 12:11
Релиз Joe Budden - Padded Room PUPOKIN Зарубежный 0 10.03.2009 11:26
Альбом Fat Joe - The Elephant in the Room Alex1990 Зарубежный 0 06.05.2008 20:31


Метки
2001 , 2002 , acoustic rock , john mayer , pop rock , room for squares , smooth rock

Опции темы

Ваши права в разделе
Вы не можете создавать новые темы
Вы не можете отвечать в темах
Вы не можете прикреплять вложения
Вы не можете редактировать свои сообщения

Быстрый переход



Текущее время: 04:35. Часовой пояс GMT +3.
Powered by vBulletin® Version 3.8.10
Copyright ©2000 - 2017, vBulletin Solutions, Inc. Перевод: zCarot
© 2008 - 2017 Taifun With Song
Яндекс.Метрика