TAIFUN With Song
Навигация
А знаете ли Вы, что...
Каким образом Эдит Пиаф помогала бежать из немецких лагерей французским военнопленным?
«Французская певица Эдит Пиаф в период оккупации выступала в лагерях для военнопленных на территории Германии, после которых фотографировалась на память с ними и немецкими офицерами. Затем в Париже лица военнопленных вырезали и вклеивали в фальшивые документы. Пиаф ехала в лагерь с повторным визитом и тайно провозила эти паспорта, с которыми некоторым пленным удавалось бежать.»
 
Опции темы

  #1
Старый 01.09.2017, 19:02
sergych
Координатор
Досье
 
Аватар для sergych
Релиз Diana Krall - Wallflower


2015 - Diana Krall - Wallflower {The Complete Sessions}




Исполнитель/Artist: Diana Krall
Альбом/Album: Wallflower {The Complete Sessions}
Год/Year: 2015
Жанр/Genre: pop, pop rock
Страна/Country: Аргентина
Рекорд-лейбл/Record label: Verve / Universal Music
Номер в каталоге/Catalogue #: 4754195
Формат/Format: Free Lossless Audio Codec (*.flac)
Качество/Quality: Lossless
Тип рипа/RIP Type: image+.cue
Продолжительность/Length: 01:14:29
Источник/Source: Собственный рип
Размер/Size: 445.4 MB

Сканы в комплекте

Треклист

01. California Dreamin' [0:03:17.11]
02. Desperado [0:03:32.16]
03. Superstar [0:04:17.28]
04. Alone Again ( Naturally)(duet with Michael Bublè) [0:03:50.51]
05. Wallflower ( feat. Blake Mills) [0:03:05.52]
06. If I Take You Home Tonight [0:03:53.18]
07. I Can't Tell You Why [0:03:40.26]
08. Sorry Seems To Be The Hardest Word [0:04:11.00]
09. Operator (That's Not The Way It Feels) [0:03:41.66]
10. I'm Not In Love [0:03:52.65]
11. Feels Like Home (duet with Bryan Adams) [0:04:21.38]
12. Don't Dream It's Over [0:03:37.69]

Bonus tracks:
13. In My Life [0:03:53.33]
14. Yeh Yeh (duet with Georgie Fame) [0:03:08.05]
15. Sorry Seems To Be The Hardest Word (Live) [0:03:44.11]
16. Wallflower (Live) [0:03:11.17]
17. A Case Of You [0:04:56.13]
18. If You Could Read My Mind (duet with Sarah McLachlan) [0:03:45.58]
19. Everybody's Talkin' (duet with Vince Gill) [0:03:37.14]
20. Heart Of Gold [0:02:50.72]
[свернуть]

youtube.com

[свернуть]

EAC лог

Exact Audio Copy V1.3 from 2. September 2016

EAC extraction logfile from 31. August 2017, 21:13

Diana Krall / Wallflower. The Complete Sessions

Used drive : PLEXTOR DVDR PX-716A Adapter: 1 ID: 0

Read mode : Secure
Utilize accurate stream : Yes
Defeat audio cache : Yes
Make use of C2 pointers : No

Read offset correction : 30
Overread into Lead-In and Lead-Out : No
Fill up missing offset samples with silence : Yes
Delete leading and trailing silent blocks : No
Null samples used in CRC calculations : Yes
Used interface : Installed external ASPI interface

Used output format : User Defined Encoder
Selected bitrate : 1024 kBit/s
Quality : High
Add ID3 tag : No
Command line compressor : C:\Program Files (x86)\Exact Audio Copy\Flac\flac.exe
Additional command line options : -6 -V -T "ARTIST=%artist%" -T "TITLE=%title%" -T "ALBUM=%albumtitle%" -T "DATE=%year%" -T "TRACKNUMBER=%tracknr%" -T "GENRE=%genre%" -T "COMMENT=%comment%" -T "BAND=%albuminterpret%" -T "ALBUMARTIST=%albuminterpret%" -T "COMPOSER=%composer%" %haslyrics%--tag-from-file=LYRICS="%lyricsfile%"%haslyrics% -T "DISCNUMBER=%cdnumber%" -T "TOTALDISCS=%totalcds%" -T "TOTALTRACKS=%numtracks%" %hascover%--picture="%coverfile%"%hascover% %source% -o %dest%


TOC of the extracted CD

Track | Start | Length | Start sector | End sector
---------------------------------------------------------
1 | 0:00.00 | 3:17.11 | 0 | 14785
2 | 3:17.11 | 3:32.16 | 14786 | 30701
3 | 6:49.27 | 4:17.28 | 30702 | 50004
4 | 11:06.55 | 3:50.51 | 50005 | 67305
5 | 14:57.31 | 3:05.52 | 67306 | 81232
6 | 18:03.08 | 3:53.18 | 81233 | 98725
7 | 21:56.26 | 3:40.26 | 98726 | 115251
8 | 25:36.52 | 4:11.00 | 115252 | 134076
9 | 29:47.52 | 3:41.66 | 134077 | 150717
10 | 33:29.43 | 3:52.65 | 150718 | 168182
11 | 37:22.33 | 4:21.38 | 168183 | 187795
12 | 41:43.71 | 3:37.69 | 187796 | 204139
13 | 45:21.65 | 3:53.33 | 204140 | 221647
14 | 49:15.23 | 3:08.05 | 221648 | 235752
15 | 52:23.28 | 3:44.11 | 235753 | 252563
16 | 56:07.39 | 3:11.17 | 252564 | 266905
17 | 59:18.56 | 4:56.13 | 266906 | 289118
18 | 64:14.69 | 3:45.58 | 289119 | 306051
19 | 68:00.52 | 3:37.14 | 306052 | 322340
20 | 71:37.66 | 2:50.72 | 322341 | 335162


Range status and errors

Selected range

Filename C:\mm\Diana Krall\2015 - Wallflower. The Complete Sessions [4754195]\Diana Krall - Wallflower. The Complete Sessions.wav

Peak level 100.0 %
Extraction speed 3.8 X
Range quality 100.0 %
Test CRC 5084BBD8
Copy CRC 5084BBD8
Copy OK

No errors occurred

End of status report

---- CUETools DB Plugin V2.1.6

[CTDB TOCID: YRkl_A1MI9YRODNQKhicxTc.yRE-] found
Submit result: YRkl_A1MI9YRODNQKhicxTc.yRE- has been confirmed
Track | CTDB Status
1 | (266/266) Accurately ripped
2 | (266/266) Accurately ripped
3 | (264/266) Accurately ripped
4 | (265/266) Accurately ripped
5 | (265/266) Accurately ripped
6 | (265/266) Accurately ripped
7 | (265/266) Accurately ripped
8 | (265/266) Accurately ripped
9 | (265/266) Accurately ripped
10 | (266/266) Accurately ripped
11 | (266/266) Accurately ripped
12 | (266/266) Accurately ripped
13 | (265/266) Accurately ripped
14 | (266/266) Accurately ripped
15 | (266/266) Accurately ripped
16 | (264/266) Accurately ripped
17 | (266/266) Accurately ripped
18 | (265/266) Accurately ripped
19 | (265/266) Accurately ripped
20 | (266/266) Accurately ripped
[свернуть]

Файл CUE

REM GENRE Jazz
REM DATE 2015
REM DISCID 3C117414
REM COMMENT "ExactAudioCopy v1.3"
PERFORMER "Diana Krall"
TITLE "Wallflower. The Complete Sessions"
REM COMPOSER ""
FILE "Diana Krall - Wallflower. The Complete Sessions.flac" WAVE
TRACK 01 AUDIO
TITLE "California Dreamin'"
PERFORMER "Diana Krall"
REM COMPOSER ""
FLAGS DCP
INDEX 01 00:00:00
TRACK 02 AUDIO
TITLE "Desperado"
PERFORMER "Diana Krall"
REM COMPOSER ""
FLAGS DCP
INDEX 01 03:17:11
TRACK 03 AUDIO
TITLE "Superstar"
PERFORMER "Diana Krall"
REM COMPOSER ""
FLAGS DCP
INDEX 01 06:49:27
TRACK 04 AUDIO
TITLE "Alone Again ( Naturally)(duet with Michael Buble)"
PERFORMER "Diana Krall"
REM COMPOSER ""
FLAGS DCP
INDEX 01 11:06:55
TRACK 05 AUDIO
TITLE "Wallflower ( feat. Blake Mills)"
PERFORMER "Diana Krall"
REM COMPOSER ""
FLAGS DCP
INDEX 01 14:57:31
TRACK 06 AUDIO
TITLE "If I Take You Home Tonight"
PERFORMER "Diana Krall"
REM COMPOSER ""
FLAGS DCP
INDEX 01 18:03:08
TRACK 07 AUDIO
TITLE "I Can't Tell You Why"
PERFORMER "Diana Krall"
REM COMPOSER ""
FLAGS DCP
INDEX 01 21:56:26
TRACK 08 AUDIO
TITLE "Sorry Seems To Be The Hardest Word"
PERFORMER "Diana Krall"
REM COMPOSER ""
FLAGS DCP
INDEX 01 25:36:52
TRACK 09 AUDIO
TITLE "Operator (That's Not The Way It Feels)"
PERFORMER "Diana Krall"
REM COMPOSER ""
FLAGS DCP
INDEX 01 29:47:52
TRACK 10 AUDIO
TITLE "I'm Not In Love"
PERFORMER "Diana Krall"
REM COMPOSER ""
FLAGS DCP
INDEX 01 33:29:43
TRACK 11 AUDIO
TITLE "Feels Like Home (duet with Bryan Adams)"
PERFORMER "Diana Krall"
REM COMPOSER ""
FLAGS DCP
INDEX 01 37:22:33
TRACK 12 AUDIO
TITLE "Don't Dream It's Over"
PERFORMER "Diana Krall"
REM COMPOSER ""
FLAGS DCP
INDEX 01 41:43:71
TRACK 13 AUDIO
TITLE "In My Life"
PERFORMER "Diana Krall"
REM COMPOSER ""
FLAGS DCP
INDEX 01 45:21:65
TRACK 14 AUDIO
TITLE "Yeh Yeh (duet with GeorgieFame)"
PERFORMER "Diana Krall"
REM COMPOSER ""
FLAGS DCP
INDEX 01 49:15:23
TRACK 15 AUDIO
TITLE "Sorry Seems To Be The Hardest Word (Live)"
PERFORMER "Diana Krall"
REM COMPOSER ""
FLAGS DCP
INDEX 01 52:23:28
TRACK 16 AUDIO
TITLE "Wallflower (Live)"
PERFORMER "Diana Krall"
REM COMPOSER ""
FLAGS DCP
INDEX 01 56:07:39
TRACK 17 AUDIO
TITLE "A Case Of You"
PERFORMER "Diana Krall"
REM COMPOSER ""
INDEX 01 59:18:56
TRACK 18 AUDIO
TITLE "If You Could Read My Mind (duet with Sarah McLachlan)"
PERFORMER "Diana Krall"
REM COMPOSER ""
INDEX 01 64:14:69
TRACK 19 AUDIO
TITLE "Everybody's Talkin' (duet with Vince Gill)"
PERFORMER "Diana Krall"
REM COMPOSER ""
INDEX 01 68:00:52
TRACK 20 AUDIO
TITLE "Heart Of Gold"
PERFORMER "Diana Krall"
REM COMPOSER ""
INDEX 01 71:37:66
[свернуть]

Лог проверки качества

AUDIOCHECKER v2.0 beta (build 457) - by Dester -
~~~~~~~~~~~~~~~~~~~~~~~~~~~~~~~~~~
-=== НЕ РЕДАКТИРУЙТЕ ЭТОТ ФАЙЛ! ===-

Путь: ...\2015 - Wallflower. The Complete Sessions [4754195]

1 -=- Diana Krall - Wallflower. The Complete Sessions.flac -=- CDDA (100%)

93160500
[свернуть]

Спектр частот

[свернуть]

Скачать Diana Krall - Wallflower



password: sergych
[свернуть]

Контрольная сумма (хеш-сумма) архива

MD5: aea41c33ac659f0aaf73517204262134
[свернуть]
My opinion of release: 10/10
__________________
TAIFUN.Wings of Soul

Вверх
4 пользователя(ей) сказали cпасибо:
Показать список поблагодаривших
  #2
Старый 02.09.2017, 10:20
swint68
Меломан
Досье
 
Аватар для swint68
По умолчанию Re: Diana Krall - Wallflower

Шикарное издание!
Спасибо, дружище!

Вверх
Пользователь сказал cпасибо:
sergych (02.09.2017)
Похожие темы
Тема Автор Раздел Ответов Последнее сообщение
Сборник Diana Krall - The Very Best Of Diana Krall sergych Jazz и Blues 2 29.10.2017 20:26
Альбом Diana Krall - When I Look In Your Eyes sergych Jazz и Blues 1 13.01.2016 17:56
Альбом Diana Krall - The Look Of Love sergych Jazz и Blues 1 15.03.2014 13:16
Альбом Diana Krall - From This Moment On sergych Jazz и Blues 0 25.09.2013 20:37
Альбом Diana Krall - Stepping Out sergych Jazz и Blues 0 23.09.2013 18:47


Метки
2015 , diana krall , pop , pop rock , wallflower {the complete sessions}

Опции темы

Ваши права в разделе
Вы не можете создавать новые темы
Вы не можете отвечать в темах
Вы не можете прикреплять вложения
Вы не можете редактировать свои сообщения

Быстрый переход



Текущее время: 17:41. Часовой пояс GMT +3.
Powered by vBulletin® Version 3.8.10
Copyright ©2000 - 2018, vBulletin Solutions, Inc. Перевод: zCarot
© 2008 - 2018 Taifun With Song
Яндекс.Метрика