TAIFUN With Song
Навигация
Jazz и Blues Гибкая ритмика, импровизационное начало, гармонии и мелодии - все это Jazz. Blues - жизнеутверждающая музыка, рожденная из душевной боли

А знаете ли Вы, что...
Влияние скрипки на пауков!
«Если заиграть перед пауками на скрипке, то они выйдут из своих укрытий!»
 
Опции темы

  #1
Старый 18.09.2015, 20:21
sergych
Координатор
Досье
 
Аватар для sergych
Релиз Noa - Noa


1994 - Noa - Noa




Исполнитель/Artist: Noa (Achinoam Nini)
Альбом/Album: Noa
Год/Year: 1994
Жанр/Genre: jazz, pop, folk
Страна/Country: Япония
Рекорд-лейбл/Record label: Geffen Records
Номер в каталоге/Catalogue #: MVCG-151
Формат/Format: Free Lossless Audio Codec (*.flac)
Качество/Quality: Lossless
Тип рипа/RIP Type: image+.cue
Продолжительность/Length: 00:39:26
Источник/Source: Собственный рип
Размер/Size: 256.5 MB

Сканы в комплекте

Треклист

01. I Don't Know [0:04:29.43]
02. Wildflower [0:04:17.37]
03. Mishaela [0:03:08.70]
04. Path To Follow [0:03:11.70]
05. Child Of Man [0:04:27.28]
06. Eye Opener [0:03:21.57]
07. Lady Night [0:02:28.03]
08. Uri [0:03:59.35]
09. It's Obvious [0:02:55.15]
10. Desire [0:02:41.42]
11. Ave Maria [0:04:23.58]
[свернуть]

youtube.com

[свернуть]

EAC лог

Exact Audio Copy V1.0 beta 3 from 29. August 2011

EAC extraction logfile from 17. September 2015, 23:28

Noa / Noa

Used drive : ATAPI iHAS124 D Adapter: 0 ID: 2

Read mode : Secure
Utilize accurate stream : Yes
Defeat audio cache : Yes
Make use of C2 pointers : No

Read offset correction : 6
Overread into Lead-In and Lead-Out : No
Fill up missing offset samples with silence : Yes
Delete leading and trailing silent blocks : No
Null samples used in CRC calculations : Yes
Used interface : Installed external ASPI interface

Used output format : User Defined Encoder
Selected bitrate : 1024 kBit/s
Quality : High
Add ID3 tag : No
Command line compressor : C:\Program Files (x86)\Exact Audio Copy\Flac\flac.exe
Additional command line options : -6 -V -T "ARTIST=%artist%" -T "TITLE=%title%" -T "ALBUM=%albumtitle%" -T "DATE=%year%" -T "TRACKNUMBER=%tracknr%" -T "GENRE=%genre%" -T "COMMENT=%comment%" -T "BAND=%albuminterpret%" -T "COMPOSER=%composer%" %haslyrics%--tag-from-file=LYRICS="%lyricsfile%"%haslyrics% -T "DISCNUMBER=%cdnumber%" -T "TOTALDISCS=%totalcds%" -T "TOTALTRACKS=%numtracks%" %hascover%--picture="%coverfile%"%hascover% %source% -o %dest%


TOC of the extracted CD

Track | Start | Length | Start sector | End sector
---------------------------------------------------------
1 | 0:00.37 | 4:29.43 | 37 | 20254
2 | 4:30.05 | 4:17.37 | 20255 | 39566
3 | 8:47.42 | 3:08.70 | 39567 | 53736
4 | 11:56.37 | 3:11.70 | 53737 | 68131
5 | 15:08.32 | 4:27.28 | 68132 | 88184
6 | 19:35.60 | 3:21.57 | 88185 | 103316
7 | 22:57.42 | 2:28.03 | 103317 | 114419
8 | 25:25.45 | 3:59.35 | 114420 | 132379
9 | 29:25.05 | 2:55.15 | 132380 | 145519
10 | 32:20.20 | 2:41.42 | 145520 | 157636
11 | 35:01.62 | 4:23.58 | 157637 | 177419


Range status and errors

Selected range

Filename C:\mm\Noa\1994 - Noa [MVCG-151]\Noa - Noa.wav

Peak level 100.0 %
Extraction speed 8.1 X
Range quality 100.0 %
Test CRC 1F128571
Copy CRC 1F128571
Copy OK

No errors occurred


AccurateRip summary

Track 1 accurately ripped (confidence 2) [3857A7EA] (AR v2)
Track 2 accurately ripped (confidence 2) [1CF30905] (AR v2)
Track 3 accurately ripped (confidence 2) [BBDB96EA] (AR v2)
Track 4 accurately ripped (confidence 2) [C3912283] (AR v2)
Track 5 accurately ripped (confidence 2) [431290C6] (AR v2)
Track 6 accurately ripped (confidence 2) [F61B8D0A] (AR v2)
Track 7 accurately ripped (confidence 2) [8AD87969] (AR v2)
Track 8 accurately ripped (confidence 2) [A3720B71] (AR v2)
Track 9 accurately ripped (confidence 2) [EEDE2AA9] (AR v2)
Track 10 accurately ripped (confidence 2) [74155945] (AR v2)
Track 11 accurately ripped (confidence 2) [3F3CC6E3] (AR v2)

All tracks accurately ripped

End of status report
[свернуть]

Файл CUE

REM GENRE Folk
REM DATE 1994
REM DISCID 95093D0B
REM COMMENT "ExactAudioCopy v1.0b3"
PERFORMER "Noa"
TITLE "Noa"
FILE "Noa - Noa.flac" WAVE
TRACK 01 AUDIO
TITLE "I Don't Know"
PERFORMER "Noa"
INDEX 00 00:00:00
INDEX 01 00:00:37
TRACK 02 AUDIO
TITLE "Wildflower"
PERFORMER "Noa"
INDEX 00 04:26:18
INDEX 01 04:30:05
TRACK 03 AUDIO
TITLE "Mishaela"
PERFORMER "Noa"
INDEX 00 08:46:48
INDEX 01 08:47:42
TRACK 04 AUDIO
TITLE "Path To Follow"
PERFORMER "Noa"
INDEX 00 11:54:33
INDEX 01 11:56:37
TRACK 05 AUDIO
TITLE "Child Of Man"
PERFORMER "Noa"
INDEX 00 15:07:63
INDEX 01 15:08:32
TRACK 06 AUDIO
TITLE "Eye Opener"
PERFORMER "Noa"
INDEX 00 19:35:28
INDEX 01 19:35:60
TRACK 07 AUDIO
TITLE "Lady Night"
PERFORMER "Noa"
INDEX 00 22:55:07
INDEX 01 22:57:42
TRACK 08 AUDIO
TITLE "Uri"
PERFORMER "Noa"
INDEX 00 25:23:41
INDEX 01 25:25:45
TRACK 09 AUDIO
TITLE "It's Obvious"
PERFORMER "Noa"
INDEX 00 29:22:36
INDEX 01 29:25:05
TRACK 10 AUDIO
TITLE "Desire"
PERFORMER "Noa"
INDEX 00 32:18:13
INDEX 01 32:20:20
TRACK 11 AUDIO
TITLE "Ave Maria"
PERFORMER "Noa"
INDEX 00 35:00:03
INDEX 01 35:01:62
[свернуть]

Лог проверки качества

AUDIOCHECKER v2.0 beta (build 457) - by Dester -
~~~~~~~~~~~~~~~~~~~~~~~~~~~~~~~~~~
-=== НЕ РЕДАКТИРУЙТЕ ЭТОТ ФАЙЛ! ===-

Путь: ...\1994 - Noa [MVCG-151]

1 -=- Noa - Noa.flac -=- CDDA (100%)

121801028
[свернуть]

Спектр частот

[свернуть]

Скачать Noa - Noa



password: sergych
[свернуть]
My opinion of release: 9/10
__________________
TAIFUN.Wings of Soul

Вверх

Метки
1994 , achinoam nini , ballads , folk , jazz , noa , noa (achinoam nini) , pop

Опции темы

Ваши права в разделе
Вы не можете создавать новые темы
Вы не можете отвечать в темах
Вы не можете прикреплять вложения
Вы не можете редактировать свои сообщения

Быстрый переход



Текущее время: 12:00. Часовой пояс GMT +3.
Powered by vBulletin® Version 3.8.10
Copyright ©2000 - 2018, vBulletin Solutions, Inc. Перевод: zCarot
© 2008 - 2018 Taifun With Song
Яндекс.Метрика