TAIFUN With Song
Навигация
Jazz и Blues Гибкая ритмика, импровизационное начало, гармонии и мелодии - все это Jazz. Blues - жизнеутверждающая музыка, рожденная из душевной боли

А знаете ли Вы, что...
Влияние скрипки на пауков!
«Если заиграть перед пауками на скрипке, то они выйдут из своих укрытий!»
 
Опции темы

  #1
Старый 31.12.2017, 20:31
sergych
Координатор
Досье
 
Аватар для sergych
Релиз Tom Waits - Live In Concert


1977(2008) - Tom Waits - Live In Concert




Исполнитель/Artist: Tom Waits
Альбом/Album: Live In Concert
Год/Year: 1977
Ремастеринг/Remaster: 2008
Жанр/Genre: Rock, Blues Rock
Страна/Country: Соединённые Штаты
Рекорд-лейбл/Record label: Woodstock Tapes
Номер в каталоге/Catalogue #: WT 5112
Формат/Format: Free Lossless Audio Codec (*.flac)
Качество/Quality: Lossless
Тип рипа/RIP Type: tracks+.cue
Продолжительность/Length: 01:07:44
Источник/Source: Из интернета
Размер/Size: 420.4 MB

Сканы в комплекте

Треклист

01 - Spare Parts [5:21]
02 - Invitation To The Blues [6:44]
03 - Depot, Depot [3:20]
04 - The Piano Has Been Drinking [3:25]
05 - Pasties & A G-string [4:43]
06 - Step Right Up [4:05]
07 - Semi Suite [3:42]
08 - Fumblin' With The Blues [2:39]
09 - Midnight Lullaby [3:41]
10 - Emotional Weather Report [3:26]
11 - I Can't Wait To Get Off Work [6:52]
12 - New Cort Of Paint [2:23]
13 - Nobody But You [3:28]
14 - Diamonds On My Windshield [3:54]
15 - Everytime I Hear This Melody [4:41]
16 - The One That Got Away [5:21]
[свернуть]

youtube.com

[свернуть]

EAC лог

Exact Audio Copy V0.99 prebeta 5 from 4. May 2009

EAC extraction logfile from 12. November 2009, 12:07

Tom Waits / Live In Concert

Used drive : TSSTcorpCD/DVDW TS-H552L Adapter: 3 ID: 0

Read mode : Secure
Utilize accurate stream : Yes
Defeat audio cache : Yes
Make use of C2 pointers : No

Read offset correction : 6
Overread into Lead-In and Lead-Out : No
Fill up missing offset samples with silence : Yes
Delete leading and trailing silent blocks : No
Null samples used in CRC calculations : Yes
Used interface : Native Win32 interface for Win NT & 2000
Gap handling : Appended to previous track

Used output format : User Defined Encoder
Selected bitrate : 1024 kBit/s
Quality : High
Add ID3 tag : No
Command line compressor : C:\Program Files\FLAC\flac.exe
Additional command line options : -6 -V -T "ARTIST=%a" -T "TITLE=%t" -T "ALBUM=%g" -T "DATE=%y" -T "TRACKNUMBER=%n" -T "GENRE=%m" -T "COMMENT=EAC FLAC -6" %s


TOC of the extracted CD

Track | Start | Length | Start sector | End sector
---------------------------------------------------------
1 | 0:00.00 | 5:20.51 | 0 | 24050
2 | 5:20.51 | 6:44.25 | 24051 | 54375
3 | 12:05.01 | 3:20.00 | 54376 | 69375
4 | 15:25.01 | 3:25.00 | 69376 | 84750
5 | 18:50.01 | 4:42.50 | 84751 | 105950
6 | 23:32.51 | 4:04.51 | 105951 | 124301
7 | 27:37.27 | 3:42.00 | 124302 | 140951
8 | 31:19.27 | 2:38.50 | 140952 | 152851
9 | 33:58.02 | 3:40.42 | 152852 | 169393
10 | 37:38.44 | 3:26.05 | 169394 | 184848
11 | 41:04.49 | 6:52.35 | 184849 | 215783
12 | 47:57.09 | 2:22.48 | 215784 | 226481
13 | 50:19.57 | 3:28.21 | 226482 | 242102
14 | 53:48.03 | 3:53.42 | 242103 | 259619
15 | 57:41.45 | 4:41.30 | 259620 | 280724
16 | 62:23.00 | 5:21.30 | 280725 | 304829


Track 1

Filename C:\Tom Waits - Live In Concert (2008)\01 - Spare Parts.wav

Pre-gap length 0:00:02.00

Peak level 78.8 %
Track quality 100.0 %
Test CRC C359DA46
Copy CRC C359DA46
Accurately ripped (confidence 7) [DA0D0FFA]
Copy OK

Track 2

Filename C:\Tom Waits - Live In Concert (2008)\02 - Invitation To The Blues.wav

Peak level 69.5 %
Track quality 100.0 %
Test CRC E712E262
Copy CRC E712E262
Accurately ripped (confidence 7) [1CC1E381]
Copy OK

Track 3

Filename C:\Tom Waits - Live In Concert (2008)\03 - Depot, Depot.wav

Peak level 70.8 %
Track quality 100.0 %
Test CRC FA1EDF57
Copy CRC FA1EDF57
Accurately ripped (confidence 7) [2DDDF4AA]
Copy OK

Track 4

Filename C:\Tom Waits - Live In Concert (2008)\04 - The Piano Has Been Drinking.wav

Peak level 63.6 %
Track quality 100.0 %
Test CRC E8FEC1D0
Copy CRC E8FEC1D0
Accurately ripped (confidence 7) [7EAF00F1]
Copy OK

Track 5

Filename C:\Tom Waits - Live In Concert (2008)\05 - Pasties & A G-string.wav

Peak level 63.2 %
Track quality 100.0 %
Test CRC 8480F936
Copy CRC 8480F936
Accurately ripped (confidence 7) [66E717AA]
Copy OK

Track 6

Filename C:\Tom Waits - Live In Concert (2008)\06 - Step Right Up.wav

Peak level 81.4 %
Track quality 100.0 %
Test CRC 6B1B1008
Copy CRC 6B1B1008
Accurately ripped (confidence 7) [DCB835E4]
Copy OK

Track 7

Filename C:\Tom Waits - Live In Concert (2008)\07 - Semi Suite.wav

Peak level 78.6 %
Track quality 100.0 %
Test CRC 97E31FE1
Copy CRC 97E31FE1
Accurately ripped (confidence 7) [C75D87FE]
Copy OK

Track 8

Filename C:\Tom Waits - Live In Concert (2008)\08 - Fumblin' With The Blues.wav

Peak level 72.4 %
Track quality 100.0 %
Test CRC 0BE20C3D
Copy CRC 0BE20C3D
Accurately ripped (confidence 7) [DD2FE606]
Copy OK

Track 9

Filename C:\Tom Waits - Live In Concert (2008)\09 - Midnight Lullaby.wav

Peak level 65.7 %
Track quality 100.0 %
Test CRC 611875F0
Copy CRC 611875F0
Accurately ripped (confidence 7) [80D56A93]
Copy OK

Track 10

Filename C:\Tom Waits - Live In Concert (2008)\10 - Emotional Weather Report.wav

Peak level 71.3 %
Track quality 100.0 %
Test CRC B14DE94A
Copy CRC B14DE94A
Accurately ripped (confidence 7) [7105F560]
Copy OK

Track 11

Filename C:\Tom Waits - Live In Concert (2008)\11 - I Can't Wait To Get Off Work.wav

Peak level 65.3 %
Track quality 100.0 %
Test CRC DEBDFD82
Copy CRC DEBDFD82
Accurately ripped (confidence 7) [CDE8D76C]
Copy OK

Track 12

Filename C:\Tom Waits - Live In Concert (2008)\12 - New Cort Of Paint.wav

Peak level 62.4 %
Track quality 100.0 %
Test CRC C6AE5C57
Copy CRC C6AE5C57
Accurately ripped (confidence 7) [0A5DB696]
Copy OK

Track 13

Filename C:\Tom Waits - Live In Concert (2008)\13 - Nobody But You.wav

Peak level 52.8 %
Track quality 100.0 %
Test CRC F841664A
Copy CRC F841664A
Accurately ripped (confidence 7) [6B291F10]
Copy OK

Track 14

Filename C:\Tom Waits - Live In Concert (2008)\14 - Diamonds On My Windshield.wav

Peak level 82.6 %
Track quality 100.0 %
Test CRC C9D0F0FD
Copy CRC C9D0F0FD
Accurately ripped (confidence 7) [A4205E26]
Copy OK

Track 15

Filename C:\Tom Waits - Live In Concert (2008)\15 - Everytime I Hear This Melody.wav

Peak level 66.0 %
Track quality 100.0 %
Test CRC 32DAB988
Copy CRC 32DAB988
Accurately ripped (confidence 7) [697EBDEF]
Copy OK

Track 16

Filename C:\Tom Waits - Live In Concert (2008)\16 - The One That Got Away.wav

Peak level 85.0 %
Track quality 100.0 %
Test CRC D3D14CBB
Copy CRC D3D14CBB
Accurately ripped (confidence 7) [8DF2AE44]
Copy OK


All tracks accurately ripped

No errors occurred

End of status report
[свернуть]

Файл CUE

REM GENRE Rock
REM DATE 2008
REM DISCID D00FE010
REM COMMENT "ExactAudioCopy v0.99pb5"
PERFORMER "Tom Waits"
TITLE "Live In Concert"
FILE "01 - Spare Parts.flac" WAVE
TRACK 01 AUDIO
TITLE "Spare Parts"
PERFORMER "Tom Waits"
INDEX 01 00:00:00
FILE "02 - Invitation To The Blues.flac" WAVE
TRACK 02 AUDIO
TITLE "Invitation To The Blues"
PERFORMER "Tom Waits"
INDEX 01 00:00:00
FILE "03 - Depot, Depot.flac" WAVE
TRACK 03 AUDIO
TITLE "Depot, Depot"
PERFORMER "Tom Waits"
INDEX 01 00:00:00
FILE "04 - The Piano Has Been Drinking.flac" WAVE
TRACK 04 AUDIO
TITLE "The Piano Has Been Drinking"
PERFORMER "Tom Waits"
INDEX 01 00:00:00
FILE "05 - Pasties & A G-string.flac" WAVE
TRACK 05 AUDIO
TITLE "Pasties & A G-string"
PERFORMER "Tom Waits"
INDEX 01 00:00:00
FILE "06 - Step Right Up.flac" WAVE
TRACK 06 AUDIO
TITLE "Step Right Up"
PERFORMER "Tom Waits"
INDEX 01 00:00:00
FILE "07 - Semi Suite.flac" WAVE
TRACK 07 AUDIO
TITLE "Semi Suite"
PERFORMER "Tom Waits"
INDEX 01 00:00:00
FILE "08 - Fumblin' With The Blues.flac" WAVE
TRACK 08 AUDIO
TITLE "Fumblin' With The Blues"
PERFORMER "Tom Waits"
INDEX 01 00:00:00
FILE "09 - Midnight Lullaby.flac" WAVE
TRACK 09 AUDIO
TITLE "Midnight Lullaby"
PERFORMER "Tom Waits"
INDEX 01 00:00:00
FILE "10 - Emotional Weather Report.flac" WAVE
TRACK 10 AUDIO
TITLE "Emotional Weather Report"
PERFORMER "Tom Waits"
INDEX 01 00:00:00
FILE "11 - I Can't Wait To Get Off Work.flac" WAVE
TRACK 11 AUDIO
TITLE "I Can't Wait To Get Off Work"
PERFORMER "Tom Waits"
INDEX 01 00:00:00
FILE "12 - New Cort Of Paint.flac" WAVE
TRACK 12 AUDIO
TITLE "New Cort Of Paint"
PERFORMER "Tom Waits"
INDEX 01 00:00:00
FILE "13 - Nobody But You.flac" WAVE
TRACK 13 AUDIO
TITLE "Nobody But You"
PERFORMER "Tom Waits"
INDEX 01 00:00:00
FILE "14 - Diamonds On My Windshield.flac" WAVE
TRACK 14 AUDIO
TITLE "Diamonds On My Windshield"
PERFORMER "Tom Waits"
INDEX 01 00:00:00
FILE "15 - Everytime I Hear This Melody.flac" WAVE
TRACK 15 AUDIO
TITLE "Everytime I Hear This Melody"
PERFORMER "Tom Waits"
INDEX 01 00:00:00
FILE "16 - The One That Got Away.flac" WAVE
TRACK 16 AUDIO
TITLE "The One That Got Away"
PERFORMER "Tom Waits"
INDEX 01 00:00:00
[свернуть]

Лог проверки качества

AUDIOCHECKER v2.0 beta (build 457) - by Dester -
~~~~~~~~~~~~~~~~~~~~~~~~~~~~~~~~~~
-=== НЕ РЕДАКТИРУЙТЕ ЭТОТ ФАЙЛ! ===-

Путь: ...\1977(2008) - Live In Concert

01 -=- 01 - Spare Parts.flac -=- ERROR
02 -=- 02 - Invitation To The Blues.flac -=- ERROR
03 -=- 03 - Depot, Depot.flac -=- CDDA (43%)
04 -=- 04 - The Piano Has Been Drinking.flac -=- ERROR
05 -=- 05 - Pasties & A G-string.flac -=- ERROR
06 -=- 06 - Step Right Up.flac -=- CDDA (43%)
07 -=- 07 - Semi Suite.flac -=- ERROR
08 -=- 08 - Fumblin' With The Blues.flac -=- ERROR
09 -=- 09 - Midnight Lullaby.flac -=- CDDA (54%)
10 -=- 10 - Emotional Weather Report.flac -=- CDDA (76%)
11 -=- 11 - I Can't Wait To Get Off Work.flac -=- CDDA (42%)
12 -=- 12 - New Cort Of Paint.flac -=- CDDA (76%)
13 -=- 13 - Nobody But You.flac -=- CDDA (42%)
14 -=- 14 - Diamonds On My Windshield.flac -=- CDDA (62%)
15 -=- 15 - Everytime I Hear This Melody.flac -=- CDDA (58%)
16 -=- 16 - The One That Got Away.flac -=- CDDA (92%)

Сводка 58,80% CDDA

205516132
[свернуть]

Скачать Tom Waits - Live In Concert



password: sergych
[свернуть]

Контрольная сумма (хеш-сумма) архива

MD5: 366cbac9d48561ad2a92d7ff0a7837f2
[свернуть]
My opinion of release: 10/10
__________________
TAIFUN.Wings of Soul

Вверх
3 пользователя(ей) сказали cпасибо:
Показать список поблагодаривших
Похожие темы
Тема Автор Раздел Ответов Последнее сообщение
Live Tom Waits - Glitter and Doom Live sergych Jazz и Blues 5 01.03.2017 10:19
Live The Sweet - Live In Concert Denmark 1976 sergych Hard Rock 1 22.08.2013 00:03
Live Simply Red - Farewell: Live In Concert At Sydney Opera House PUPOKIN Rock 0 24.05.2011 11:00
Live Tom Waits - Live At The Bottom Line, New York (1975-04-22) sergych Jazz и Blues 0 04.04.2010 18:34
Live Tom Waits - Live In Stockholm sergych Jazz и Blues 0 17.01.2009 09:49


Метки
1977 , blues rock , live in concert , rock , tom waits

Опции темы

Ваши права в разделе
Вы не можете создавать новые темы
Вы не можете отвечать в темах
Вы не можете прикреплять вложения
Вы не можете редактировать свои сообщения

Быстрый переход



Текущее время: 13:30. Часовой пояс GMT +3.
Powered by vBulletin® Version 3.8.10
Copyright ©2000 - 2018, vBulletin Solutions, Inc. Перевод: zCarot
© 2008 - 2018 Taifun With Song
Яндекс.Метрика