TAIFUN With Song
Навигация
Вернуться   TAIFUN With Song > Music (обменник) > Rock > Psychedelic Rock
Расширенный поиск
Psychedelic Rock Психоделический рок — сложная, экспрессивная музыка, сильно воздействующая на слушателя. Для этого используется широкий арсенал средств музыкальной выразительности и специальные эффекты при исполнении музыки. Характерной чертой психоделического рока стали продолжительные сольные партии ведущих инструментов и свой гармонический фон - переплетение мажорных и минорных гармоний, альтерации на 3-й, 5-й, 7-й ступенях и задержания на них, а также частая опора мелодии на неустойчивые звуки.

А знаете ли Вы, что...
Какая песня, часто приписываемая Элвису Пресли, никогда им не записывалась?
«Песню «Only You» часто приписывают Элвису Пресли, хотя на самом деле наиболее известными её исполнителями является группа «The Platters». Элвис пел «Only You» на некоторых концертах, но не существует ни одной аудио- или видеозаписи этой композиции в его исполнении.»
 
Опции темы

  #1
Старый 02.12.2018, 18:15
burnett_s
Меломан
Досье
 
Аватар для burnett_s
По умолчанию Pink Floyd - Is There Anybody Out There? The Wall Live 1980-81 (Limited Edition)


2000 - Pink Floyd - Is There Anybody Out There? The Wall Live 1980-81 (Limited Edition)




Исполнитель/Artist: Pink Floyd
Альбом/Album: Is There Anybody Out There? The Wall Live 1980-81 (Limited Edition)
Год/Year: 2000
Жанр/Genre: Psychedelic Rock
Страна/Country: Netherlands
Рекорд-лейбл/Record label: EMI
Номер в каталоге/Catalogue #: 7243 5 23562 2 5
Формат/Format: Free Lossless Audio Codec (*.flac)
Качество/Quality: Lossless
Продолжительность/Length: 01:45:16
Источник/Source: Собственный рип
Размер/Size: 4,60 MB

Сканы в комплекте

Треклист

Disc 1

01. MC: Atmos [1:14] (7 August 1980; includes excerpt from "We'll Meet Again")
02. In The Flesh? [3:00] (7 August 1980/8 August 1980/9 August 1980)
03. The Thin Ice [2:50] (9 August)
04. Another Brick In The Wall - Part 1 [4:13] (7 August 1980)
05. The Happiest Days Of Our Lives [1:40] (7 August 1980/8 August)
06. Another Brick In The Wall - Part 2 [6:19] (8 August 1980/9 August/14 June 1981)
07. Mother [7:54] (16 June 1981)
08. Goodbye Blue Sky [3:15] (17 June 1981)
09. Empty Spaces [2:15] (14 June 1981)
10. What Shall We Do Now? [1:41] (14 June 1981/17 June 1981)
11. Young Lust [5:17] (7 August 1980/8 August 1980/9 August 1980)
12. One Of My Turns [3:41] (7 August 1980/8 August 1980/9 August 1980)
13. Don't Leave Me Now [4:08] (7 August 1980/8 August 1980/17 June 1981)
14. Another Brick In The Wall - Part 3 [1:15] (7 August 1980/8 August 1980/9 August 1980)
15. The Last Few Bricks [3:26] (7 August 1980/8 August 1980)
16. Goodbye Cruel World [1:41] (8 August 1980)

Disc 2

01. Hey You [4:55] (16 June 1981/17 June 1981/08 August 1980)
02. Is There Anybody Out There? [3:09] (15 June 1981)
03. Nobody Home [3:15] (14 June 1981/16 June 1981/17 June 1981)
04. Vera [1:27] (15 June 1981/16 June 1981)
05. Bring The Boys Back Home [1:20] (15 June 1981/16 June 1981)
06. Comfortably Numb [7:26] (14 June 1981/15 June 1981/16 June 1981/17 June 1981)
07. The Show Must Go On [2:35] (16 June 1981/08 August 1980)
08. MC: Atmos [0:37] (16 June 1981)
09. In The Flesh [4:22] (7 August 1980/8 August 1980/9 August 1980)
10. Run Like Hell [7:05] (14 June 1981/15 June 1981/16 June 1981/17 June 1981)
11. Waiting For The Worms [4:14] (8 August 1980/9 August 1980/14 June 1981/15 June 1981/16 June 1981)
12. Stop [0:33] (8 August 1980)
13. The Trial [6:01] (9 August 1980)
14. Outside The Wall [4:28] (8 August 1980)
[свернуть]

Исполнители/Performers

Pink Floyd
• David Gilmour – electric and acoustic guitars, vocals, mandolin on "Outside the Wall", musical director
• Roger Waters – vocals, bass guitar, acoustic guitar, clarinet on "Outside the Wall"
• Nick Mason – drums, percussion, acoustic guitar on "Outside the Wall"
• Richard Wright – piano, organ, synthesizer, accordion on "Outside the Wall" (At this time he was not part of the band, but was hired as a session musician and listed as an official band member on the release of the album)

Additional personnel
• Andy Bown – bass guitar, acoustic guitar on "Outside the Wall"
• Joe Chemay – backing vocals
• Stan Farber – backing vocals
• Jim Haas – backing vocals
• Jon Joyce – backing vocals
• Snowy White – guitars (1980 shows)
• Andy Roberts – guitars (1981 shows)
• Willie Wilson – drums, percussion
• Clive Brooks – drums, percussion (Nick Mason's drum tech replaced Willie Wilson on 13 & 14 June 1981)
• Peter Wood – keyboards, acoustic guitar on "Outside the Wall"
• Gary Yudman – concertmaster [MC (Master Of Ceremony)]

Production
• Engineer [Assistant] – Joel Plante
• Mastered By – Doug Sax
• Producer, Mixed By – James Guthrie
• Recorded By – Doug Hopkins, James Guthrie
[свернуть]

EAC лог

CD1

Exact Audio Copy V1.3 from 2. September 2016

EAC extraction logfile from 13. November 2018, 21:11

Pink Floyd / Is There Anybody Out There? (The Wall Live 1980-81) (7243 5 23562 2 5)

Used drive : PLDS DVD+-RW DU-8A5LH Adapter: 1 ID: 1

Read mode : Secure
Utilize accurate stream : Yes
Defeat audio cache : Yes
Make use of C2 pointers : No

Read offset correction : 6
Overread into Lead-In and Lead-Out : No
Fill up missing offset samples with silence : Yes
Delete leading and trailing silent blocks : No
Null samples used in CRC calculations : Yes
Used interface : Native Win32 interface for Win NT & 2000

Used output format : User Defined Encoder
Selected bitrate : 1024 kBit/s
Quality : High
Add ID3 tag : No
Command line compressor : C:\Program Files (x86)\Exact Audio Copy\Codecs\flac.exe
Additional command line options : -5 %source%


TOC of the extracted CD

Track | Start | Length | Start sector | End sector
---------------------------------------------------------
1 | 0:00.00 | 1:13.62 | 0 | 5536
2 | 1:13.62 | 3:00.35 | 5537 | 19071
3 | 4:14.22 | 2:49.40 | 19072 | 31786
4 | 7:03.62 | 4:12.38 | 31787 | 50724
5 | 11:16.25 | 1:39.50 | 50725 | 58199
6 | 12:56.00 | 6:19.00 | 58200 | 86624
7 | 19:15.00 | 7:54.25 | 86625 | 122199
8 | 27:09.25 | 3:14.50 | 122200 | 136799
9 | 30:24.00 | 2:14.70 | 136800 | 146919
10 | 32:38.70 | 1:40.65 | 146920 | 154484
11 | 34:19.60 | 5:16.45 | 154485 | 178229
12 | 39:36.30 | 3:41.30 | 178230 | 194834
13 | 43:17.60 | 4:07.40 | 194835 | 213399
14 | 47:25.25 | 1:15.07 | 213400 | 219031
15 | 48:40.32 | 3:25.55 | 219032 | 234461
16 | 52:06.12 | 1:41.13 | 234462 | 242049


Range status and errors

Selected range

Filename C:\EAC Rips\Pink Floyd - Is There Anybody Out There (The Wall Live 1980-81) (7243 5 23562 2 5) - Disc 1.wav

Peak level 100.0 %
Extraction speed 4.5 X
Range quality 100.0 %
Test CRC E85AE93C
Copy CRC E85AE93C
Copy OK

No errors occurred


AccurateRip summary

Track 1 accurately ripped (confidence 200) [B6341677] (AR v2)
Track 2 accurately ripped (confidence 200) [1BDF1EC1] (AR v2)
Track 3 accurately ripped (confidence 200) [0C610BBF] (AR v2)
Track 4 accurately ripped (confidence 200) [30E14DCF] (AR v2)
Track 5 accurately ripped (confidence 200) [124EE970] (AR v2)
Track 6 accurately ripped (confidence 200) [3774C6AA] (AR v2)
Track 7 accurately ripped (confidence 200) [3D51424E] (AR v2)
Track 8 accurately ripped (confidence 200) [88893399] (AR v2)
Track 9 accurately ripped (confidence 200) [CB0D8EB7] (AR v2)
Track 10 accurately ripped (confidence 200) [2E389550] (AR v2)
Track 11 accurately ripped (confidence 200) [55D305FC] (AR v2)
Track 12 accurately ripped (confidence 200) [8DCA7F36] (AR v2)
Track 13 accurately ripped (confidence 200) [8D544B5F] (AR v2)
Track 14 accurately ripped (confidence 200) [0460D6A8] (AR v2)
Track 15 accurately ripped (confidence 200) [A2991E74] (AR v2)
Track 16 accurately ripped (confidence 200) [F143C44A] (AR v2)

All tracks accurately ripped

End of status report

---- CUETools DB Plugin V2.1.6

[CTDB TOCID: mzfrxqV5i9HiKCXXgTqMC5G3QAk-] found
Submit result: mzfrxqV5i9HiKCXXgTqMC5G3QAk- has been confirmed
Track | CTDB Status
1 | (1311/1329) Accurately ripped
2 | (1303/1329) Accurately ripped
3 | (1308/1329) Accurately ripped
4 | (1306/1329) Accurately ripped
5 | (1309/1329) Accurately ripped
6 | (1308/1329) Accurately ripped
7 | (1302/1329) Accurately ripped
8 | (1305/1329) Accurately ripped
9 | (1305/1329) Accurately ripped
10 | (1306/1329) Accurately ripped
11 | (1304/1329) Accurately ripped
12 | (1301/1329) Accurately ripped, or (2/1329) differs in 170 samples @00:09:03
13 | (1301/1329) Accurately ripped
14 | (1307/1329) Accurately ripped
15 | (1298/1329) Accurately ripped
16 | (1282/1329) Accurately ripped, or (2/1329) differs in 2464 samples @01:40:67-01:41:02, or (2/1329) differs in 357 samples @01:41:01-01:41:02


==== Log checksum 00A1ECCBA4328DC3550DE819A288B87320FAC0FD5A4C8E09E772B909042E03B4 ====

CD2

Exact Audio Copy V1.3 from 2. September 2016

EAC extraction logfile from 13. November 2018, 21:42

Pink Floyd / Is There Anybody Out There (The Wall Live 1980-81) (7243 5 23562 2 5) - Disc 2

Used drive : PLDS DVD+-RW DU-8A5LH Adapter: 1 ID: 1

Read mode : Secure
Utilize accurate stream : Yes
Defeat audio cache : Yes
Make use of C2 pointers : No

Read offset correction : 6
Overread into Lead-In and Lead-Out : No
Fill up missing offset samples with silence : Yes
Delete leading and trailing silent blocks : No
Null samples used in CRC calculations : Yes
Used interface : Native Win32 interface for Win NT & 2000

Used output format : User Defined Encoder
Selected bitrate : 1024 kBit/s
Quality : High
Add ID3 tag : No
Command line compressor : C:\Program Files (x86)\Exact Audio Copy\Codecs\flac.exe
Additional command line options : -5 %source%


TOC of the extracted CD

Track | Start | Length | Start sector | End sector
---------------------------------------------------------
1 | 0:00.00 | 4:55.00 | 0 | 22124
2 | 4:55.00 | 3:09.33 | 22125 | 36332
3 | 8:04.33 | 3:15.35 | 36333 | 50992
4 | 11:19.68 | 1:27.25 | 50993 | 57542
5 | 12:47.18 | 1:20.37 | 57543 | 63579
6 | 14:07.55 | 7:26.00 | 63580 | 97029
7 | 21:33.55 | 2:34.43 | 97030 | 108622
8 | 24:08.23 | 0:37.32 | 108623 | 111429
9 | 24:45.55 | 4:22.28 | 111430 | 131107
10 | 29:08.08 | 7:05.17 | 131108 | 162999
11 | 36:13.25 | 4:13.60 | 163000 | 182034
12 | 40:27.10 | 0:32.50 | 182035 | 184484
13 | 40:59.60 | 6:01.03 | 184485 | 211562
14 | 47:00.63 | 4:28.05 | 211563 | 231667


Range status and errors

Selected range

Filename C:\EAC Rips\Pink Floyd - Is There Anybody Out There (The Wall Live 1980-81) (7243 5 23562 2 5) - Disc 2.wav

Peak level 100.0 %
Extraction speed 4.4 X
Range quality 99.9 %
Test CRC 60263416
Copy CRC 60263416
Copy OK

No errors occurred


AccurateRip summary

Track 1 accurately ripped (confidence 200) [4596D8B2] (AR v2)
Track 2 accurately ripped (confidence 200) [27191EC3] (AR v2)
Track 3 accurately ripped (confidence 200) [D25EEA90] (AR v2)
Track 4 accurately ripped (confidence 200) [60E42964] (AR v2)
Track 5 accurately ripped (confidence 200) [F691CB83] (AR v2)
Track 6 accurately ripped (confidence 200) [0AE2F484] (AR v2)
Track 7 accurately ripped (confidence 200) [3DE715C5] (AR v2)
Track 8 accurately ripped (confidence 200) [E6886510] (AR v2)
Track 9 accurately ripped (confidence 200) [46F8A6BE] (AR v2)
Track 10 accurately ripped (confidence 200) [AEA15BE4] (AR v2)
Track 11 accurately ripped (confidence 200) [5EA69CDB] (AR v2)
Track 12 accurately ripped (confidence 200) [87640370] (AR v2)
Track 13 accurately ripped (confidence 200) [C4BA7053] (AR v2)
Track 14 accurately ripped (confidence 200) [850FA248] (AR v2)

All tracks accurately ripped

End of status report

---- CUETools DB Plugin V2.1.6

[CTDB TOCID: FakHutONhtIQS0Q78PC1rrwh.L0-] found
Submit result: FakHutONhtIQS0Q78PC1rrwh.L0- has been confirmed
Track | CTDB Status
1 | (1302/1328) Accurately ripped, or (3/1328) differs in 28 samples @02:12:14,02:12:71,02:13:53,02:15:07,02:16:26,02:44:66
2 | (1297/1328) Accurately ripped, or (3/1328) differs in 6 samples @01:56:23,01:56:65
3 | (1304/1328) Accurately ripped
4 | (1309/1328) Accurately ripped
5 | (1305/1328) Accurately ripped
6 | (1298/1328) Accurately ripped, or (3/1328) differs in 3 samples @03:31:51
7 | (1303/1328) Accurately ripped
8 | (1305/1328) Accurately ripped
9 | (1301/1328) Accurately ripped
10 | (1301/1328) Accurately ripped
11 | (1307/1328) Accurately ripped
12 | (1305/1328) Accurately ripped
13 | (1297/1328) Accurately ripped
14 | (1302/1328) Accurately ripped


==== Log checksum C0F518752A09BDA1D9913FE74DB0DC7C3C72C591982062565D32749D20A0DEAF ====
[свернуть]

CUE File

CD1

REM GENRE "Progressive Rock"
REM DATE 2000
REM DISCID F30C9B10
REM COMMENT "ExactAudioCopy v1.3"
PERFORMER "Pink Floyd"
TITLE "Is There Anybody Out There? (The Wall Live 1980-81) (7243 5 23562 2 5)"
REM COMPOSER ""
FILE "Pink Floyd - Is There Anybody Out There (The Wall Live 1980-81) (7243 5 23562 2 5) - Disc 1.flac" WAVE
TRACK 01 AUDIO
TITLE "MC: Atmos"
PERFORMER "Pink Floyd"
REM COMPOSER ""
INDEX 01 00:00:00
TRACK 02 AUDIO
TITLE "In The Flesh?"
PERFORMER "Pink Floyd"
REM COMPOSER ""
INDEX 01 01:13:62
TRACK 03 AUDIO
TITLE "The Thin Ice"
PERFORMER "Pink Floyd"
REM COMPOSER ""
INDEX 01 04:14:22
TRACK 04 AUDIO
TITLE "Another Brick In The Wall - Part 1"
PERFORMER "Pink Floyd"
REM COMPOSER ""
INDEX 01 07:03:62
TRACK 05 AUDIO
TITLE "The Happiest Days Of Our Lives"
PERFORMER "Pink Floyd"
REM COMPOSER ""
INDEX 01 11:16:25
TRACK 06 AUDIO
TITLE "Another Brick In The Wall - Part 2"
PERFORMER "Pink Floyd"
REM COMPOSER ""
INDEX 01 12:56:00
TRACK 07 AUDIO
TITLE "Mother"
PERFORMER "Pink Floyd"
REM COMPOSER ""
INDEX 01 19:15:00
TRACK 08 AUDIO
TITLE "Goodbye Blue Sky"
PERFORMER "Pink Floyd"
REM COMPOSER ""
INDEX 01 27:09:25
TRACK 09 AUDIO
TITLE "Empty Spaces"
PERFORMER "Pink Floyd"
REM COMPOSER ""
INDEX 01 30:24:00
TRACK 10 AUDIO
TITLE "What Shall We Do Now?"
PERFORMER "Pink Floyd"
REM COMPOSER ""
INDEX 01 32:38:70
TRACK 11 AUDIO
TITLE "Young Lust"
PERFORMER "Pink Floyd"
REM COMPOSER ""
INDEX 01 34:19:60
TRACK 12 AUDIO
TITLE "One Of My Turns"
PERFORMER "Pink Floyd"
REM COMPOSER ""
INDEX 01 39:36:30
TRACK 13 AUDIO
TITLE "Don't Leave Me Now"
PERFORMER "Pink Floyd"
REM COMPOSER ""
INDEX 01 43:17:60
TRACK 14 AUDIO
TITLE "Another Brick In The Wall - Part 3"
PERFORMER "Pink Floyd"
REM COMPOSER ""
INDEX 01 47:25:25
TRACK 15 AUDIO
TITLE "The Last Few Bricks"
PERFORMER "Pink Floyd"
REM COMPOSER ""
INDEX 01 48:40:32
TRACK 16 AUDIO
TITLE "Goodbye Cruel World"
PERFORMER "Pink Floyd"
REM COMPOSER ""
INDEX 01 52:06:12

CD2

REM GENRE "Progressive Rock"
REM DATE 2000
REM DISCID D70C100E
REM COMMENT "ExactAudioCopy v1.3"
PERFORMER "Pink Floyd"
TITLE "Is There Anybody Out There (The Wall Live 1980-81) (7243 5 23562 2 5) - Disc 2"
REM COMPOSER ""
FILE "Pink Floyd - Is There Anybody Out There (The Wall Live 1980-81) (7243 5 23562 2 5) - Disc 2.flac" WAVE
TRACK 01 AUDIO
TITLE "Hey You"
PERFORMER "Pink Floyd"
REM COMPOSER ""
INDEX 01 00:00:00
TRACK 02 AUDIO
TITLE "Is There Anybody Out There?"
PERFORMER "Pink Floyd"
REM COMPOSER ""
INDEX 01 04:55:00
TRACK 03 AUDIO
TITLE "Nobody Home"
PERFORMER "Pink Floyd"
REM COMPOSER ""
INDEX 01 08:04:33
TRACK 04 AUDIO
TITLE "Vera"
PERFORMER "Pink Floyd"
REM COMPOSER ""
INDEX 01 11:19:68
TRACK 05 AUDIO
TITLE "Bring The Boys Back Home"
PERFORMER "Pink Floyd"
REM COMPOSER ""
INDEX 01 12:47:18
TRACK 06 AUDIO
TITLE "Comfortably Numb"
PERFORMER "Pink Floyd"
REM COMPOSER ""
INDEX 01 14:07:55
TRACK 07 AUDIO
TITLE "The Show Must Go On"
PERFORMER "Pink Floyd"
REM COMPOSER ""
INDEX 01 21:33:55
TRACK 08 AUDIO
TITLE "MC: Atmos"
PERFORMER "Pink Floyd"
REM COMPOSER ""
INDEX 01 24:08:23
TRACK 09 AUDIO
TITLE "In The Flesh"
PERFORMER "Pink Floyd"
REM COMPOSER ""
INDEX 01 24:45:55
TRACK 10 AUDIO
TITLE "Run Like Hell"
PERFORMER "Pink Floyd"
REM COMPOSER ""
INDEX 01 29:08:08
TRACK 11 AUDIO
TITLE "Waiting For The Worms"
PERFORMER "Pink Floyd"
REM COMPOSER ""
INDEX 01 36:13:25
TRACK 12 AUDIO
TITLE "Stop"
PERFORMER "Pink Floyd"
REM COMPOSER ""
INDEX 01 40:27:10
TRACK 13 AUDIO
TITLE "The Trial"
PERFORMER "Pink Floyd"
REM COMPOSER ""
INDEX 01 40:59:60
TRACK 14 AUDIO
TITLE "Outside The Wall"
PERFORMER "Pink Floyd"
REM COMPOSER ""
INDEX 01 47:00:63
[свернуть]

Лог проверки качества

CD1

[CUETools log; Date: 14/11/2018 12:48:34; Version: 2.1.6]
[CTDB TOCID: mzfrxqV5i9HiKCXXgTqMC5G3QAk-] found.
Track | CTDB Status
1 | (1312/1330) Accurately ripped
2 | (1304/1330) Accurately ripped
3 | (1309/1330) Accurately ripped
4 | (1307/1330) Accurately ripped
5 | (1310/1330) Accurately ripped
6 | (1309/1330) Accurately ripped
7 | (1303/1330) Accurately ripped
8 | (1306/1330) Accurately ripped
9 | (1306/1330) Accurately ripped
10 | (1307/1330) Accurately ripped
11 | (1305/1330) Accurately ripped
12 | (1302/1330) Accurately ripped, or (2/1330) differs in 170 samples @00:09:03
13 | (1302/1330) Accurately ripped
14 | (1308/1330) Accurately ripped
15 | (1299/1330) Accurately ripped
16 | (1283/1330) Accurately ripped, or (2/1330) differs in 2464 samples @01:40:67-01:41:02, or (2/1330) differs in 357 samples @01:41:01-01:41:02
[AccurateRip ID: 001ff518-0186844f-f30c9b10] found.
Track [ CRC | V2 ] Status
01 [b0226cea|b6341677] (200+200/745) Accurately ripped
02 [1c20c6ae|1bdf1ec1] (200+200/741) Accurately ripped
03 [d53dd21a|0c610bbf] (200+200/745) Accurately ripped
04 [18e58712|30e14dcf] (200+200/745) Accurately ripped
05 [9c4baa61|124ee970] (200+200/746) Accurately ripped
06 [d5a701c9|3774c6aa] (200+200/741) Accurately ripped
07 [18ed6cb5|3d51424e] (200+200/741) Accurately ripped
08 [e1c90968|88893399] (200+200/738) Accurately ripped
09 [40b1643a|cb0d8eb7] (200+200/740) Accurately ripped
10 [7dd48706|2e389550] (200+200/742) Accurately ripped
11 [5ded74b7|55d305fc] (200+200/737) Accurately ripped
12 [533f919c|8dca7f36] (200+200/738) Accurately ripped
13 [ca469901|8d544b5f] (200+200/739) Accurately ripped
14 [ea404466|0460d6a8] (200+200/741) Accurately ripped
15 [0462dc36|a2991e74] (200+200/737) Accurately ripped
16 [006bac7b|f143c44a] (200+200/740) Accurately ripped
Offsetted by -799:
01 [4fe0b758] (002/745) Accurately ripped
02 [2d4edb37] (002/741) Accurately ripped
03 [db40df22] (002/745) Accurately ripped
04 [ee9232d4] (002/745) Accurately ripped
05 [9fb8ff09] (002/746) Accurately ripped
06 [db1fca28] (002/741) Accurately ripped
07 [a270989f] (002/741) Accurately ripped
08 [85be182b] (002/738) Accurately ripped
09 [c57bd972] (002/740) Accurately ripped
10 [bc62abb6] (002/742) Accurately ripped
11 [5cc1bd7d] (002/737) Accurately ripped
12 [7736e90e] (002/738) Accurately ripped
13 [89da4b5b] (002/739) Accurately ripped
14 [2f95a795] (002/741) Accurately ripped
15 [38e79087] (002/737) Accurately ripped
16 [346e61ab] (002/740) Accurately ripped
Offsetted by -752:
01 [035663a9] (002/745) Accurately ripped
02 [3b62c140] (002/741) Accurately ripped
03 [62c9c9ad] (002/745) Accurately ripped
04 [126e9d4b] (002/745) Accurately ripped
05 [b86330d2] (002/746) Accurately ripped
06 [45baed0a] (002/741) Accurately ripped
07 [312473e9] (002/741) Accurately ripped
08 [cf0d4d8e] (002/738) Accurately ripped
09 [df052d61] (002/740) Accurately ripped
10 [99b0ddd5] (002/742) Accurately ripped
11 [f006afef] (002/737) Accurately ripped
12 [20bb4e2c] (002/738) Accurately ripped
13 [0666793e] (002/739) Accurately ripped
14 [985bdc9b] (002/741) Accurately ripped
15 [03a430b9] (002/737) Accurately ripped
16 [bfa66297] (002/740) Accurately ripped

Track Peak [ CRC32 ] [W/O NULL] [ LOG ]
-- 100,0 [E85AE93C] [60AEA5AB] CRC32
01 29,9 [09D29FD6] [EC9C9477]
02 100,0 [C491E89A] [A4C91E30]
03 89,0 [6B8413A9] [A11102E1]
04 69,5 [FCD545B6] [8BD0C42C]
05 94,0 [4C42220A] [7DD7A576]
06 99,2 [DF798F83] [9BAF84D9]
07 93,6 [1697448D] [8B15A8DC]
08 75,9 [FD59BA11] [D7153660]
09 52,5 [2D55C6C6] [27981BB1]
10 90,7 [DF9609D8] [078F50E1]
11 95,9 [E518FEFC] [793E7D8E]
12 84,1 [64309776] [3E623A6C]
13 88,5 [29D4FAA0] [38B7F83F]
14 99,0 [454B2175] [67AEDD0A]
15 98,9 [383BACE1] [61C2BE88]
16 50,6 [1C6D8E63] [0B2ED771]


CD2

[CUETools log; Date: 14/11/2018 12:48:54; Version: 2.1.6]
[CTDB TOCID: FakHutONhtIQS0Q78PC1rrwh.L0-] found.
Track | CTDB Status
1 | (1303/1329) Accurately ripped, or (3/1329) differs in 28 samples @02:12:14,02:12:71,02:13:53,02:15:07,02:16:26,02:44:66
2 | (1298/1329) Accurately ripped, or (3/1329) differs in 6 samples @01:56:23,01:56:65
3 | (1305/1329) Accurately ripped
4 | (1310/1329) Accurately ripped
5 | (1306/1329) Accurately ripped
6 | (1299/1329) Accurately ripped, or (3/1329) differs in 3 samples @03:31:51
7 | (1304/1329) Accurately ripped
8 | (1306/1329) Accurately ripped
9 | (1302/1329) Accurately ripped
10 | (1302/1329) Accurately ripped
11 | (1308/1329) Accurately ripped
12 | (1306/1329) Accurately ripped
13 | (1298/1329) Accurately ripped
14 | (1303/1329) Accurately ripped
[AccurateRip ID: 0019333c-010e1944-d70c100e] found.
Track [ CRC | V2 ] Status
01 [442eb31c|4596d8b2] (200+200/580) Accurately ripped
02 [8c48603c|27191ec3] (200+200/577) Accurately ripped
03 [3d9c0041|d25eea90] (200+200/575) Accurately ripped
04 [ef453848|60e42964] (200+200/580) Accurately ripped
05 [201fbd95|f691cb83] (200+200/578) Accurately ripped
06 [9757a2c6|0ae2f484] (200+200/575) Accurately ripped
07 [297d2e3d|3de715c5] (200+200/577) Accurately ripped
08 [a2994bf4|e6886510] (200+200/583) Accurately ripped
09 [ad5184f8|46f8a6be] (200+200/578) Accurately ripped
10 [7e9fb8c9|aea15be4] (200+200/577) Accurately ripped
11 [b53d255a|5ea69cdb] (200+200/577) Accurately ripped
12 [55fa76d0|87640370] (200+200/582) Accurately ripped
13 [d4093556|c4ba7053] (200+200/579) Accurately ripped
14 [a2c3549f|850fa248] (200+200/592) Accurately ripped
Offsetted by -703:
01 [0b55de6e] (002/580) Accurately ripped
02 [cccc1df7] (002/577) Accurately ripped
03 [5462919b] (002/575) Accurately ripped
04 [b4d6ba5c] (002/580) Accurately ripped
05 [de4ca505] (002/578) Accurately ripped
06 [39ec6b1a] (002/575) Accurately ripped
07 [e125c9d5] (002/577) Accurately ripped
08 [366327b3] (002/583) Accurately ripped
09 [684b1f52] (002/578) Accurately ripped
10 [f09f6fe9] (002/577) Accurately ripped
11 [3bcdb24a] (002/577) Accurately ripped
12 [42112cc6] (002/582) Accurately ripped
13 [0eb2945e] (002/579) Accurately ripped
14 [8f0caf15] (002/592) Accurately ripped
Offsetted by -676:
01 [35febf76] (025/580) Accurately ripped
02 [1b4b3cbe] (026/577) Accurately ripped
03 [d7f664e7] (025/575) Accurately ripped
04 [247121fd] (026/580) Accurately ripped
05 [9711c9c5] (026/578) Accurately ripped
06 [f20d92a9] (025/575) Accurately ripped
07 [0a5557c3] (026/577) Accurately ripped
08 [bff7f3ee] (026/583) Accurately ripped
09 [65f3316f] (025/578) Accurately ripped
10 [4ad222e0] (025/577) Accurately ripped
11 [f553a185] (026/577) Accurately ripped
12 [39f1fc93] (026/582) Accurately ripped
13 [45aadf69] (026/579) Accurately ripped
14 [b04fa70a] (026/592) Accurately ripped
Offsetted by -664:
01 [9f0d21ef] (038/580) Accurately ripped
02 [f1aa0b66] (038/577) Accurately ripped
03 [0e0734c1] (038/575) Accurately ripped
04 [1cd95e4a] (038/580) Accurately ripped
05 [9d97c4d7] (038/578) Accurately ripped
06 [59191e9e] (038/575) Accurately ripped
07 [9cd4f016] (038/577) Accurately ripped
08 [6c0ead23] (038/583) Accurately ripped
09 [062cc1c7] (038/578) Accurately ripped
10 [a9f57617] (037/577) Accurately ripped
11 [8e28cee7] (038/577) Accurately ripped
12 [83c12324] (038/582) Accurately ripped
13 [f8dafe44] (037/579) Accurately ripped
14 [723a53c0] (036/592) Accurately ripped

Track Peak [ CRC32 ] [W/O NULL] [ LOG ]
-- 100,0 [60263416] [EA2CA5C6] CRC32
01 100,0 [D9D390D9] [C982FA6D]
02 97,2 [B967ADAA] [D8EA184A]
03 82,6 [290B3BCF] [025E1A4C]
04 93,6 [4436C644] [12AFC3DA]
05 86,5 [93465FF1] [71744CF9]
06 100,0 [A9582E91] [F228AF41]
07 98,7 [381C2065] [C6A30CC2]
08 27,6 [9F6596C7] [6BEE23AB]
09 100,0 [52C27122] [D9F4A1FA]
10 100,0 [F3C7E7C7] [9BADA3AF]
11 100,0 [0112B212] [777E95E4]
12 100,0 [CD6A7C30] [174AA96B]
13 100,0 [D7EBA925] [D2F8312F]
14 73,1 [3E1E48F8] [5EF91DB0]
[свернуть]

Спектр частот


[свернуть]

Download Pink Floyd - Is There Anybody Out There? The Wall Live 1980-81 (Limited Edition)

[Ссылки могут видеть только зарегистрированные и активированные пользователи.]
[Only registered and activated users can see links.]

[Ссылки могут видеть только зарегистрированные и активированные пользователи.]
[Only registered and activated users can see links.]

[Ссылки могут видеть только зарегистрированные и активированные пользователи.]
[Only registered and activated users can see links.]
[Ссылки могут видеть только зарегистрированные и активированные пользователи.]
[Only registered and activated users can see links.]
[Ссылки могут видеть только зарегистрированные и активированные пользователи.]
[Only registered and activated users can see links.]
[Ссылки могут видеть только зарегистрированные и активированные пользователи.]
[Only registered and activated users can see links.]
[свернуть]

Контрольная сумма (хеш-сумма) архива

MD5: 8ADFC92DE6B68B7A7B353E8149F75BC7
[свернуть]
My opinion of release: 10/10

Release info RInfo

Deluxe Limited Edition issued in a lavish booklet housed in a tall cardboard slipcase. European Union release.

Slip Case: Four life masks on front. Four death masks on back.
Cover Sticker: Rectangular green cover sticker with the title, catalog number, bar code, and "Place of manufacture as stated on label. Marketed and distributed by EMI.".
Hard Cover Book: (24x14 cm) 66-pages. Printed by Pozzoli - Italy.
The CD's are housed inside the front and rear cover of the book. "....Made in EU" printed on the CD.

CDs made in Holland.
Pressing Plant: EMI Compact Disc BV pressing plant, Uden, Netherlands.
Миниатюры
Нажмите на изображение для увеличения
Название: Matrix (Scan) 1.jpg
Просмотров: 29
Размер:	89.4 Кб
ID:	415   Нажмите на изображение для увеличения
Название: Matrix (Scan) 2.jpg
Просмотров: 38
Размер:	87.4 Кб
ID:	416   Нажмите на изображение для увеличения
Название: 20181113_151635.jpg
Просмотров: 26
Размер:	182.0 Кб
ID:	417   Нажмите на изображение для увеличения
Название: 20181113_152444.jpg
Просмотров: 39
Размер:	132.0 Кб
ID:	418   Нажмите на изображение для увеличения
Название: 20181113_151931.jpg
Просмотров: 40
Размер:	148.0 Кб
ID:	419  


Последний раз редактировалось burnett_s, 02.12.2018 в 18:27.
Вверх
5 пользователя(ей) сказали cпасибо:
Показать список поблагодаривших
  #2
Старый 02.12.2018, 18:30
burnett_s
Меломан
Досье
 
Аватар для burnett_s
По умолчанию Re: Pink Floyd - Is There Anybody Out There? The Wall Live 1980-81 (Limited Edition)

If you want to share it, do it but FREE (no Avaxhome, no paid sites, no paid hosting sites please)

Вверх
5 пользователя(ей) сказали cпасибо:
Показать список поблагодаривших
Похожие темы
Тема Автор Раздел Ответов Последнее сообщение
Альбом Pink Floyd - Is There Anybody Out There? The Wall Live 1980-81 Afula Psychedelic Rock 0 12.04.2011 22:16
Альбом Pink Floyd - The Wall sergych Psychedelic Rock 1 12.04.2011 21:55
Live Pink Floyd - Shine On (Live) sergych Psychedelic Rock 0 06.12.2010 22:22
Ремикс Pink Floyd - Wish You Were Here (Trance Remixes Limited Edition) sergych Trance 0 30.04.2010 07:39
Пинк Флойд: Стена / Pink Floyd: The Wall PUPOKIN Альбомы и концерты 1 03.02.2010 21:43


Метки
2000 , is there anybody out there? the wall live 1980-81 (limited edition) , pink floyd , psychedelic rock

Опции темы

Ваши права в разделе
Вы не можете создавать новые темы
Вы не можете отвечать в темах
Вы не можете прикреплять вложения
Вы не можете редактировать свои сообщения

Быстрый переход



Текущее время: 20:37. Часовой пояс GMT +3.
Powered by vBulletin® Version 3.8.10
Copyright ©2000 - 2019, vBulletin Solutions, Inc. Перевод: zCarot
© 2008 - 2019 Taifun With Song
Яндекс.Метрика