1
[Альбом] Boyz II Men - Collide - TAIFUN With Song
TAIFUN With Song
Навигация
R&B Ссылки на музыку в этом стиле

А знаете ли Вы, что...
Какой знаменитый музыкант играл в метро, и люди почти не проявили интерес к его музыке?
«Один из лучших скрипачей американец Джошуа Белл 12 января 2007 года согласился принять участие в эксперименте — утром на протяжении 45 минут он играл в вестибюле станции метро под видом обычного уличного музыканта. Из тысячи прошедших мимо людей только семь заинтересовались музыкой.»
 
Опции темы

  #1
Старый 17.11.2018, 12:36
sergych
Координатор
Досье
 
Аватар для sergych
Релиз Boyz II Men - Collide


2014 - Boyz II Men - Collide




Исполнитель/Artist: Boyz II Men
Альбом/Album: Collide
Год/Year: 2014
Жанр/Genre: R&B, pop, soul, hip hop
Страна/Country: Соединённые Штаты
Рекорд-лейбл/Record label: MSM Music Group
Номер в каталоге/Catalogue #: 81011347-2
Формат/Format: Free Lossless Audio Codec (*.flac)
Качество/Quality: Lossless
Тип рипа/RIP Type: image+.cue
Продолжительность/Length: 00:42:29
Источник/Source: Собственный рип
Размер/Size: 334.1 MB

Сканы в комплекте

Треклист

01. Me Myself And I [0:03:14.13]
02. What Happens In Vegas [0:02:49.01]
03. Diamond Eyes [0:04:20.45]
04. Better Half [0:02:59.24]
05. Underwater [0:03:49.04]
06. Believe Us [0:03:39.06]
07. Don't Stop [0:02:58.20]
08. Already Gone [0:03:13.00]
09. As Long As I'm With You [0:03:36.18]
10. Losing Sleep [0:04:12.37]
11. So What [0:03:31.41]
12. Collide [0:04:06.52]
[свернуть]

youtube.com

[свернуть]

EAC лог

Exact Audio Copy V1.3 from 2. September 2016

EAC extraction logfile from 15. November 2018, 18:55

Boyz II Men / Collide

Used drive : PIONEER DVD-RW DVR-220L Adapter: 1 ID: 0

Read mode : Secure
Utilize accurate stream : Yes
Defeat audio cache : Yes
Make use of C2 pointers : No

Read offset correction : 6
Overread into Lead-In and Lead-Out : No
Fill up missing offset samples with silence : Yes
Delete leading and trailing silent blocks : No
Null samples used in CRC calculations : Yes
Used interface : Installed external ASPI interface

Used output format : User Defined Encoder
Selected bitrate : 1024 kBit/s
Quality : High
Add ID3 tag : No
Command line compressor : C:\Program Files (x86)\Exact Audio Copy\Flac\flac.exe
Additional command line options : -6 -V -T "ARTIST=%artist%" -T "TITLE=%title%" -T "ALBUM=%albumtitle%" -T "DATE=%year%" -T "TRACKNUMBER=%tracknr%" -T "GENRE=%genre%" -T "COMMENT=%comment%" -T "BAND=%albuminterpret%" -T "ALBUMARTIST=%albuminterpret%" -T "COMPOSER=%composer%" %haslyrics%--tag-from-file=LYRICS="%lyricsfile%"%haslyrics% -T "DISCNUMBER=%cdnumber%" -T "TOTALDISCS=%totalcds%" -T "TOTALTRACKS=%numtracks%" %hascover%--picture="%coverfile%"%hascover% %source% -o %dest%


TOC of the extracted CD

Track | Start | Length | Start sector | End sector
---------------------------------------------------------
1 | 0:00.00 | 3:14.13 | 0 | 14562
2 | 3:14.13 | 2:49.01 | 14563 | 27238
3 | 6:03.14 | 4:20.45 | 27239 | 46783
4 | 10:23.59 | 2:59.24 | 46784 | 60232
5 | 13:23.08 | 3:49.04 | 60233 | 77411
6 | 17:12.12 | 3:39.06 | 77412 | 93842
7 | 20:51.18 | 2:58.20 | 93843 | 107212
8 | 23:49.38 | 3:13.00 | 107213 | 121687
9 | 27:02.38 | 3:36.18 | 121688 | 137905
10 | 30:38.56 | 4:12.37 | 137906 | 156842
11 | 34:51.18 | 3:31.41 | 156843 | 172708
12 | 38:22.59 | 4:06.52 | 172709 | 191210


Range status and errors

Selected range

Filename C:\mm\Boyz II Men\2014 - Collide [81011347-2]\Boyz II Men - Collide.wav

Peak level 96.6 %
Extraction speed 6.6 X
Range quality 100.0 %
Test CRC 9340711E
Copy CRC 9340711E
Copy OK

No errors occurred


AccurateRip summary

Track 1 accurately ripped (confidence 11) [A2F5821B] (AR v2)
Track 2 accurately ripped (confidence 11) [2E4A4700] (AR v2)
Track 3 accurately ripped (confidence 11) [B7EF6F8D] (AR v2)
Track 4 accurately ripped (confidence 11) [2E301BBD] (AR v2)
Track 5 accurately ripped (confidence 11) [37FC3F5F] (AR v2)
Track 6 accurately ripped (confidence 11) [8C02E1ED] (AR v2)
Track 7 accurately ripped (confidence 11) [267E3759] (AR v2)
Track 8 accurately ripped (confidence 11) [42FBFC5F] (AR v2)
Track 9 accurately ripped (confidence 11) [C5EB0C0A] (AR v2)
Track 10 accurately ripped (confidence 11) [40DFCB20] (AR v2)
Track 11 accurately ripped (confidence 11) [CE8128F6] (AR v2)
Track 12 accurately ripped (confidence 11) [27A90690] (AR v2)

All tracks accurately ripped

End of status report
[свернуть]

Файл CUE

REM GENRE RnB
REM DATE 2014
REM DISCID 8709F50C
REM COMMENT "ExactAudioCopy v1.3"
PERFORMER "Boyz II Men"
TITLE "Collide"
REM COMPOSER ""
FILE "Boyz II Men - Collide.flac" WAVE
TRACK 01 AUDIO
TITLE "Me Myself And I"
PERFORMER "Boyz II Men"
REM COMPOSER ""
INDEX 01 00:00:00
TRACK 02 AUDIO
TITLE "What Happens In Vegas"
PERFORMER "Boyz II Men"
REM COMPOSER ""
INDEX 00 03:13:16
INDEX 01 03:14:13
TRACK 03 AUDIO
TITLE "Diamond Eyes"
PERFORMER "Boyz II Men"
REM COMPOSER ""
INDEX 00 06:02:24
INDEX 01 06:03:14
TRACK 04 AUDIO
TITLE "Better Half"
PERFORMER "Boyz II Men"
REM COMPOSER ""
INDEX 00 10:22:33
INDEX 01 10:23:59
TRACK 05 AUDIO
TITLE "Underwater"
PERFORMER "Boyz II Men"
REM COMPOSER ""
INDEX 00 13:22:09
INDEX 01 13:23:08
TRACK 06 AUDIO
TITLE "Believe Us"
PERFORMER "Boyz II Men"
REM COMPOSER ""
INDEX 00 17:11:53
INDEX 01 17:12:12
TRACK 07 AUDIO
TITLE "Don't Stop"
PERFORMER "Boyz II Men"
REM COMPOSER ""
INDEX 00 20:49:71
INDEX 01 20:51:18
TRACK 08 AUDIO
TITLE "Already Gone"
PERFORMER "Boyz II Men"
REM COMPOSER ""
INDEX 00 23:48:73
INDEX 01 23:49:38
TRACK 09 AUDIO
TITLE "As Long As I'm With You"
PERFORMER "Boyz II Men"
REM COMPOSER ""
INDEX 00 27:02:21
INDEX 01 27:02:38
TRACK 10 AUDIO
TITLE "Losing Sleep"
PERFORMER "Boyz II Men"
REM COMPOSER ""
INDEX 00 30:37:18
INDEX 01 30:38:56
TRACK 11 AUDIO
TITLE "So What"
PERFORMER "Boyz II Men"
REM COMPOSER ""
INDEX 00 34:49:73
INDEX 01 34:51:18
TRACK 12 AUDIO
TITLE "Collide"
PERFORMER "Boyz II Men"
REM COMPOSER ""
INDEX 00 38:20:26
INDEX 01 38:22:59
[свернуть]

Лог проверки качества

AUDIOCHECKER v2.0 beta (build 457) - by Dester - [Ссылки могут видеть только зарегистрированные и активированные пользователи.]
[Only registered and activated users can see links.]
~~~~~~~~~~~~~~~~~~~~~~~~~~~~~~~~~~
-=== НЕ РЕДАКТИРУЙТЕ ЭТОТ ФАЙЛ! ===-

Путь: ...\2014 - Collide [81011347-2]

1 -=- Boyz II Men - Collide.flac -=- CDDA (99%)

5376628
[свернуть]

Спектр частот

[свернуть]

Скачать Boyz II Men - Collide

[Ссылки могут видеть только зарегистрированные и активированные пользователи.]
[Only registered and activated users can see links.]

password: sergych
[свернуть]

Контрольная сумма (хеш-сумма) архива

: 28b8f43431f41b02e17fc80f90f22a20
[свернуть]
My opinion of release: 10/10
__________________
TAIFUN.Wings of Soul


Последний раз редактировалось TAIFUN, 17.11.2018 в 18:33. Причина: частота/разрядность
Вверх
3 пользователя(ей) сказали cпасибо:
Показать список поблагодаривших
Похожие темы
Тема Автор Раздел Ответов Последнее сообщение
Релиз Zamia - Souls Collide PUPOKIN Alternative Metal 0 27.11.2011 09:37
Релиз Unruly Child - Worlds Collide PUPOKIN Rock 0 08.10.2010 10:10
Релиз Sinbreed — When Worlds Collide PUPOKIN Power Metal 0 20.05.2010 10:15
Релиз Jackyl — When Moonshine And Dynamite Collide PUPOKIN Hard Rock 0 11.05.2010 09:40
Ben Sage - How The Days Collide DarkDan Drum & Bass 0 02.06.2008 19:57


Метки
2014 , boyz ii men , collide , hip hop , pop , r&b , soul

Опции темы

Ваши права в разделе
Вы не можете создавать новые темы
Вы не можете отвечать в темах
Вы не можете прикреплять вложения
Вы не можете редактировать свои сообщения

Быстрый переход



Текущее время: 12:11. Часовой пояс GMT +3.
Powered by vBulletin® Version 3.8.10
Copyright ©2000 - 2018, vBulletin Solutions, Inc. Перевод: zCarot
© 2008 - 2018 Taifun With Song
Яндекс.Метрика