1
[Альбом] Diana Krall - The Girl In The Other Room - TAIFUN With Song
TAIFUN With Song
Навигация
Jazz и Blues Гибкая ритмика, импровизационное начало, гармонии и мелодии - все это Jazz. Blues - жизнеутверждающая музыка, рожденная из душевной боли

А знаете ли Вы, что...
Какой музыкальный инструмент извлекает звуки из сталактитов одной американской пещеры?
«В американском штате Вирджиния находятся Лурейские пещеры, где установлен уникальный музыкальный инструмент — орган из сталактитов. 37 разных по тону сталактитов подключены к трубочной системе традиционного органа и управляются с обычной органной клавиатуры.»
 
Опции темы

  #1
Старый 24.09.2013, 20:54
sergych
Координатор
Досье
 
Аватар для sergych
Релиз Diana Krall - The Girl In The Other Room


2004 - Diana Krall - The Girl In The Other Room




Исполнитель/Artist: Diana Krall
Альбом/Album: The Girl In The Other Room
Год/Year: 2004
Жанр/Genre: Smooth Jazz, Contemporary Jazz, Vocal jazz
Страна/Country: Европа
Рекорд-лейбл/Record label: Verve
Номер в каталоге/Catalogue #: 0602498622469
Формат/Format: Free Lossless Audio Codec (*.flac)
Качество/Quality: Lossless
Тип рипа/RIP Type: image+.cue
Продолжительность/Length: 00:55:36
Источник/Source: Собственный рип
Размер/Size: 366.9 MB

Сканы в комплекте

Треклист

01. Stop This World [0:03:59.14]
02. The Girl in the Other Room [0:04:05.17]
03. Temptation [0:04:27.54]
04. Almost Blue [0:04:04.45]
05. I've Changed My Address [0:04:47.39]
06. Love Me Like a Man [0:05:49.20]
07. I'm Pulling Through [0:04:02.49]
08. Black Crow [0:04:49.10]
09. Narrow Daylight [0:03:32.35]
10. Abandoned Masquerade [0:05:11.11]
11. I'm Coming Through [0:05:07.67]
12. Departure Bay [0:05:39.38]
[свернуть]

youtube.com

[свернуть]

Исполнители/Performers

Diana Krall: Vocals, Piano
Peter Erskine: drums on "Stop This World", "Almost Blue", and tracks 7 to 12
Jeff Hamilton: drums on "The Girl In The Other Room", "I've Changed My Address", and "Love Me Like A Man"
Terri Lyne Carrington: drums on "Temptation"
Christian McBride: Bass on "Stop This World", "Temptation", "Almost Blue", and tracks 7 to 12
John Clayton: Bass on "The Girl In The Other Room", "I've Changed My Address", and "Love Me Like A Man"
Neil Larsen: Hammond B-3 on "Temptation"
Anthony Wilson: Guitar
[свернуть]

EAC лог

Exact Audio Copy V1.0 beta 3 from 29. August 2011

EAC extraction logfile from 2. December 2013, 22:31

Diana Krall / The Girl in the Other Room

Used drive : ATAPI iHAS124 D Adapter: 0 ID: 2

Read mode : Secure
Utilize accurate stream : Yes
Defeat audio cache : Yes
Make use of C2 pointers : No

Read offset correction : 6
Overread into Lead-In and Lead-Out : No
Fill up missing offset samples with silence : Yes
Delete leading and trailing silent blocks : No
Null samples used in CRC calculations : Yes
Used interface : Installed external ASPI interface

Used output format : User Defined Encoder
Selected bitrate : 1024 kBit/s
Quality : High
Add ID3 tag : No
Command line compressor : C:\Program Files (x86)\Exact Audio Copy\Flac\flac.exe
Additional command line options : -6 -V -T "ARTIST=%artist%" -T "TITLE=%title%" -T "ALBUM=%albumtitle%" -T "DATE=%year%" -T "TRACKNUMBER=%tracknr%" -T "GENRE=%genre%" -T "COMMENT=%comment%" -T "BAND=%albuminterpret%" -T "COMPOSER=%composer%" %haslyrics%--tag-from-file=LYRICS="%lyricsfile%"%haslyrics% -T "DISCNUMBER=%cdnumber%" -T "TOTALDISCS=%totalcds%" -T "TOTALTRACKS=%numtracks%" %hascover%--picture="%coverfile%"%hascover% %source% -o %dest%


TOC of the extracted CD

Track | Start | Length | Start sector | End sector
---------------------------------------------------------
1 | 0:00.00 | 3:59.14 | 0 | 17938
2 | 3:59.14 | 4:05.17 | 17939 | 36330
3 | 8:04.31 | 4:27.54 | 36331 | 56409
4 | 12:32.10 | 4:04.45 | 56410 | 74754
5 | 16:36.55 | 4:47.39 | 74755 | 96318
6 | 21:24.19 | 5:49.20 | 96319 | 122513
7 | 27:13.39 | 4:02.49 | 122514 | 140712
8 | 31:16.13 | 4:49.10 | 140713 | 162397
9 | 36:05.23 | 3:32.35 | 162398 | 178332
10 | 39:37.58 | 5:11.11 | 178333 | 201668
11 | 44:48.69 | 5:07.67 | 201669 | 224760
12 | 49:56.61 | 5:39.38 | 224761 | 250223


Range status and errors

Selected range

Filename C:\mm\Diana Krall\2004 - The Girl In The Other Room [0602498622469]\Diana Krall - The Girl in the Other Room.wav

Peak level 100.0 %
Extraction speed 3.2 X
Range quality 100.0 %
Test CRC 92D194EA
Copy CRC 92D194EA
Copy OK

No errors occurred


AccurateRip summary

Track 1 accurately ripped (confidence 200) [98B9AB77] (AR v2)
Track 2 accurately ripped (confidence 200) [90035A7F] (AR v2)
Track 3 accurately ripped (confidence 200) [099B1C07] (AR v2)
Track 4 accurately ripped (confidence 200) [6975054E] (AR v2)
Track 5 accurately ripped (confidence 200) [A1E838B1] (AR v2)
Track 6 accurately ripped (confidence 200) [27F6E941] (AR v2)
Track 7 accurately ripped (confidence 200) [B57E5282] (AR v2)
Track 8 accurately ripped (confidence 200) [C23F992A] (AR v2)
Track 9 accurately ripped (confidence 200) [25965789] (AR v2)
Track 10 accurately ripped (confidence 200) [900E4A1A] (AR v2)
Track 11 accurately ripped (confidence 200) [A6A9A5D0] (AR v2)
Track 12 accurately ripped (confidence 200) [0936505B] (AR v2)

All tracks accurately ripped

End of status report

---- CUETools DB Plugin V2.1.3

[CTDB TOCID: 9vDdN0.Lffzy69D85OAqxtdoJpA-] found, Submit result: 9vDdN0.Lffzy69D85OAqxtdoJpA- has been confirmed
[ae30fcd4] (918/959) Accurately ripped
[c84d04da] (001/959) No match
[15f66443] (001/959) No match
[6f77c936] (001/959) No match
[0eeeb0ed] (001/959) No match
[6e5610c1] (001/959) No match
[df8ed531] (001/959) No match
[48e92555] (001/959) No match
[f1145a07] (001/959) No match
[bbad630f] (001/959) No match
[285ef7c3] (001/959) No match
[1be6030a] (002/959) Differs in 637 samples @14:16:34-14:16:35
[c7ec9e7c] (001/959) No match
[f34d5adf] (001/959) No match
[60cede18] (001/959) No match
[5f6becbd] (001/959) No match
[f5bf860e] (001/959) No match
[75a715f4] (001/959) No match
[1c794873] (001/959) No match
[124e7ae3] (001/959) No match
[cf6f0a1d] (001/959) No match
[d9e67c4a] (001/959) No match
[b941abdf] (001/959) No match
[f4b85491] (001/959) No match
[a51a2010] (001/959) No match
[23b3db70] (001/959) No match
[537d85bc] (001/959) No match
[fa58b871] (001/959) No match
[3392a66e] (001/959) No match
[cff290a7] (005/959) No match
[c953843f] (001/959) No match
[9ea0adea] (001/959) No match
[40cbc9ab] (001/959) No match
[56b3b0a9] (001/959) No match
[6604d734] (001/959) No match
[2f52d4f9] (001/959) No match
[e7c273e2] (001/959) No match
You can use CUETools to repair this rip.
[свернуть]

Файл CUE

REM DATE 2004
REM DISCID CF0D080C
REM COMMENT "ExactAudioCopy v1.0b3"
PERFORMER "Diana Krall"
TITLE "The Girl in the Other Room"
FILE "Diana Krall - The Girl in the Other Room.flac" WAVE
TRACK 01 AUDIO
TITLE "Stop This World"
PERFORMER "Diana Krall"
FLAGS DCP
INDEX 01 00:00:00
TRACK 02 AUDIO
TITLE "The Girl in the Other Room"
PERFORMER "Diana Krall"
FLAGS DCP
INDEX 00 03:58:31
INDEX 01 03:59:14
TRACK 03 AUDIO
TITLE "Temptation"
PERFORMER "Diana Krall"
FLAGS DCP
INDEX 00 08:03:29
INDEX 01 08:04:31
TRACK 04 AUDIO
TITLE "Almost Blue"
PERFORMER "Diana Krall"
FLAGS DCP
INDEX 01 12:32:10
TRACK 05 AUDIO
TITLE "I've Changed My Address"
PERFORMER "Diana Krall"
FLAGS DCP
INDEX 00 16:35:37
INDEX 01 16:36:55
TRACK 06 AUDIO
TITLE "Love Me Like a Man"
PERFORMER "Diana Krall"
FLAGS DCP
INDEX 00 21:22:68
INDEX 01 21:24:19
TRACK 07 AUDIO
TITLE "I'm Pulling Through"
PERFORMER "Diana Krall"
FLAGS DCP
INDEX 00 27:13:09
INDEX 01 27:13:39
TRACK 08 AUDIO
TITLE "Black Crow"
PERFORMER "Diana Krall"
FLAGS DCP
INDEX 00 31:15:57
INDEX 01 31:16:13
TRACK 09 AUDIO
TITLE "Narrow Daylight"
PERFORMER "Diana Krall"
FLAGS DCP
INDEX 00 36:04:10
INDEX 01 36:05:23
TRACK 10 AUDIO
TITLE "Abandoned Masquerade"
PERFORMER "Diana Krall"
FLAGS DCP
INDEX 00 39:36:64
INDEX 01 39:37:58
TRACK 11 AUDIO
TITLE "I'm Coming Through"
PERFORMER "Diana Krall"
FLAGS DCP
INDEX 00 44:48:45
INDEX 01 44:48:69
TRACK 12 AUDIO
TITLE "Departure Bay"
PERFORMER "Diana Krall"
FLAGS DCP
INDEX 00 49:55:60
INDEX 01 49:56:61
[свернуть]

Лог проверки качества

AUDIOCHECKER v2.0 beta (build 457) - by Dester - [Ссылки могут видеть только зарегистрированные и активированные пользователи.]
[Only registered and activated users can see links.]
~~~~~~~~~~~~~~~~~~~~~~~~~~~~~~~~~~
-=== НЕ РЕДАКТИРУЙТЕ ЭТОТ ФАЙЛ! ===-

Путь: ...\2004 - The Girl In The Other Room [0602498622469]

1 -=- Diana Krall - The Girl in the Other Room.flac -=- CDDA (100%)

212749652
[свернуть]

Спектр частот

[свернуть]

Скачать Diana Krall - The Girl In The Other Room

[Ссылки могут видеть только зарегистрированные и активированные пользователи.]
[Only registered and activated users can see links.]

password: sergych
[свернуть]

Контрольная сумма (хеш-сумма) архива

MD5: 8daa6108da8ed47e227907756e095e77
[свернуть]
My opinion of release: 10/10
__________________
TAIFUN.Wings of Soul


Последний раз редактировалось sergych, 19.11.2018 в 14:20. Причина: заменил инетовский рип собственным
Вверх
4 пользователя(ей) сказали cпасибо:
Показать список поблагодаривших
  #2
Старый 19.11.2018, 14:21
sergych
Координатор
Досье
 
Аватар для sergych
Lightbulb Re: Diana Krall - The Girl In The Other Room

заменил инетовский рип собственным
__________________
TAIFUN.Wings of Soul

Вверх
4 пользователя(ей) сказали cпасибо:
Показать список поблагодаривших
Похожие темы
Тема Автор Раздел Ответов Последнее сообщение
Live Diana Krall - Live in Paris sergych Jazz и Blues 1 29.08.2017 00:29
Альбом Diana Krall - When I Look In Your Eyes sergych Jazz и Blues 1 13.01.2016 18:56
Альбом Diana Krall - The Look Of Love sergych Jazz и Blues 1 15.03.2014 14:16
Альбом Diana Krall - Love Scenes sergych Jazz и Blues 0 24.09.2013 14:27
Альбом Diana Krall - Stepping Out sergych Jazz и Blues 0 23.09.2013 19:47


Метки
2004 , contemporary jazz , diana krall , smooth jazz , the girl in the other room , vocal jazz

Опции темы

Ваши права в разделе
Вы не можете создавать новые темы
Вы не можете отвечать в темах
Вы не можете прикреплять вложения
Вы не можете редактировать свои сообщения

Быстрый переход



Текущее время: 12:13. Часовой пояс GMT +3.
Powered by vBulletin® Version 3.8.10
Copyright ©2000 - 2018, vBulletin Solutions, Inc. Перевод: zCarot
© 2008 - 2018 Taifun With Song
Яндекс.Метрика