TAIFUN With Song
Навигация
Reggae Впервые возник в 1968 году. Будучи «наследником» рокстеди и ска, реггей значительно от него отличается, уходя от мягкого и где-то слащавого звука (перенятого рокстеди из американского Ритм-энд-блюза), к более жёсткой ритмике, где ритм-секция выступает на первый план.

А знаете ли Вы, что...
Какой русский музыкальный инструмент мы называем цыганским?
«Семиструнную гитару во всём мире называют русской гитарой, а у нас также распространено название цыганская гитара.»
 
Опции темы

  #1
Старый 21.03.2017, 21:46
sergych
Координатор
Досье
 
Аватар для sergych
Релиз UB40 - The Very Best Of UB40 1980-2000


2000 - UB40 - The Very Best Of UB40 1980-2000




Исполнитель/Artist: UB40
Альбом/Album: The Very Best Of UB40 1980-2000
Год/Year: 2000
Жанр/Genre: Pop, reggae, dub, ska
Страна/Country: Великобритания
Рекорд-лейбл/Record label: DEP
Номер в каталоге/Catalogue #: DUBTVX3
Формат/Format: Free Lossless Audio Codec (*.flac)
Качество/Quality: Lossless
Тип рипа/RIP Type: image+.cue
Продолжительность/Length: 01:16:26
Источник/Source: Собственный рип
Размер/Size: 591.9 MB

Сканы в комплекте

Треклист

01. One In Ten [0:04:33.22]
02. Red Red Wine [0:03:03.60]
03. Kingston Town [0:03:50.30]
04. Higher Ground [0:04:21.65]
05. King [0:04:36.40]
06. Cherry Oh Baby [0:03:18.53]
07. I Got You Babe [0:03:09.55]
08. Come Back Darling [0:03:28.30]
09. The Earth Dies Screaming [0:04:38.12]
10. If It Happens Again [0:03:43.08]
11. Don't Break My Heart [0:03:50.62]
12. Can't Help Falling In Love [0:03:29.00]
13. Watchdogs [0:04:16.60]
14. Tell Me Is It True [0:03:24.25]
15. Rat In Mi Kitchen [0:03:05.58]
16. Homely Girl [0:03:22.22]
17. Light My Fire [0:03:46.38]
18. Bring Me Your Cup [0:04:09.70]
19. Food For Thought [0:04:11.07]
20. Sing Our Own Song [0:04:05.13]
[свернуть]

youtube.com

[свернуть]

EAC лог

Exact Audio Copy V1.3 from 2. September 2016

EAC extraction logfile from 16. March 2017, 19:44

UB40 / The Very Best Of UB40 1980-2000

Used drive : PLEXTOR DVDR PX-716A Adapter: 1 ID: 0

Read mode : Secure
Utilize accurate stream : Yes
Defeat audio cache : Yes
Make use of C2 pointers : No

Read offset correction : 30
Overread into Lead-In and Lead-Out : No
Fill up missing offset samples with silence : Yes
Delete leading and trailing silent blocks : No
Null samples used in CRC calculations : Yes
Used interface : Native Win32 interface for Win NT & 2000

Used output format : User Defined Encoder
Selected bitrate : 1024 kBit/s
Quality : High
Add ID3 tag : No
Command line compressor : C:\Program Files (x86)\Exact Audio Copy\FLAC\FLAC.EXE
Additional command line options : -6 -V -T "ARTIST=%artist%" -T "TITLE=%title%" -T "ALBUM=%albumtitle%" -T "DATE=%year%" -T "TRACKNUMBER=%tracknr%" -T "GENRE=%genre%" -T "COMMENT=%comment%" -T "BAND=%albuminterpret%" -T "ALBUMARTIST=%albuminterpret%" -T "COMPOSER=%composer%" %haslyrics%--tag-from-file=LYRICS="%lyricsfile%"%haslyrics% -T "DISCNUMBER=%cdnumber%" -T "TOTALDISCS=%totalcds%" -T "TOTALTRACKS=%numtracks%" %hascover%--picture="%coverfile%"%hascover% %source% -o %dest%


TOC of the extracted CD

Track | Start | Length | Start sector | End sector
---------------------------------------------------------
1 | 0:00.00 | 4:33.22 | 0 | 20496
2 | 4:33.22 | 3:03.60 | 20497 | 34281
3 | 7:37.07 | 3:50.30 | 34282 | 51561
4 | 11:27.37 | 4:21.65 | 51562 | 71201
5 | 15:49.27 | 4:36.40 | 71202 | 91941
6 | 20:25.67 | 3:18.53 | 91942 | 106844
7 | 23:44.45 | 3:09.55 | 106845 | 121074
8 | 26:54.25 | 3:28.30 | 121075 | 136704
9 | 30:22.55 | 4:38.12 | 136705 | 157566
10 | 35:00.67 | 3:43.08 | 157567 | 174299
11 | 38:44.00 | 3:50.62 | 174300 | 191611
12 | 42:34.62 | 3:29.00 | 191612 | 207286
13 | 46:03.62 | 4:16.60 | 207287 | 226546
14 | 50:20.47 | 3:24.25 | 226547 | 241871
15 | 53:44.72 | 3:05.58 | 241872 | 255804
16 | 56:50.55 | 3:22.22 | 255805 | 270976
17 | 60:13.02 | 3:46.38 | 270977 | 287964
18 | 63:59.40 | 4:09.70 | 287965 | 306709
19 | 68:09.35 | 4:11.07 | 306710 | 325541
20 | 72:20.42 | 4:05.13 | 325542 | 343929


Range status and errors

Selected range

Filename C:\mm\UB40\2000 - The Very Best of UB40 1980-2000 [DUBTVX3]\UB40 - The Very Best Of UB40 1980-2000.wav

Peak level 98.0 %
Extraction speed 3.8 X
Range quality 100.0 %
Test CRC 78318101
Copy CRC 78318101
Copy OK

No errors occurred


AccurateRip summary

Track 1 accurately ripped (confidence 33) [F3619A2D] (AR v2)
Track 2 accurately ripped (confidence 33) [32BC4A83] (AR v2)
Track 3 accurately ripped (confidence 33) [1549AA4C] (AR v2)
Track 4 accurately ripped (confidence 33) [1BFEBD59] (AR v2)
Track 5 accurately ripped (confidence 32) [5BAF4B9F] (AR v2)
Track 6 accurately ripped (confidence 33) [94031261] (AR v2)
Track 7 accurately ripped (confidence 33) [E4B49C0E] (AR v2)
Track 8 accurately ripped (confidence 33) [904A74CB] (AR v2)
Track 9 accurately ripped (confidence 32) [B5A5260D] (AR v2)
Track 10 accurately ripped (confidence 32) [5287C438] (AR v2)
Track 11 accurately ripped (confidence 33) [4F9EE18B] (AR v2)
Track 12 accurately ripped (confidence 33) [A43CD52C] (AR v2)
Track 13 accurately ripped (confidence 33) [9ADA4C95] (AR v2)
Track 14 accurately ripped (confidence 33) [AEC43FFB] (AR v2)
Track 15 accurately ripped (confidence 32) [A7218CE5] (AR v2)
Track 16 accurately ripped (confidence 33) [58003AE8] (AR v2)
Track 17 accurately ripped (confidence 31) [C8F17BF4] (AR v2)
Track 18 accurately ripped (confidence 30) [668BEBE8] (AR v2)
Track 19 accurately ripped (confidence 29) [0D4B7A53] (AR v2)
Track 20 accurately ripped (confidence 28) [5280DBE7] (AR v2)

All tracks accurately ripped

End of status report

---- CUETools DB Plugin V2.1.6

[CTDB TOCID: YiIGWFzbIJqZp7afPWN.9clcSDw-] found
Submit result: YiIGWFzbIJqZp7afPWN.9clcSDw- has been confirmed
Track | CTDB Status
1 | ( 99/101) Accurately ripped
2 | (101/101) Accurately ripped
3 | ( 99/101) Accurately ripped
4 | ( 99/101) Accurately ripped
5 | (100/101) Accurately ripped
6 | (100/101) Accurately ripped
7 | (100/101) Accurately ripped
8 | (100/101) Accurately ripped
9 | (100/101) Accurately ripped
10 | ( 99/101) Accurately ripped
11 | ( 99/101) Accurately ripped
12 | (101/101) Accurately ripped
13 | (100/101) Accurately ripped
14 | (100/101) Accurately ripped
15 | ( 99/101) Accurately ripped
16 | ( 99/101) Accurately ripped
17 | ( 98/101) Accurately ripped
18 | (100/101) Accurately ripped
19 | ( 99/101) Accurately ripped
20 | ( 99/101) Accurately ripped
[свернуть]

Файл CUE

REM GENRE Pop
REM DATE 2000
REM DISCID 0F11E914
REM COMMENT "ExactAudioCopy v1.3"
PERFORMER "UB40"
TITLE "The Very Best Of UB40 1980-2000"
REM COMPOSER ""
FILE "UB40 - The Very Best Of UB40 1980-2000.flac" WAVE
TRACK 01 AUDIO
TITLE "One In Ten"
PERFORMER "UB40"
REM COMPOSER ""
INDEX 01 00:00:00
TRACK 02 AUDIO
TITLE "Red Red Wine"
PERFORMER "UB40"
REM COMPOSER ""
INDEX 00 04:32:00
INDEX 01 04:33:22
TRACK 03 AUDIO
TITLE "Kingston Town"
PERFORMER "UB40"
REM COMPOSER ""
INDEX 00 07:34:70
INDEX 01 07:37:07
TRACK 04 AUDIO
TITLE "Higher Ground"
PERFORMER "UB40"
REM COMPOSER ""
INDEX 00 11:26:20
INDEX 01 11:27:37
TRACK 05 AUDIO
TITLE "King"
PERFORMER "UB40"
REM COMPOSER ""
INDEX 00 15:47:35
INDEX 01 15:49:27
TRACK 06 AUDIO
TITLE "Cherry Oh Baby"
PERFORMER "UB40"
REM COMPOSER ""
INDEX 00 20:24:05
INDEX 01 20:25:67
TRACK 07 AUDIO
TITLE "I Got You Babe"
PERFORMER "UB40"
REM COMPOSER ""
INDEX 00 23:42:32
INDEX 01 23:44:45
TRACK 08 AUDIO
TITLE "Come Back Darling"
PERFORMER "UB40"
REM COMPOSER ""
INDEX 00 26:52:45
INDEX 01 26:54:25
TRACK 09 AUDIO
TITLE "The Earth Dies Screaming"
PERFORMER "UB40"
REM COMPOSER ""
INDEX 01 30:22:55
TRACK 10 AUDIO
TITLE "If It Happens Again"
PERFORMER "UB40"
REM COMPOSER ""
INDEX 00 34:59:07
INDEX 01 35:00:67
TRACK 11 AUDIO
TITLE "Don't Break My Heart"
PERFORMER "UB40"
REM COMPOSER ""
INDEX 00 38:42:55
INDEX 01 38:44:00
TRACK 12 AUDIO
TITLE "Can't Help Falling In Love"
PERFORMER "UB40"
REM COMPOSER ""
INDEX 01 42:34:62
TRACK 13 AUDIO
TITLE "Watchdogs"
PERFORMER "UB40"
REM COMPOSER ""
INDEX 00 46:01:35
INDEX 01 46:03:62
TRACK 14 AUDIO
TITLE "Tell Me Is It True"
PERFORMER "UB40"
REM COMPOSER ""
INDEX 01 50:20:47
TRACK 15 AUDIO
TITLE "Rat In Mi Kitchen"
PERFORMER "UB40"
REM COMPOSER ""
INDEX 00 53:43:27
INDEX 01 53:44:72
TRACK 16 AUDIO
TITLE "Homely Girl"
PERFORMER "UB40"
REM COMPOSER ""
INDEX 00 56:49:22
INDEX 01 56:50:55
TRACK 17 AUDIO
TITLE "Light My Fire"
PERFORMER "UB40"
REM COMPOSER ""
INDEX 01 60:13:02
TRACK 18 AUDIO
TITLE "Bring Me Your Cup"
PERFORMER "UB40"
REM COMPOSER ""
INDEX 00 63:58:30
INDEX 01 63:59:40
TRACK 19 AUDIO
TITLE "Food For Thought"
PERFORMER "UB40"
REM COMPOSER ""
INDEX 00 68:07:42
INDEX 01 68:09:35
TRACK 20 AUDIO
TITLE "Sing Our Own Song"
PERFORMER "UB40"
REM COMPOSER ""
INDEX 00 72:18:45
INDEX 01 72:20:42
[свернуть]

Лог проверки качества

AUDIOCHECKER v2.0 beta (build 457) - by Dester -
~~~~~~~~~~~~~~~~~~~~~~~~~~~~~~~~~~
-=== НЕ РЕДАКТИРУЙТЕ ЭТОТ ФАЙЛ! ===-

Путь: ...\2000 - The Very Best of UB40 1980-2000 [DUBTVX3]

1 -=- UB40 - The Very Best Of UB40 1980-2000.flac -=- CDDA (100%)

159940644
[свернуть]

Спектр частот

[свернуть]

Скачать UB40 - The Very Best Of UB40 1980-2000



password: sergych
[свернуть]

Контрольная сумма (хеш-сумма) архива

MD5: c3d0e363974357de40ce2fc59a10fba3
[свернуть]
My opinion of release: 10/10
__________________
TAIFUN.Wings of Soul

Вверх
Пользователь сказал cпасибо:
swint68 (22.03.2017)
Похожие темы
Тема Автор Раздел Ответов Последнее сообщение
Альбом UB40 - Geffery Morgan... sergych Reggae 0 30.10.2016 19:54
Альбом UB40 - Promises And Lies sergych Reggae 0 06.04.2015 00:10
Альбом UB40 - TwentyFourSeven sergych Reggae 0 15.01.2015 19:11
Сборник UB40 - UB40 sergych Reggae 0 15.01.2015 18:26
Экс-вокалист UB40 выпускает сольный диск PUPOKIN Новости в мире музыки 0 20.05.2009 10:50


Метки
2000 , dub , pop , reggae , ska , the very best of ub40 1980-2000 , ub40

Опции темы

Ваши права в разделе
Вы не можете создавать новые темы
Вы не можете отвечать в темах
Вы не можете прикреплять вложения
Вы не можете редактировать свои сообщения

Быстрый переход



Текущее время: 20:44. Часовой пояс GMT +3.
Powered by vBulletin® Version 3.8.10
Copyright ©2000 - 2018, vBulletin Solutions, Inc. Перевод: zCarot
© 2008 - 2018 Taifun With Song
Яндекс.Метрика