TAIFUN With Song
Навигация
Вернуться   TAIFUN With Song > Music (обменник) > Rock > Russian Rock
Расширенный поиск
Russian Rock Альбомы рок-групп стран СНГ

А знаете ли Вы, что...
Какой композитор писал музыку, будучи глухим?
«На момент написания своей знаменитой девятой симфонии Бетховен был абсолютно глух.»
 
Опции темы

  #1
Старый 23.04.2016, 19:34
sergych
Координатор
Досье
 
Аватар для sergych
Релиз Boris Grebenshikov - Lilith (Black Moon)


1997 - Boris Grebenshikov - Lilith (Black Moon)




Исполнитель/Artist: Boris Grebenshikov
Альбом/Album: Lilith (Black Moon)
Год/Year: 1997
Жанр/Genre: Rock
Страна/Country: Соединённые Штаты
Рекорд-лейбл/Record label: Proforma Records
Номер в каталоге/Catalogue #: DS002
Формат/Format: Free Lossless Audio Codec (*.flac)
Качество/Quality: Lossless
Тип рипа/RIP Type: image+.cue
Продолжительность/Length: 00:55:52
Источник/Source: Собственный рип
Размер/Size: 441.9 MB

Сканы в комплекте

Треклист

01. 4D (Last Day Of August) [0:04:27.27]
02. On The Way From Kalinin To Tver [0:04:11.33]
03. Heavy Doom [0:04:43.20]
04. It Happened In Kazan [0:04:48.17]
05. If Not For You [0:03:05.58]
06. Swamps Of Neva [0:04:03.47]
07. Darya Darya [0:04:11.20]
08. Doctor [0:04:44.05]
09. Some Mary [0:03:32.55]
10. Where The Moon Кises [0:03:39.43]
11. Pale Imitation Of Love [0:03:22.15]
12. How Do I Know You (Paranoia) [0:06:44.12]
13. Road To Damascus [0:04:18.15]
[свернуть]

youtube.com

[свернуть]

Исполнители/Performers

БГ — акустическая гитара, гармошка, голос

The Band:
Garth Hudson — орган Хаммонда B-3, аккордеон
Rick Danko — Бас-гитара, «tuba» бас (9)
Jim Weider — el. guitar
Randy Ciarlante — ударные, congas, percussion

+
Harvey Brooks — bass
Benny Kay — фортепиано, орган, электро-пианино, аранжировки (9)
Terry Waldo — аранжировки
Peter Ecklund — trumpet (труба)
Orange Kellin — clarinet (кларнет)
Joel Helleny — trombone (тромбон)
Jeff Kievit — trumpet & section arrangement (3)
Bob Hoffnar — педальная слайд-гитара (13)
Nick Caiano — miscellaneous percussion, слайд-гитара
[свернуть]

EAC лог

Exact Audio Copy V1.1 from 23. June 2015

EAC extraction logfile from 14. April 2016, 11:07

Boris Grebenshikov / Lilith (Black Moon)

Used drive : Optiarc DVD RW AD-7260S Adapter: 1 ID: 0

Read mode : Secure
Utilize accurate stream : Yes
Defeat audio cache : Yes
Make use of C2 pointers : No

Read offset correction : 48
Overread into Lead-In and Lead-Out : No
Fill up missing offset samples with silence : Yes
Delete leading and trailing silent blocks : No
Null samples used in CRC calculations : Yes
Used interface : Native Win32 interface for Win NT & 2000

Used output format : User Defined Encoder
Selected bitrate : 896 kBit/s
Quality : High
Add ID3 tag : No
Command line compressor : C:\MMProgram\Exact Audio Copy\FLAC\FLAC.EXE
Additional command line options : -6 -V -T "ARTIST=%artist%" -T "TITLE=%title%" -T "ALBUM=%albumtitle%" -T "DATE=%year%" -T "TRACKNUMBER=%tracknr%" -T "GENRE=%genre%" -T "COMMENT=%comment%" -T "BAND=%albuminterpret%" -T "ALBUMARTIST=%albuminterpret%" -T "COMPOSER=%composer%" %haslyrics%--tag-from-file=LYRICS="%lyricsfile%"%haslyrics% -T "DISCNUMBER=%cdnumber%" -T "TOTALDISCS=%totalcds%" -T "TOTALTRACKS=%numtracks%" %hascover%--picture="%coverfile%"%hascover% %source% -o %dest%


TOC of the extracted CD

Track | Start | Length | Start sector | End sector
---------------------------------------------------------
1 | 0:00.00 | 4:27.27 | 0 | 20051
2 | 4:27.27 | 4:11.33 | 20052 | 38909
3 | 8:38.60 | 4:43.20 | 38910 | 60154
4 | 13:22.05 | 4:48.17 | 60155 | 81771
5 | 18:10.22 | 3:05.58 | 81772 | 95704
6 | 21:16.05 | 4:03.47 | 95705 | 113976
7 | 25:19.52 | 4:11.20 | 113977 | 132821
8 | 29:30.72 | 4:44.05 | 132822 | 154126
9 | 34:15.02 | 3:32.55 | 154127 | 170081
10 | 37:47.57 | 3:39.43 | 170082 | 186549
11 | 41:27.25 | 3:22.15 | 186550 | 201714
12 | 44:49.40 | 6:44.12 | 201715 | 232026
13 | 51:33.52 | 4:18.15 | 232027 | 251391


Range status and errors

Selected range

Filename F:\Music\БГ\1997 - Lilith (Black Moon) [DS002]\Boris Grebenshikov - Lilith (Black Moon).wav

Peak level 100.0 %
Extraction speed 4.0 X
Range quality 99.9 %
Test CRC 2E2D4A7D
Copy CRC 2E2D4A7D
Copy OK

No errors occurred


AccurateRip summary

Track 1 cannot be verified as accurate (confidence 1) [8965E621], AccurateRip returned [1830F3AA] (AR v2)
Track 2 cannot be verified as accurate (confidence 1) [A370D071], AccurateRip returned [E6E5EE1F] (AR v2)
Track 3 cannot be verified as accurate (confidence 1) [B1B7A576], AccurateRip returned [BD36F475] (AR v2)
Track 4 cannot be verified as accurate (confidence 1) [A0028976], AccurateRip returned [6ED1A586] (AR v2)
Track 5 cannot be verified as accurate (confidence 1) [DC98931E], AccurateRip returned [AFABF91C] (AR v2)
Track 6 cannot be verified as accurate (confidence 1) [DE7413F4], AccurateRip returned [999907F6] (AR v2)
Track 7 cannot be verified as accurate (confidence 1) [424A9E64], AccurateRip returned [E6FBAD42] (AR v2)
Track 8 cannot be verified as accurate (confidence 1) [E4182045], AccurateRip returned [AB213FB7] (AR v2)
Track 9 cannot be verified as accurate (confidence 1) [E99859FD], AccurateRip returned [0CDF153F] (AR v2)
Track 10 cannot be verified as accurate (confidence 1) [02155C33], AccurateRip returned [630B5C51] (AR v2)
Track 11 cannot be verified as accurate (confidence 1) [54D6992B], AccurateRip returned [699D66F6] (AR v2)
Track 12 cannot be verified as accurate (confidence 1) [81AF7993], AccurateRip returned [86B08C78] (AR v2)
Track 13 cannot be verified as accurate (confidence 1) [23642351], AccurateRip returned [F6018782] (AR v2)

No tracks could be verified as accurate
You may have a different pressing from the one(s) in the database

End of status report

---- CUETools DB Plugin V2.1.6

[CTDB TOCID: z.F78fbCMjdFIDRZK3Y.Qvt2aXs-] found
Submit result: z.F78fbCMjdFIDRZK3Y.Qvt2aXs- has been confirmed
Track | CTDB Status
1 | (2/2) Accurately ripped
2 | (2/2) Accurately ripped
3 | (2/2) Accurately ripped
4 | (2/2) Accurately ripped
5 | (2/2) Accurately ripped
6 | (2/2) Accurately ripped
7 | (2/2) Accurately ripped
8 | (2/2) Accurately ripped
9 | (2/2) Accurately ripped
10 | (2/2) Accurately ripped
11 | (2/2) Accurately ripped
12 | (2/2) Accurately ripped
13 | (2/2) Accurately ripped
[свернуть]

Файл CUE

REM GENRE Blues
REM DATE 1997
REM DISCID B90D170D
REM COMMENT "ExactAudioCopy v1.1"
PERFORMER "Boris Grebenshikov"
TITLE "Lilith (Black Moon)"
FILE "Boris Grebenshikov - Lilith (Black Moon).flac" WAVE
TRACK 01 AUDIO
TITLE "4D (Last Day Of August)"
PERFORMER "Boris Grebenshikov"
INDEX 01 00:00:00
TRACK 02 AUDIO
TITLE "On The Way From Kalinin To Tver"
PERFORMER "Boris Grebenshikov"
INDEX 01 04:27:27
TRACK 03 AUDIO
TITLE "Heavy Doom"
PERFORMER "Boris Grebenshikov"
INDEX 01 08:38:60
TRACK 04 AUDIO
TITLE "It Happened In Kazan"
PERFORMER "Boris Grebenshikov"
INDEX 01 13:22:05
TRACK 05 AUDIO
TITLE "If Not For You"
PERFORMER "Boris Grebenshikov"
INDEX 01 18:10:22
TRACK 06 AUDIO
TITLE "Swamps Of Neva"
PERFORMER "Boris Grebenshikov"
INDEX 01 21:16:05
TRACK 07 AUDIO
TITLE "Darya Darya"
PERFORMER "Boris Grebenshikov"
INDEX 01 25:19:52
TRACK 08 AUDIO
TITLE "Doctor"
PERFORMER "Boris Grebenshikov"
INDEX 00 29:29:62
INDEX 01 29:30:72
TRACK 09 AUDIO
TITLE "Some Mary"
PERFORMER "Boris Grebenshikov"
INDEX 00 34:13:67
INDEX 01 34:15:02
TRACK 10 AUDIO
TITLE "Where The Moon Кises"
PERFORMER "Boris Grebenshikov"
INDEX 01 37:47:57
TRACK 11 AUDIO
TITLE "Pale Imitation Of Love"
PERFORMER "Boris Grebenshikov"
INDEX 01 41:27:25
TRACK 12 AUDIO
TITLE "How Do I Know You (Paranoia)"
PERFORMER "Boris Grebenshikov"
INDEX 00 44:47:27
INDEX 01 44:49:40
TRACK 13 AUDIO
TITLE "Road To Damascus"
PERFORMER "Boris Grebenshikov"
INDEX 00 51:32:17
INDEX 01 51:33:52
[свернуть]

Лог проверки качества

AUDIOCHECKER v2.0 beta (build 457) - by Dester -
~~~~~~~~~~~~~~~~~~~~~~~~~~~~~~~~~~
-=== НЕ РЕДАКТИРУЙТЕ ЭТОТ ФАЙЛ! ===-

Путь: ...\1997 - Lilith (Black Moon) [DS002]

1 -=- Boris Grebenshikov - Lilith (Black Moon).flac -=- CDDA (99%)

18804932
[свернуть]

Спектр частот

[свернуть]

Скачать Boris Grebenshikov - Lilith (Black Moon)



password: sergych
[свернуть]
My opinion of release: 10/10

Release info RInfo

Идея записи альбома возникла после роспуска 2-го состава «Аквариума» — на следующий же день после заключительного концерта группы Гребенщиков полностью изменил имидж: постригся налысо и надел тёмные очки с толстыми стёклами. Музыканты «Аквариума» занялись сольными проектами. Аккордеонист Сергей Щураков записывал дебютный альбом с собственной группой «Вермишель Оркестра». Флейтист Олег Сакмаров вместе с Ильёй Кормильцевым основал трип-хоповый дуэт «Чужие». Гитарист Алексей Зубарев писал музыку к спектаклям, делал инструментальные каверы песен «Аквариума» (альбом «Рапсодия для воды») и выпустил альбом «Тайные записки международного лейтенанта».

Во время последних гастролей этого состава «Аквариума» Гребенщиков написал ряд новых песен: «Из Калинина в Тверь», «Если бы не ты», «На её стороне», «Некоторые женятся…». Песни «4D» и «Болота Невы» были написаны как-то в Москве за одно утро. В августе 1997 года БГ оказывается в Нью-Йорке по приглашению своего друга Дмитрия Стрижова. Стрижов, находясь под впечатлением от новых песен Гребенщикова, тут же предлагает ему записать их в Америке с музыкантами легендарной группы «The Band» (В 1960-70-х годах выпустившие ряд классических альбомов и работавших с Бобом Диланом). Для того, чтобы оплатить запись альбома, Стрижов продал часть своих картин и вложил в запись крупный аванс за выпуск грядущей монографии.

Ранним утром 20 августа 1997 года Гребенщиков с Кеем погрузились в машину и поехали в Вудсток в место дислокации «The Band». Для записи альбома была снята «Bearsville Studio», построенная в 1970 году менеджером Боба Дилана Альбертом Гроссманом. Запись началась без раскачки. БГ с американскими музыкантами познакомились, расселись по звукоизоляционным кабинкам и начали пробовать песню за песней. В первую сессию было записано 4 песни: «Хилый закос под любовь», «Там, где взойдёт Луна», «Некоторые женятся» и «Из Калинина в Тверь». В течение первого этапа записи басист «The Band» Рик Дэнко выбыл из состава играющих музыкантов из-за увлечения героином. Но быстро был найден басист Боба Дилана Харви Брукс, который сотрудничал с Хендриксом и Майлзом Дэвисом. В результате музыкальное оформление первых песен, записанных для альбома, стало простым, драйвовым и энергичным.

Альбом дописывался спустя пару месяцев после первой сессии, причём зафиксированные ранее «Хилый закос…» и «Из Калинина в Тверь» БГ решил переписать в других аранжировках. Поселившись в старинном доме возле другой уже студии «Dreamland», Гребенщиков написал блюз «Мой друг доктор», который тут же был записан дуэтом с гитаристом Джимми Вейдером. В Нью-Йоркских кофейнях БГ дописал ещё две композиции — «Тень» и «По дороге в Дамаск». Последняя посвящена памяти русского богослова о. Георгия Зяблицева, трагически погибшего незадолго до начала записи.

Когда альбом был готов, Гребенщиков со Стрижовым сделали две версии — русскую и американскую, которые несколько отличались друг от друга. По взаимной договорённости в русскую версию не вошла песня «Последний день августа», в американскую — «Капитан Белый Снег». В России, где нужно было играть песни с нового альбома, к Гребенщикову после юбилейных концертов к 25-летию «Аквариума» присоединился гитарист Александр Ляпин. Вскоре для наполненности звука был привлечён скрипач Андрей Суротдинов, а после и Олег Шар. Это стало началом новой эры «Аквариума».
__________________
TAIFUN.Wings of Soul

Вверх
Похожие темы
Тема Автор Раздел Ответов Последнее сообщение
Альбом Delta Moon - Black Cat Oil PUPOKIN Blues Rock 0 09.06.2012 08:53
Релиз Ninth Moon Black - Chronophage PUPOKIN Metal 0 23.05.2012 08:24
Релиз Boris - Heavy Rocks PUPOKIN Metal 0 31.05.2011 08:44
Релиз Someone Still Loves You Boris Yeltsin - Let It Sway PUPOKIN Indie Rock 0 29.07.2010 09:51
Boris Brejcha - Mein Wahres Ich DarkDan Techno 0 03.06.2008 08:30


Метки
1997 , boris grebenshikov , lilith (black moon) , rock , борис гребенщиков

Опции темы

Ваши права в разделе
Вы не можете создавать новые темы
Вы не можете отвечать в темах
Вы не можете прикреплять вложения
Вы не можете редактировать свои сообщения

Быстрый переход



Текущее время: 19:55. Часовой пояс GMT +3.
Powered by vBulletin® Version 3.8.10
Copyright ©2000 - 2018, vBulletin Solutions, Inc. Перевод: zCarot
© 2008 - 2018 Taifun With Song
Яндекс.Метрика