TAIFUN With Song
Навигация
Jazz и Blues Гибкая ритмика, импровизационное начало, гармонии и мелодии - все это Jazz. Blues - жизнеутверждающая музыка, рожденная из душевной боли

А знаете ли Вы, что...
Хобби Альберта Эйнштейна!
«Эйнштейн любил играть на скрипке и однажды принял участие в благотворительном концерте в Германии.»
 
Опции темы

  #1
Старый 15.03.2013, 19:42
sergych
Координатор
Досье
 
Аватар для sergych
Релиз Oscar Peterson - For Lovers


2004 - Oscar Peterson - For Lovers




Исполнитель/Artist: Oscar Peterson
Альбом/Album: For Lovers
Год/Year: 2004
Жанр/Genre: jazz, swing
Страна/Country: Германия
Рекорд-лейбл/Record label: Verve Music
Номер в каталоге/Catalogue #: 0602498621479
Формат/Format: Free Lossless Audio Codec (*.flac)
Качество/Quality: Lossless
Тип рипа/RIP Type: image+.cue
Продолжительность/Length: 00:46:07
Источник/Source: Собственный рип
Размер/Size: 267.5 MB

Сканы в комплекте

Треклист

01. My One And Only Love [0:05:09.48]
02. The Man I Love [0:03:07.35]
03. They Didn't Believe Me [0:04:19.20]
04. I've Got A Crush On You [0:04:06.22]
05. Prelude To A Kiss [0:02:31.30]
06. Heartstrings [0:05:40.58]
07. Somewhere [0:05:33.32]
08. Sweet Lorraine [0:03:33.50]
09. I'm A Fool To Want You [0:03:45.12]
10. I Want To Stay Here (aka ''I Loves You Porgy'') [0:06:20.13]
11. Over The Rainbow [0:02:15.19]
[свернуть]

youtube.com

[свернуть]

Исполнители/Performers

Oscar Peterson - piano, vocal(track 8)
Clark Terry - flugelhorn
Milt Jackson - vibraphone
Herb Ellis - guitar
Ray Brown - bass
Ed Thigpen - drums
Bill Henderson - vocal
[свернуть]

EAC лог

Exact Audio Copy V1.3 from 2. September 2016

EAC extraction logfile from 7. July 2018, 20:51

Oscar Peterson / For Lovers

Used drive : ATAPI iHAS124 D Adapter: 0 ID: 2

Read mode : Secure
Utilize accurate stream : Yes
Defeat audio cache : Yes
Make use of C2 pointers : No

Read offset correction : 6
Overread into Lead-In and Lead-Out : No
Fill up missing offset samples with silence : Yes
Delete leading and trailing silent blocks : No
Null samples used in CRC calculations : Yes
Used interface : Installed external ASPI interface

Used output format : User Defined Encoder
Selected bitrate : 1024 kBit/s
Quality : High
Add ID3 tag : No
Command line compressor : C:\Program Files (x86)\Exact Audio Copy\Flac\flac.exe
Additional command line options : -6 -V -T "ARTIST=%artist%" -T "TITLE=%title%" -T "ALBUM=%albumtitle%" -T "DATE=%year%" -T "TRACKNUMBER=%tracknr%" -T "GENRE=%genre%" -T "COMMENT=%comment%" -T "BAND=%albuminterpret%" -T "ALBUMARTIST=%albuminterpret%" -T "COMPOSER=%composer%" %haslyrics%--tag-from-file=LYRICS="%lyricsfile%"%haslyrics% -T "DISCNUMBER=%cdnumber%" -T "TOTALDISCS=%totalcds%" -T "TOTALTRACKS=%numtracks%" %hascover%--picture="%coverfile%"%hascover% %source% -o %dest%


TOC of the extracted CD

Track | Start | Length | Start sector | End sector
---------------------------------------------------------
1 | 0:00.00 | 5:09.48 | 0 | 23222
2 | 5:09.48 | 3:07.35 | 23223 | 37282
3 | 8:17.08 | 4:19.20 | 37283 | 56727
4 | 12:36.28 | 4:06.22 | 56728 | 75199
5 | 16:42.50 | 2:31.30 | 75200 | 86554
6 | 19:14.05 | 5:40.58 | 86555 | 112112
7 | 24:54.63 | 5:33.32 | 112113 | 137119
8 | 30:28.20 | 3:33.50 | 137120 | 153144
9 | 34:01.70 | 3:45.12 | 153145 | 170031
10 | 37:47.07 | 6:20.13 | 170032 | 198544
11 | 44:07.20 | 2:15.19 | 198545 | 208688


Range status and errors

Selected range

Filename C:\mm\Oscar Peterson\2004 - For Lovers [0602498621479]\Oscar Peterson - For Lovers.wav

Peak level 100.0 %
Extraction speed 1.7 X
Range quality 99.9 %
Test CRC BD215EB7
Copy CRC BD215EB7
Copy OK

No errors occurred

End of status report

---- CUETools DB Plugin V2.1.6

[CTDB TOCID: uukKmWgdF_R4VShBt4zy8aJNJbE-] found
Submit result: already submitted
Track | CTDB Status
1 | (39/39) Accurately ripped
2 | (39/39) Accurately ripped
3 | (39/39) Accurately ripped
4 | (39/39) Accurately ripped
5 | (39/39) Accurately ripped
6 | (39/39) Accurately ripped
7 | (39/39) Accurately ripped
8 | (39/39) Accurately ripped
9 | (36/39) Accurately ripped, or (3/39) differs in 1 samples @00:31:46
10 | (39/39) Accurately ripped
11 | (38/39) Accurately ripped
[свернуть]

Файл CUE

REM GENRE Jazz
REM DATE 2004
REM DISCID 940ADE0B
REM COMMENT "ExactAudioCopy v1.3"
PERFORMER "Oscar Peterson"
TITLE "For Lovers"
REM COMPOSER ""
FILE "Oscar Peterson - For Lovers.flac" WAVE
TRACK 01 AUDIO
TITLE "My One And Only Love"
PERFORMER "Oscar Peterson"
REM COMPOSER ""
INDEX 01 00:00:00
TRACK 02 AUDIO
TITLE "The Man I Love"
PERFORMER "Oscar Peterson"
REM COMPOSER ""
INDEX 00 05:08:05
INDEX 01 05:09:48
TRACK 03 AUDIO
TITLE "They Didn't Believe Me"
PERFORMER "Oscar Peterson"
REM COMPOSER ""
INDEX 00 08:15:38
INDEX 01 08:17:08
TRACK 04 AUDIO
TITLE "I've Got A Crush On You"
PERFORMER "Oscar Peterson"
REM COMPOSER ""
INDEX 00 12:34:59
INDEX 01 12:36:28
TRACK 05 AUDIO
TITLE "Prelude To A Kiss"
PERFORMER "Oscar Peterson"
REM COMPOSER ""
INDEX 00 16:41:07
INDEX 01 16:42:50
TRACK 06 AUDIO
TITLE "Heartstrings"
PERFORMER "Oscar Peterson"
REM COMPOSER ""
INDEX 00 19:12:35
INDEX 01 19:14:05
TRACK 07 AUDIO
TITLE "Somewhere"
PERFORMER "Oscar Peterson"
REM COMPOSER ""
INDEX 00 24:53:29
INDEX 01 24:54:63
TRACK 08 AUDIO
TITLE "Sweet Lorraine"
PERFORMER "Oscar Peterson"
REM COMPOSER ""
INDEX 00 30:26:54
INDEX 01 30:28:20
TRACK 09 AUDIO
TITLE "I'm A Fool To Want You"
PERFORMER "Oscar Peterson"
REM COMPOSER ""
INDEX 00 34:00:37
INDEX 01 34:01:70
TRACK 10 AUDIO
TITLE "I Want To Stay Here (aka ''I Loves You Porgy'')"
PERFORMER "Oscar Peterson"
REM COMPOSER ""
INDEX 00 37:45:40
INDEX 01 37:47:07
TRACK 11 AUDIO
TITLE "Over The Rainbow"
PERFORMER "Oscar Peterson"
REM COMPOSER ""
INDEX 00 44:05:52
INDEX 01 44:07:20
[свернуть]

Лог проверки качества

AUDIOCHECKER v2.0 beta (build 457) - by Dester -
~~~~~~~~~~~~~~~~~~~~~~~~~~~~~~~~~~
-=== НЕ РЕДАКТИРУЙТЕ ЭТОТ ФАЙЛ! ===-

Путь: ...\2004 - For Lovers [0602498621479]

1 -=- Oscar Peterson - For Lovers.flac -=- CDDA (100%)

177330948
[свернуть]

Спектр частот

[свернуть]

Скачать Oscar Peterson - For Lovers



password: sergych
[свернуть]

Контрольная сумма (хеш-сумма) архива

MD5: 7bc03f3ea3b169b4c368e0e781ccd7fe
[свернуть]
My opinion of release: 10/10
__________________
TAIFUN.Wings of Soul


Последний раз редактировалось sergych, 08.07.2018 в 07:03. Причина: замена потрекового рипа образом
Вверх
2 пользователя(ей) сказали cпасибо:
swint68 (09.07.2018), TAIFUN (08.07.2018)
  #2
Старый 08.07.2018, 07:06
sergych
Координатор
Досье
 
Аватар для sergych
По умолчанию Re: Oscar Peterson - For Lovers

заменил потрековый рип образом, обновил сканы
__________________
TAIFUN.Wings of Soul

Вверх
2 пользователя(ей) сказали cпасибо:
swint68 (09.07.2018), TAIFUN (08.07.2018)
Похожие темы
Тема Автор Раздел Ответов Последнее сообщение
Альбом Ben Webster & Oscar Peterson - Ben Webster Meets Oscar Peterson sergych Jazz и Blues 1 01.06.2018 17:07
Альбом Oscar Peterson - Oscar Peterson Plays Duke Ellington sergych Jazz и Blues 1 05.03.2015 20:44
Альбом Oscar Peterson - Oscar Peterson plays Porgy & Bess sergych Jazz и Blues 0 27.12.2008 06:28
Сборник Oscar Peterson - An Oscar Peterson Christmas sergych Jazz и Blues 0 27.12.2008 05:27
Альбом Count Basie & Oscar Peterson - The Timekeepers (Count Basie Meets Oscar Peterson) sergych Jazz и Blues 0 26.12.2008 04:10


Метки
2004 , for lovers , jazz , oscar peterson , swing

Опции темы

Ваши права в разделе
Вы не можете создавать новые темы
Вы не можете отвечать в темах
Вы не можете прикреплять вложения
Вы не можете редактировать свои сообщения

Быстрый переход



Текущее время: 06:29. Часовой пояс GMT +3.
Powered by vBulletin® Version 3.8.10
Copyright ©2000 - 2018, vBulletin Solutions, Inc. Перевод: zCarot
© 2008 - 2018 Taifun With Song
Яндекс.Метрика