TAIFUN With Song
Навигация
Вернуться   TAIFUN With Song > Music (обменник) > Другие направления музыки > R&B
Расширенный поиск
R&B Ссылки на музыку в этом стиле

А знаете ли Вы, что...
Кто такой Сироб Вокищнеберг, упомянутый в описании альбома «Яблокитай» группы «Наутилус Помпилиус»?
«В описании альбома «Яблокитай» группы «Наутилус Помпилиус» указан некий профессор Сироб Вокищнеберг, играющий на реверсах. Этот таинственный человек никто иной, как Борис Гребенщиков, записанный наоборот. Таким образом удачно обыграли его работу с реверсами — прокручиванием музыкальных фрагментов в обратном направлении.»
 
Опции темы

  #1
Старый 13.11.2015, 20:46
sergych
Координатор
Досье
 
Аватар для sergych
Релиз Boyz II Men - Nathan, Michael, Shawn, Wanya


2000 - Boyz II Men - Nathan, Michael, Shawn, Wanya




Исполнитель/Artist: Boyz II Men
Альбом/Album: Nathan, Michael, Shawn, Wanya
Год/Year: 2000
Жанр/Genre: R&B, soul
Страна/Country: Европа
Рекорд-лейбл/Record label: Universal Records
Номер в каталоге/Catalogue #: 159 281-2
Формат/Format: Free Lossless Audio Codec (*.flac)
Качество/Quality: Lossless
Тип рипа/RIP Type: image+.cue
Продолжительность/Length: 01:03:28
Источник/Source: Собственный рип
Размер/Size: 537.4 MB

Сканы в комплекте

Треклист

01. Beautiful Women [0:04:09.10]
02. Step On Up [0:04:53.65]
03. Good Guy [0:03:49.32]
04. Bounce, Shake, Move, Swing [0:04:18.68]
05. What The Deal [0:04:25.20]
06. I Finally Know [0:05:04.67]
07. Pass You By [0:04:26.18]
08. Dreams [0:03:46.42]
09. I Do [0:04:10.70]
10. Thank You In Advance [0:04:11.23]
11. Never Go Away [0:05:06.12]
12. Lovely [0:05:29.53]
13. Know What You Want [0:05:17.25]
14. Do You Remember [0:04:17.25]
[свернуть]

youtube.com

[свернуть]

EAC лог

Exact Audio Copy V1.1 from 23. June 2015

EAC extraction logfile from 13. November 2015, 0:12

Boyz II Men / Nathan, Michael, Shawn, Wanya

Used drive : ATAPI iHAS124 D Adapter: 0 ID: 2

Read mode : Secure
Utilize accurate stream : Yes
Defeat audio cache : Yes
Make use of C2 pointers : No

Read offset correction : 6
Overread into Lead-In and Lead-Out : No
Fill up missing offset samples with silence : Yes
Delete leading and trailing silent blocks : No
Null samples used in CRC calculations : Yes
Used interface : Installed external ASPI interface

Used output format : User Defined Encoder
Selected bitrate : 1024 kBit/s
Quality : High
Add ID3 tag : Yes
Command line compressor : C:\Program Files (x86)\Exact Audio Copy\Flac\flac.exe
Additional command line options : -6 -V -T "ARTIST=%artist%" -T "TITLE=%title%" -T "ALBUM=%albumtitle%" -T "DATE=%year%" -T "TRACKNUMBER=%tracknr%" -T "GENRE=%genre%" -T "COMMENT=%comment%" -T "BAND=%albuminterpret%" -T "COMPOSER=%composer%" %haslyrics%--tag-from-file=LYRICS="%lyricsfile%"%haslyrics% -T "DISCNUMBER=%cdnumber%" -T "TOTALDISCS=%totalcds%" -T "TOTALTRACKS=%numtracks%" %hascover%--picture="%coverfile%"%hascover% %source% -o %dest%


TOC of the extracted CD

Track | Start | Length | Start sector | End sector
---------------------------------------------------------
1 | 0:00.00 | 4:09.10 | 0 | 18684
2 | 4:09.10 | 4:53.65 | 18685 | 40724
3 | 9:03.00 | 3:49.32 | 40725 | 57931
4 | 12:52.32 | 4:18.68 | 57932 | 77349
5 | 17:11.25 | 4:25.20 | 77350 | 97244
6 | 21:36.45 | 5:04.67 | 97245 | 120111
7 | 26:41.37 | 4:26.18 | 120112 | 140079
8 | 31:07.55 | 3:46.42 | 140080 | 157071
9 | 34:54.22 | 4:10.70 | 157072 | 175891
10 | 39:05.17 | 4:11.23 | 175892 | 194739
11 | 43:16.40 | 5:06.12 | 194740 | 217701
12 | 48:22.52 | 5:29.53 | 217702 | 242429
13 | 53:52.30 | 5:17.25 | 242430 | 266229
14 | 59:09.55 | 4:17.25 | 266230 | 285529
15 | 65:59.05 | 7:51.67 | 296930 | 332321


Range status and errors

Selected range

Filename C:\mm\Boyz II Men\2000 - Nathan, Michael, Shawn, Wanya [159 281-2]\Boyz II Men - Nathan, Michael, Shawn, Wanya.wav

Peak level 100.0 %
Extraction speed 3.5 X
Range quality 99.9 %
Test CRC CD7085B7
Copy CRC CD7085B7
Copy OK

No errors occurred


AccurateRip summary

Track 1 accurately ripped (confidence 11) [5C00466E] (AR v2)
Track 2 accurately ripped (confidence 11) [5E7E5039] (AR v2)
Track 3 accurately ripped (confidence 11) [9BB96E9F] (AR v2)
Track 4 accurately ripped (confidence 11) [CE201C27] (AR v2)
Track 5 accurately ripped (confidence 11) [61F9E7B5] (AR v2)
Track 6 accurately ripped (confidence 11) [A997BE54] (AR v2)
Track 7 accurately ripped (confidence 11) [32B9B1BF] (AR v2)
Track 8 accurately ripped (confidence 11) [7CE2B370] (AR v2)
Track 9 accurately ripped (confidence 11) [9C57351B] (AR v2)
Track 10 accurately ripped (confidence 11) [CB4A1B7C] (AR v2)
Track 11 accurately ripped (confidence 11) [B03A131C] (AR v2)
Track 12 accurately ripped (confidence 11) [B52A56E0] (AR v2)
Track 13 accurately ripped (confidence 11) [5A957B3C] (AR v2)
Track 14 accurately ripped (confidence 11) [7CC761E1] (AR v2)

All tracks accurately ripped

End of status report
[свернуть]

Файл CUE

REM GENRE R&B
REM DATE 2000
REM DISCID DC114E0F
REM COMMENT "ExactAudioCopy v1.1"
PERFORMER "Boyz II Men"
TITLE "Nathan, Michael, Shawn, Wanya"
FILE "Boyz II Men - Nathan, Michael, Shawn, Wanya.flac" WAVE
TRACK 01 AUDIO
TITLE "Beautiful Women"
PERFORMER "Boyz II Men"
INDEX 01 00:00:00
TRACK 02 AUDIO
TITLE "Step On Up"
PERFORMER "Boyz II Men"
INDEX 01 04:09:10
TRACK 03 AUDIO
TITLE "Good Guy"
PERFORMER "Boyz II Men"
INDEX 01 09:03:00
TRACK 04 AUDIO
TITLE "Bounce, Shake, Move, Swing"
PERFORMER "Boyz II Men"
INDEX 01 12:52:32
TRACK 05 AUDIO
TITLE "What The Deal"
PERFORMER "Boyz II Men"
INDEX 01 17:11:25
TRACK 06 AUDIO
TITLE "I Finally Know"
PERFORMER "Boyz II Men"
INDEX 01 21:36:45
TRACK 07 AUDIO
TITLE "Pass You By"
PERFORMER "Boyz II Men"
INDEX 01 26:41:37
TRACK 08 AUDIO
TITLE "Dreams"
PERFORMER "Boyz II Men"
INDEX 01 31:07:55
TRACK 09 AUDIO
TITLE "I Do"
PERFORMER "Boyz II Men"
INDEX 01 34:54:22
TRACK 10 AUDIO
TITLE "Thank You In Advance"
PERFORMER "Boyz II Men"
INDEX 01 39:05:17
TRACK 11 AUDIO
TITLE "Never Go Away"
PERFORMER "Boyz II Men"
INDEX 01 43:16:40
TRACK 12 AUDIO
TITLE "Lovely"
PERFORMER "Boyz II Men"
INDEX 01 48:22:52
TRACK 13 AUDIO
TITLE "Know What You Want"
PERFORMER "Boyz II Men"
INDEX 01 53:52:30
TRACK 14 AUDIO
TITLE "Do You Remember"
PERFORMER "Boyz II Men"
INDEX 01 59:09:55
[свернуть]

Лог проверки качества

AUDIOCHECKER v2.0 beta (build 457) - by Dester -
~~~~~~~~~~~~~~~~~~~~~~~~~~~~~~~~~~
-=== НЕ РЕДАКТИРУЙТЕ ЭТОТ ФАЙЛ! ===-

Путь: ...\2000 - Nathan, Michael, Shawn, Wanya [159 281-2]

1 -=- Boyz II Men - Nathan, Michael, Shawn, Wanya.flac -=- CDDA (100%)

110267364
[свернуть]

Спектр частот

[свернуть]

Скачать Boyz II Men - Nathan, Michael, Shawn, Wanya



password: sergych
[свернуть]
My opinion of release: 9/10
__________________
TAIFUN.Wings of Soul

Вверх
Пользователь сказал cпасибо:
Chert (22.12.2015)
Похожие темы
Тема Автор Раздел Ответов Последнее сообщение
Релиз Shawn Brock - Sight UnSeen PUPOKIN Jazz и Blues 0 02.03.2011 10:35
Альбом Michael Jackson - Forever, Michael sergych Зарубежная Поп-Музыка 0 28.06.2010 14:39
Релиз Shawn Pittman - Meridian PUPOKIN Blues Rock 0 13.10.2009 10:02
Релиз Jay-Z - America Meet Shawn Corey PUPOKIN Зарубежный 0 12.02.2009 09:33


Метки
2000 , boyz ii men , nathan michael shawn wanya , r&b , soul

Опции темы

Ваши права в разделе
Вы не можете создавать новые темы
Вы не можете отвечать в темах
Вы не можете прикреплять вложения
Вы не можете редактировать свои сообщения

Быстрый переход



Текущее время: 02:24. Часовой пояс GMT +3.
Powered by vBulletin® Version 3.8.10
Copyright ©2000 - 2018, vBulletin Solutions, Inc. Перевод: zCarot
© 2008 - 2018 Taifun With Song
Яндекс.Метрика