TAIFUN With Song
Навигация
Вернуться   TAIFUN With Song > Music (обменник) > Другие направления музыки > R&B
Расширенный поиск
R&B Ссылки на музыку в этом стиле

А знаете ли Вы, что...
Какое совпадение связало смерти солиста Boney M и Григория Распутина?
«Бобби Фаррелл, единственный мужчина в диско-группе Boney M, во время исполнения одного из главных хитов группы «Rasputin» часто гримировался в образ Распутина. Фаррелл умер от остановки сердца во время гастролей в Санкт-Петербурге 30 декабря 2010 года — того же числа и в том же городе, что и сам Распутин.»
 
Опции темы

  #1
Старый 31.10.2015, 22:43
sergych
Координатор
Досье
 
Аватар для sergych
Релиз Boyz II Men - Motown: Hitsville USA


2007 - Boyz II Men - Motown: Hitsville USA




Исполнитель/Artist: Boyz II Men
Альбом/Album: Motown: Hitsville USA
Год/Year: 2007
Жанр/Genre: R&B, soul
Страна/Country: Германия
Рекорд-лейбл/Record label: Decca
Номер в каталоге/Catalogue #: 0602517495500
Формат/Format: Free Lossless Audio Codec (*.flac)
Качество/Quality: Lossless
Тип рипа/RIP Type: image+.cue
Продолжительность/Length: 00:55:02
Источник/Source: Собственный рип
Размер/Size: 501 MB

Сканы в комплекте

Треклист

01. Just My Imagination (Running Away With Me) [0:04:25.06]
02. It's The Same Old Song-Reach Out I'll Be There [0:03:55.73]
03. Mercy Mercy Me (The Ecology) [0:03:12.18]
04. Tracks Of My Tears [0:03:24.34]
05. Money (That's What I Want) [0:02:54.61]
06. Easy [0:05:26.44]
07. I Was Made To Love Her [0:03:32.43]
08. All This Love [0:05:34.19]
09. Ribbon In The Sky - A Capella [0:02:51.49]
10. Ain't Nothing Like The Real Thing (feat. Patti LaBelle) [0:02:51.36]
11. There'll Never Be [0:05:00.26]
12. Got To Be There [0:03:32.72]
13. War [0:04:21.39]
14. End Of The Road (feat. Brian McKnight) [0:03:57.45]
[свернуть]

youtube.com

[свернуть]

EAC лог

Exact Audio Copy V1.0 beta 3 from 29. August 2011

EAC extraction logfile from 29. October 2015, 2:56

Boyz II Men / Motown. Hitsville USA

Used drive : ATAPI iHAS124 D Adapter: 0 ID: 2

Read mode : Secure
Utilize accurate stream : Yes
Defeat audio cache : Yes
Make use of C2 pointers : No

Read offset correction : 6
Overread into Lead-In and Lead-Out : No
Fill up missing offset samples with silence : Yes
Delete leading and trailing silent blocks : No
Null samples used in CRC calculations : Yes
Used interface : Installed external ASPI interface

Used output format : User Defined Encoder
Selected bitrate : 1024 kBit/s
Quality : High
Add ID3 tag : No
Command line compressor : C:\Program Files (x86)\Exact Audio Copy\Flac\flac.exe
Additional command line options : -6 -V -T "ARTIST=%artist%" -T "TITLE=%title%" -T "ALBUM=%albumtitle%" -T "DATE=%year%" -T "TRACKNUMBER=%tracknr%" -T "GENRE=%genre%" -T "COMMENT=%comment%" -T "BAND=%albuminterpret%" -T "COMPOSER=%composer%" %haslyrics%--tag-from-file=LYRICS="%lyricsfile%"%haslyrics% -T "DISCNUMBER=%cdnumber%" -T "TOTALDISCS=%totalcds%" -T "TOTALTRACKS=%numtracks%" %hascover%--picture="%coverfile%"%hascover% %source% -o %dest%


TOC of the extracted CD

Track | Start | Length | Start sector | End sector
---------------------------------------------------------
1 | 0:00.00 | 4:25.06 | 0 | 19880
2 | 4:25.06 | 3:55.73 | 19881 | 37578
3 | 8:21.04 | 3:12.18 | 37579 | 51996
4 | 11:33.22 | 3:24.34 | 51997 | 67330
5 | 14:57.56 | 2:54.61 | 67331 | 80441
6 | 17:52.42 | 5:26.44 | 80442 | 104935
7 | 23:19.11 | 3:32.43 | 104936 | 120878
8 | 26:51.54 | 5:34.19 | 120879 | 145947
9 | 32:25.73 | 2:51.49 | 145948 | 158821
10 | 35:17.47 | 2:51.36 | 158822 | 171682
11 | 38:09.08 | 5:00.26 | 171683 | 194208
12 | 43:09.34 | 3:32.72 | 194209 | 210180
13 | 46:42.31 | 4:21.39 | 210181 | 229794
14 | 51:03.70 | 3:57.45 | 229795 | 247614


Range status and errors

Selected range

Filename C:\mm\Boyz II Men\2007 - Motown. Hitsville USA [0602517495500]\Boyz II Men - Motown. Hitsville USA.wav

Peak level 99.6 %
Extraction speed 9.0 X
Range quality 100.0 %
Test CRC 92331560
Copy CRC 92331560
Copy OK

No errors occurred


AccurateRip summary

Track 1 accurately ripped (confidence 15) [7129BE79] (AR v2)
Track 2 accurately ripped (confidence 14) [5D576B5C] (AR v2)
Track 3 accurately ripped (confidence 15) [0D71A714] (AR v2)
Track 4 accurately ripped (confidence 15) [852031F5] (AR v2)
Track 5 accurately ripped (confidence 14) [3DD2ECC7] (AR v2)
Track 6 accurately ripped (confidence 14) [FB58BDD2] (AR v2)
Track 7 accurately ripped (confidence 14) [0237E1F7] (AR v2)
Track 8 accurately ripped (confidence 14) [28E81CF0] (AR v2)
Track 9 accurately ripped (confidence 15) [7FA8C999] (AR v2)
Track 10 accurately ripped (confidence 14) [1B58D89E] (AR v2)
Track 11 accurately ripped (confidence 14) [F90BA2BD] (AR v2)
Track 12 accurately ripped (confidence 14) [7CD9C216] (AR v2)
Track 13 accurately ripped (confidence 15) [B2BDB316] (AR v2)
Track 14 accurately ripped (confidence 15) [C3FDEA56] (AR v2)

All tracks accurately ripped

End of status report
[свернуть]

Файл CUE

REM GENRE Soul
REM DATE 2007
REM DISCID C10CE50E
REM COMMENT "ExactAudioCopy v1.0b3"
PERFORMER "Boyz II Men"
TITLE "Motown. Hitsville USA"
FILE "Boyz II Men - Motown. Hitsville USA.flac" WAVE
TRACK 01 AUDIO
TITLE "Just My Imagination (Running Away With Me)"
PERFORMER "Boyz II Men"
INDEX 01 00:00:00
TRACK 02 AUDIO
TITLE "It's The Same Old Song-Reach Out I'll Be There"
PERFORMER "Boyz II Men"
INDEX 00 04:24:44
INDEX 01 04:25:06
TRACK 03 AUDIO
TITLE "Mercy Mercy Me (The Ecology)"
PERFORMER "Boyz II Men"
INDEX 00 08:20:33
INDEX 01 08:21:04
TRACK 04 AUDIO
TITLE "Tracks Of My Tears"
PERFORMER "Boyz II Men"
INDEX 00 11:32:64
INDEX 01 11:33:22
TRACK 05 AUDIO
TITLE "Money (That's What I Want)"
PERFORMER "Boyz II Men"
INDEX 00 14:56:55
INDEX 01 14:57:56
TRACK 06 AUDIO
TITLE "Easy"
PERFORMER "Boyz II Men"
INDEX 00 17:52:31
INDEX 01 17:52:42
TRACK 07 AUDIO
TITLE "I Was Made To Love Her"
PERFORMER "Boyz II Men"
INDEX 00 23:18:22
INDEX 01 23:19:11
TRACK 08 AUDIO
TITLE "All This Love"
PERFORMER "Boyz II Men"
INDEX 00 26:51:37
INDEX 01 26:51:54
TRACK 09 AUDIO
TITLE "Ribbon In The Sky - A Capella"
PERFORMER "Boyz II Men"
INDEX 00 32:25:18
INDEX 01 32:25:73
TRACK 10 AUDIO
TITLE "Ain't Nothing Like The Real Thing (feat. Patti LaBelle)"
PERFORMER "Boyz II Men"
INDEX 00 35:17:36
INDEX 01 35:17:47
TRACK 11 AUDIO
TITLE "There'll Never Be"
PERFORMER "Boyz II Men"
INDEX 00 38:08:40
INDEX 01 38:09:08
TRACK 12 AUDIO
TITLE "Got To Be There"
PERFORMER "Boyz II Men"
INDEX 00 43:07:61
INDEX 01 43:09:34
TRACK 13 AUDIO
TITLE "War"
PERFORMER "Boyz II Men"
INDEX 00 46:41:65
INDEX 01 46:42:31
TRACK 14 AUDIO
TITLE "End Of The Road (feat. Brian McKnight)"
PERFORMER "Boyz II Men"
INDEX 00 51:03:18
INDEX 01 51:03:70
[свернуть]

Лог проверки качества

AUDIOCHECKER v2.0 beta (build 457) - by Dester -
~~~~~~~~~~~~~~~~~~~~~~~~~~~~~~~~~~
-=== НЕ РЕДАКТИРУЙТЕ ЭТОТ ФАЙЛ! ===-

Путь: ...\2007 - Motown. Hitsville USA [0602517495500]

1 -=- Boyz II Men - Motown. Hitsville USA.flac -=- CDDA (100%)

5879300
[свернуть]

Спектр частот

[свернуть]

Скачать Boyz II Men - Motown: Hitsville USA



password: sergych
[свернуть]
My opinion of release: 10/10
__________________
TAIFUN.Wings of Soul

Вверх
Пользователь сказал cпасибо:
Chert (22.12.2015)
Похожие темы
Тема Автор Раздел Ответов Последнее сообщение
Сборник Various Artists - Motown Meets The Beatles sergych Зарубежная Поп-Музыка 0 27.12.2013 15:56
Сборник Michael Jackson - Hello World: The Motown Solo Collection sergych Зарубежная Поп-Музыка 0 09.07.2010 21:10
Boyz II Men - Motown: A Journey Through Hitsville, USA sergych R&B 0 06.07.2008 10:32
Boyz II Men - Can't Let Her Go sergych R&B 0 06.07.2008 10:32


Метки
2007 , boyz ii men , motown: hitsville usa , r&b , soul

Опции темы

Ваши права в разделе
Вы не можете создавать новые темы
Вы не можете отвечать в темах
Вы не можете прикреплять вложения
Вы не можете редактировать свои сообщения

Быстрый переход



Текущее время: 02:36. Часовой пояс GMT +3.
Powered by vBulletin® Version 3.8.10
Copyright ©2000 - 2018, vBulletin Solutions, Inc. Перевод: zCarot
© 2008 - 2018 Taifun With Song
Яндекс.Метрика