TAIFUN With Song
Навигация
R&B Ссылки на музыку в этом стиле

А знаете ли Вы, что...
Кто написал сонату, в которой имитируется половой акт?
«Чешский авангардный композитор Эрвин Шульгоф в 1919 году написал Эротическую сонату, которая по сей день исполняется на музыкальных фестивалях. Фактически соната состоит из одной партии для женского голоса, имитирующего стоны и вздохи при половом акте.»
 
Опции темы

  #1
Старый 11.05.2018, 18:47
sergych
Координатор
Досье
 
Аватар для sergych
Релиз Seal - Seal II


1994 - Seal - Seal II




Исполнитель/Artist: Seal
Альбом/Album: Seal II
Год/Year: 1994
Жанр/Genre: R'n'B, Soul, Pop
Страна/Country: Германия
Рекорд-лейбл/Record label: ZTT Records
Номер в каталоге/Catalogue #: 4509-96256-2
Формат/Format: Free Lossless Audio Codec (*.flac)
Качество/Quality: Lossless
Тип рипа/RIP Type: image+.cue
Продолжительность/Length: 00:50:31
Источник/Source: Собственный рип
Размер/Size: 336.5 MB

Сканы в комплекте

Треклист

01. Bring It On [0:03:57.62]
02. Prayer For The Dying [0:05:30.00]
03. Dreaming In Metaphors [0:05:51.70]
04. Don't Cry [0:06:17.58]
05. Fast Changes [0:05:41.12]
06. Kiss From A Rose [0:04:47.70]
07. People Asking Why [0:04:45.53]
08. Newborn Friend [0:04:04.32]
09. If I Could [0:04:16.28]
10. I'm Alive [0:04:01.60]
11. Bring It On (Reprise) [0:01:16.40]
[свернуть]

youtube.com

[свернуть]

Исполнители/Performers

Seal – vocals
Gus Isidore, Jamie Muhoberac, Lisa Coleman, Wendy Melvoin – principal musicians
Joseph "Amp" Fiddler, Andy Duncan, Andy Newmark, Anne Dudley, Anthony Pleeth, Barry Wilde, Ben Cruft, Betsy Cook, Bill Benham, Bob Smissen, Boguslaw Kostecki, Carmen Rizzo, Charley Drayton, Chris Bruce, Chris Laurence, D'Influence, David Oladunni, David Theodore, Derek Watkins, Dick Morgan, Eddie Roberts, Garfield Jackson, Gavyn Wright, George Robertson, Gota Yashiki, Harvey Mason, Helen Liebmann, Ian Thomas, Jackie Shave, Jeff Beck, Jim McLeod, John Pigneguy, Jonathan Evans-Jones, Judd Proctor, Katie Wilkinson, Laurence Cottle, Luís Jardim, Maciej Rakowski, Mark Berrow, Mark Mann, Martin Loveday, Mike Brittain, Mike De Saulles, Nick Busch, Pandit Dinesh, Patrick Kiernan, Paul Kegg, Perry Montague-Mason, Peter Oxer, Phil Spalding, Pino Palladino, Richard Cottle, Rita Manning, Roger Garland, Roger Smith, Sam Maitland, Sarah Webb, Seal, Tim Weidner, Tony Stanton, Trevor Horn, Wilfred Gibson, William Orbit – musicians
Anne Dudley, Wil Malone – string arrangements
[свернуть]

EAC лог

Exact Audio Copy V1.3 from 2. September 2016

EAC extraction logfile from 10. May 2018, 21:42

Seal / Seal II

Used drive : ATAPI iHAS124 D Adapter: 0 ID: 2

Read mode : Secure
Utilize accurate stream : Yes
Defeat audio cache : Yes
Make use of C2 pointers : No

Read offset correction : 6
Overread into Lead-In and Lead-Out : No
Fill up missing offset samples with silence : Yes
Delete leading and trailing silent blocks : No
Null samples used in CRC calculations : Yes
Used interface : Installed external ASPI interface

Used output format : User Defined Encoder
Selected bitrate : 1024 kBit/s
Quality : High
Add ID3 tag : No
Command line compressor : C:\Program Files (x86)\Exact Audio Copy\Flac\flac.exe
Additional command line options : -6 -V -T "ARTIST=%artist%" -T "TITLE=%title%" -T "ALBUM=%albumtitle%" -T "DATE=%year%" -T "TRACKNUMBER=%tracknr%" -T "GENRE=%genre%" -T "COMMENT=%comment%" -T "BAND=%albuminterpret%" -T "ALBUMARTIST=%albuminterpret%" -T "COMPOSER=%composer%" %haslyrics%--tag-from-file=LYRICS="%lyricsfile%"%haslyrics% -T "DISCNUMBER=%cdnumber%" -T "TOTALDISCS=%totalcds%" -T "TOTALTRACKS=%numtracks%" %hascover%--picture="%coverfile%"%hascover% %source% -o %dest%


TOC of the extracted CD

Track | Start | Length | Start sector | End sector
---------------------------------------------------------
1 | 0:00.00 | 3:57.62 | 0 | 17836
2 | 3:57.62 | 5:30.00 | 17837 | 42586
3 | 9:27.62 | 5:51.70 | 42587 | 68981
4 | 15:19.57 | 6:17.58 | 68982 | 97314
5 | 21:37.40 | 5:41.12 | 97315 | 122901
6 | 27:18.52 | 4:47.70 | 122902 | 144496
7 | 32:06.47 | 4:45.53 | 144497 | 165924
8 | 36:52.25 | 4:04.32 | 165925 | 184256
9 | 40:56.57 | 4:16.28 | 184257 | 203484
10 | 45:13.10 | 4:01.60 | 203485 | 221619
11 | 49:14.70 | 1:16.40 | 221620 | 227359


Range status and errors

Selected range

Filename C:\mm\Seal\1994 - Seal 2 [4509-96256-2]\Seal - Seal II.wav

Peak level 100.0 %
Extraction speed 1.7 X
Range quality 99.9 %
Test CRC 8D65C656
Copy CRC 8D65C656
Copy OK

No errors occurred

End of status report

---- CUETools DB Plugin V2.1.6

[CTDB TOCID: 7WOj879xv4ughhgKi8hrPUv7c3o-] found
Submit result: 7WOj879xv4ughhgKi8hrPUv7c3o- has been confirmed
Track | CTDB Status
1 | (1151/1164) Accurately ripped
2 | (1153/1164) Accurately ripped
3 | (1152/1164) Accurately ripped
4 | (1150/1164) Accurately ripped
5 | (1148/1164) Accurately ripped
6 | (1146/1164) Accurately ripped
7 | (1148/1164) Accurately ripped
8 | (1147/1164) Accurately ripped
9 | (1146/1164) Accurately ripped
10 | (1145/1164) Accurately ripped
11 | (1148/1164) Accurately ripped
[свернуть]

Файл CUE

REM GENRE Pop
REM DATE 1994
REM DISCID A50BD70B
REM COMMENT "ExactAudioCopy v1.3"
PERFORMER "Seal"
TITLE "Seal II"
REM COMPOSER ""
FILE "Seal - Seal II.flac" WAVE
TRACK 01 AUDIO
TITLE "Bring It On"
PERFORMER "Seal"
REM COMPOSER ""
INDEX 01 00:00:00
TRACK 02 AUDIO
TITLE "Prayer For The Dying"
PERFORMER "Seal"
REM COMPOSER ""
INDEX 00 03:57:10
INDEX 01 03:57:62
TRACK 03 AUDIO
TITLE "Dreaming In Metaphors"
PERFORMER "Seal"
REM COMPOSER ""
INDEX 01 09:27:62
TRACK 04 AUDIO
TITLE "Don't Cry"
PERFORMER "Seal"
REM COMPOSER ""
INDEX 01 15:19:57
TRACK 05 AUDIO
TITLE "Fast Changes"
PERFORMER "Seal"
REM COMPOSER ""
INDEX 01 21:37:40
TRACK 06 AUDIO
TITLE "Kiss From A Rose"
PERFORMER "Seal"
REM COMPOSER ""
INDEX 01 27:18:52
TRACK 07 AUDIO
TITLE "People Asking Why"
PERFORMER "Seal"
REM COMPOSER ""
INDEX 01 32:06:47
TRACK 08 AUDIO
TITLE "Newborn Friend"
PERFORMER "Seal"
REM COMPOSER ""
INDEX 01 36:52:25
TRACK 09 AUDIO
TITLE "If I Could"
PERFORMER "Seal"
REM COMPOSER ""
INDEX 01 40:56:57
TRACK 10 AUDIO
TITLE "I'm Alive"
PERFORMER "Seal"
REM COMPOSER ""
INDEX 01 45:13:10
TRACK 11 AUDIO
TITLE "Bring It On (Reprise)"
PERFORMER "Seal"
REM COMPOSER ""
INDEX 01 49:14:70
[свернуть]

Лог проверки качества

AUDIOCHECKER v2.0 beta (build 457) - by Dester -
~~~~~~~~~~~~~~~~~~~~~~~~~~~~~~~~~~
-=== НЕ РЕДАКТИРУЙТЕ ЭТОТ ФАЙЛ! ===-

Путь: ...\1994 - Seal 2 [4509-96256-2]

1 -=- Seal - Seal II.flac -=- CDDA (100%)

197193604
[свернуть]

Спектр частот

[свернуть]

Скачать Seal - Seal II



password: sergych
[свернуть]

Контрольная сумма (хеш-сумма) архива

MD5: 866b0bd5a536422b66d9aa85c3748fcd
[свернуть]
My opinion of release: 10/10

Вверх
Пользователь сказал cпасибо:
johnsilver (11.05.2018)
Похожие темы
Тема Автор Раздел Ответов Последнее сообщение
Альбом Seal - Seal sergych R&B 0 13.04.2017 20:38
Альбом Seal - System sergych Зарубежная Поп-Музыка 0 07.05.2016 15:48
Альбом Seal - Soul 2 sergych R&B 0 04.05.2016 23:32
Релиз Seal - 6: Commitment PUPOKIN R&B 0 18.09.2010 08:53
Seal sergych R&B [FAQ] 0 13.06.2008 18:12


Метки
1994 , pop , r'n'b , seal , seal ii , soul

Опции темы

Ваши права в разделе
Вы не можете создавать новые темы
Вы не можете отвечать в темах
Вы не можете прикреплять вложения
Вы не можете редактировать свои сообщения

Быстрый переход



Текущее время: 02:08. Часовой пояс GMT +3.
Powered by vBulletin® Version 3.8.10
Copyright ©2000 - 2018, vBulletin Solutions, Inc. Перевод: zCarot
© 2008 - 2018 Taifun With Song
Яндекс.Метрика