TAIFUN With Song
Навигация
Jazz и Blues Гибкая ритмика, импровизационное начало, гармонии и мелодии - все это Jazz. Blues - жизнеутверждающая музыка, рожденная из душевной боли

А знаете ли Вы, что...
Какой пианист играл одной левой?
«Австрийский пианист Пауль Витгенштейн потерял правую руку в Первой Мировой войне, однако возобновил концертную карьеру и достиг исключительного мастерства, играя одной левой. Виртуозное владение пианистической техникой позволило Витгенштейну успешно исполнять сочинения, сопоставимые по сложности даже для пианиста с двумя руками.»
 
Опции темы

  #1
Старый 20.12.2017, 18:43
sergych
Координатор
Досье
 
Аватар для sergych
Релиз Tom Waits - Nighthawks At The Diner


1975 - Tom Waits - Nighthawks At The Diner




Исполнитель/Artist: Tom Waits
Альбом/Album: Nighthawks At The Diner
Год/Year: 1975
Жанр/Genre: blues rock, rock, experimental rock
Страна/Country: Россия
Рекорд-лейбл/Record label: Asylum
Номер в каталоге/Catalogue #: JPCD9706382
Формат/Format: Free Lossless Audio Codec (*.flac)
Качество/Quality: Lossless
Тип рипа/RIP Type: image+.cue
Продолжительность/Length: 01:13:58
Источник/Source: Собственный рип
Размер/Size: 414.1 MB

Сканы в комплекте

Треклист

01. (Opening Intro) [0:02:58.07]
02. Emotional Weather Report [0:03:47.25]
03. (Intro) [0:02:16.28]
04. On A Foggy Night [0:03:48.32]
05. (Intro) [0:01:53.20]
06. Eggs And Sausage (In A Cadillac With Susan Michelson) [0:04:19.30]
07. (Intro) [0:03:02.28]
08. Better Off Without A Wife [0:03:59.10]
09. Nighthawk Postcards (From Easy Street) [0:11:30.02]
10. (Intro) [0:00:55.48]
11. Warm Beer And Cold Women [0:05:21.05]
12. (Intro) [0:00:48.30]
13. Putnam County [0:07:35.07]
14. Spare Parts I (A Nocturnal Emission) [0:06:25.63]
15. Nobody [0:02:51.35]
16. (Intro) [0:00:40.52]
17. Big Joe And Phantom 309 [0:06:29.00]
18. Spare Parts II And Closing [0:05:15.68]
[свернуть]

youtube.com

[свернуть]

Исполнители/Performers

Tom Waits – vocals, piano, guitar
Pete Christlieb – tenor sax
Bill Goodwin – drums
Jim Hughart – upright bass
Mike Melvoin – piano, electric piano, guitar
[свернуть]

EAC лог

Exact Audio Copy V1.3 from 2. September 2016

EAC extraction logfile from 17. December 2017, 17:42

Tom Waits / Nighthawks At The Diner

Used drive : ATAPI iHAS124 D Adapter: 0 ID: 2

Read mode : Secure
Utilize accurate stream : Yes
Defeat audio cache : Yes
Make use of C2 pointers : No

Read offset correction : 6
Overread into Lead-In and Lead-Out : No
Fill up missing offset samples with silence : Yes
Delete leading and trailing silent blocks : No
Null samples used in CRC calculations : Yes
Used interface : Installed external ASPI interface

Used output format : User Defined Encoder
Selected bitrate : 1024 kBit/s
Quality : High
Add ID3 tag : No
Command line compressor : C:\Program Files (x86)\Exact Audio Copy\Flac\flac.exe
Additional command line options : -6 -V -T "ARTIST=%artist%" -T "TITLE=%title%" -T "ALBUM=%albumtitle%" -T "DATE=%year%" -T "TRACKNUMBER=%tracknr%" -T "GENRE=%genre%" -T "COMMENT=%comment%" -T "BAND=%albuminterpret%" -T "ALBUMARTIST=%albuminterpret%" -T "COMPOSER=%composer%" %haslyrics%--tag-from-file=LYRICS="%lyricsfile%"%haslyrics% -T "DISCNUMBER=%cdnumber%" -T "TOTALDISCS=%totalcds%" -T "TOTALTRACKS=%numtracks%" %hascover%--picture="%coverfile%"%hascover% %source% -o %dest%


TOC of the extracted CD

Track | Start | Length | Start sector | End sector
---------------------------------------------------------
1 | 0:00.00 | 2:58.07 | 0 | 13356
2 | 2:58.07 | 3:47.25 | 13357 | 30406
3 | 6:45.32 | 2:16.28 | 30407 | 40634
4 | 9:01.60 | 3:48.32 | 40635 | 57766
5 | 12:50.17 | 1:53.20 | 57767 | 66261
6 | 14:43.37 | 4:19.30 | 66262 | 85716
7 | 19:02.67 | 3:02.28 | 85717 | 99394
8 | 22:05.20 | 3:59.10 | 99395 | 117329
9 | 26:04.30 | 11:30.02 | 117330 | 169081
10 | 37:34.32 | 0:55.48 | 169082 | 173254
11 | 38:30.05 | 5:21.05 | 173255 | 197334
12 | 43:51.10 | 0:48.30 | 197335 | 200964
13 | 44:39.40 | 7:35.07 | 200965 | 235096
14 | 52:14.47 | 6:25.63 | 235097 | 264034
15 | 58:40.35 | 2:51.35 | 264035 | 276894
16 | 61:31.70 | 0:40.52 | 276895 | 279946
17 | 62:12.47 | 6:29.00 | 279947 | 309121
18 | 68:41.47 | 5:15.68 | 309122 | 332814


Range status and errors

Selected range

Filename C:\mm\Tom Waits\1975 - Nighthawks At The Diner\Tom Waits - Nighthawks At The Diner.wav

Peak level 100.0 %
Extraction speed 1.6 X
Range quality 99.9 %
Test CRC 1581D929
Copy CRC 1581D929
Copy OK

No errors occurred


AccurateRip summary

Track 1 accurately ripped (confidence 3) [BB43B8E6] (AR v2)
Track 2 accurately ripped (confidence 2) [AD0ED2E6] (AR v2)
Track 3 accurately ripped (confidence 2) [7D452406] (AR v2)
Track 4 accurately ripped (confidence 2) [3F17A269] (AR v2)
Track 5 accurately ripped (confidence 3) [80FAE188] (AR v2)
Track 6 accurately ripped (confidence 3) [E579A65D] (AR v2)
Track 7 accurately ripped (confidence 3) [C18C7756] (AR v2)
Track 8 accurately ripped (confidence 3) [D60F0575] (AR v2)
Track 9 accurately ripped (confidence 3) [42165391] (AR v2)
Track 10 accurately ripped (confidence 3) [7E790DEA] (AR v2)
Track 11 accurately ripped (confidence 2) [E498BD36] (AR v2)
Track 12 accurately ripped (confidence 3) [D9C21412] (AR v2)
Track 13 accurately ripped (confidence 2) [508F619F] (AR v2)
Track 14 accurately ripped (confidence 2) [447AFCBC] (AR v1)
Track 15 accurately ripped (confidence 2) [7A2EB427] (AR v2)
Track 16 accurately ripped (confidence 3) [78399C06] (AR v2)
Track 17 accurately ripped (confidence 3) [4D01421C] (AR v2)
Track 18 accurately ripped (confidence 2) [CCA4E2D1] (AR v2)

All tracks accurately ripped

End of status report

---- CUETools DB Plugin V2.1.6

[CTDB TOCID: BNU7m0HG89AvGLsgdY6aY.dO_ig-] found
Submit result: BNU7m0HG89AvGLsgdY6aY.dO_ig- has been confirmed
Track | CTDB Status
1 | (6/7) Accurately ripped
2 | (7/7) Accurately ripped
3 | (7/7) Accurately ripped
4 | (7/7) Accurately ripped
5 | (7/7) Accurately ripped
6 | (7/7) Accurately ripped
7 | (7/7) Accurately ripped
8 | (7/7) Accurately ripped
9 | (7/7) Accurately ripped
10 | (7/7) Accurately ripped
11 | (7/7) Accurately ripped
12 | (7/7) Accurately ripped
13 | (6/7) Accurately ripped
14 | (6/7) Accurately ripped
15 | (7/7) Accurately ripped
16 | (7/7) Accurately ripped
17 | (6/7) Accurately ripped
18 | (7/7) Accurately ripped
[свернуть]

Файл CUE

REM GENRE "Jazz Blues"
REM DATE 1975
REM DISCID EF115512
REM COMMENT "ExactAudioCopy v1.3"
PERFORMER "Tom Waits"
TITLE "Nighthawks At The Diner"
REM COMPOSER ""
FILE "Tom Waits - Nighthawks At The Diner.flac" WAVE
TRACK 01 AUDIO
TITLE "(Opening Intro)"
PERFORMER "Tom Waits"
REM COMPOSER ""
INDEX 01 00:00:00
TRACK 02 AUDIO
TITLE "Emotional Weather Report"
PERFORMER "Tom Waits"
REM COMPOSER ""
INDEX 01 02:58:07
TRACK 03 AUDIO
TITLE "(Intro)"
PERFORMER "Tom Waits"
REM COMPOSER ""
INDEX 01 06:45:32
TRACK 04 AUDIO
TITLE "On A Foggy Night"
PERFORMER "Tom Waits"
REM COMPOSER ""
INDEX 01 09:01:60
TRACK 05 AUDIO
TITLE "(Intro)"
PERFORMER "Tom Waits"
REM COMPOSER ""
INDEX 01 12:50:17
TRACK 06 AUDIO
TITLE "Eggs And Sausage (In A Cadillac With Susan Michelson)"
PERFORMER "Tom Waits"
REM COMPOSER ""
INDEX 01 14:43:37
TRACK 07 AUDIO
TITLE "(Intro)"
PERFORMER "Tom Waits"
REM COMPOSER ""
INDEX 01 19:02:67
TRACK 08 AUDIO
TITLE "Better Off Without A Wife"
PERFORMER "Tom Waits"
REM COMPOSER ""
INDEX 01 22:05:20
TRACK 09 AUDIO
TITLE "Nighthawk Postcards (From Easy Street)"
PERFORMER "Tom Waits"
REM COMPOSER ""
INDEX 01 26:04:30
TRACK 10 AUDIO
TITLE "(Intro)"
PERFORMER "Tom Waits"
REM COMPOSER ""
INDEX 00 37:33:12
INDEX 01 37:34:32
TRACK 11 AUDIO
TITLE "Warm Beer And Cold Women"
PERFORMER "Tom Waits"
REM COMPOSER ""
INDEX 01 38:30:05
TRACK 12 AUDIO
TITLE "(Intro)"
PERFORMER "Tom Waits"
REM COMPOSER ""
INDEX 01 43:51:10
TRACK 13 AUDIO
TITLE "Putnam County"
PERFORMER "Tom Waits"
REM COMPOSER ""
INDEX 01 44:39:40
TRACK 14 AUDIO
TITLE "Spare Parts I (A Nocturnal Emission)"
PERFORMER "Tom Waits"
REM COMPOSER ""
INDEX 01 52:14:47
TRACK 15 AUDIO
TITLE "Nobody"
PERFORMER "Tom Waits"
REM COMPOSER ""
INDEX 00 58:38:57
INDEX 01 58:40:35
TRACK 16 AUDIO
TITLE "(Intro)"
PERFORMER "Tom Waits"
REM COMPOSER ""
INDEX 01 61:31:70
TRACK 17 AUDIO
TITLE "Big Joe And Phantom 309"
PERFORMER "Tom Waits"
REM COMPOSER ""
INDEX 01 62:12:47
TRACK 18 AUDIO
TITLE "Spare Parts II And Closing"
PERFORMER "Tom Waits"
REM COMPOSER ""
INDEX 01 68:41:47
[свернуть]

Лог проверки качества

AUDIOCHECKER v2.0 beta (build 457) - by Dester -
~~~~~~~~~~~~~~~~~~~~~~~~~~~~~~~~~~
-=== НЕ РЕДАКТИРУЙТЕ ЭТОТ ФАЙЛ! ===-

Путь: ...\1975 - Nighthawks At The Diner

1 -=- Tom Waits - Nighthawks At The Diner.flac -=- CDDA (100%)

95596724
[свернуть]

Спектр частот

[свернуть]

Скачать Tom Waits - Nighthawks At The Diner



password: sergych
[свернуть]

Контрольная сумма (хеш-сумма) архива

MD5: 3f2b71de11d2e889bd9f5065ab6c3787
[свернуть]
My opinion of release: 10/10

Release info RInfo

Прекрасный ранний живой альбом Тома.
Из минусов - очень вероятно, что данный релиз - это русский "левак".
__________________
TAIFUN.Wings of Soul

Вверх
2 пользователя(ей) сказали cпасибо:
swint68 (20.12.2017), TAIFUN (20.12.2017)
  #2
Старый 20.12.2017, 21:17
swint68
Меломан
Досье
 
Аватар для swint68
По умолчанию Re: Tom Waits - Nighthawks At The Diner

Цитата: Сообщение от sergych Посмотреть сообщение
Из минусов - очень вероятно, что данный релиз - это русский "левак".

Цифра она и в Африке цифра.
Ничего с ней не станет, если правильно всё скопировано.
Спасибо!

Вверх
Пользователь сказал cпасибо:
sergych (25.12.2017)
Похожие темы
Тема Автор Раздел Ответов Последнее сообщение
Сборник Tom Waits - We're All Mad Here: A Conversation With Tom Waits sergych Experimental Rock 0 13.02.2014 17:09
Релиз The Nighthawks - Damn Good Time! PUPOKIN Jazz и Blues 0 23.07.2012 10:44
Альбом Tom Waits - Bad As Me sergych Jazz и Blues 0 20.11.2011 21:37
Релиз Nighthawks - Today PUPOKIN Jazz и Blues 0 19.10.2010 11:24
Сборник Tom Waits & Friends - The Ghost Of Tom Waits sergych Jazz и Blues 0 24.01.2009 00:19


Метки
1975 , blues rock , experimental rock , nighthawks at the diner , rock , tom waits

Опции темы

Ваши права в разделе
Вы не можете создавать новые темы
Вы не можете отвечать в темах
Вы не можете прикреплять вложения
Вы не можете редактировать свои сообщения

Быстрый переход



Текущее время: 12:43. Часовой пояс GMT +3.
Powered by vBulletin® Version 3.8.10
Copyright ©2000 - 2018, vBulletin Solutions, Inc. Перевод: zCarot
© 2008 - 2018 Taifun With Song
Яндекс.Метрика