TAIFUN With Song
Навигация
R&B Ссылки на музыку в этом стиле

А знаете ли Вы, что...
Почему исполнение песни «Happy Birthday to You» может быть незаконным?
«Известная песенка «Happy Birthday to You» по сей день находится под защитой авторских прав в США. Её можно бесплатно петь в обычном кругу семьи или друзей, но за коммерческое использование, например в фильме или поздравительной открытке, необходимо платить отчисления. Сейчас песня приносит ежегодно 2 миллиона долларов компании-владельцу прав на неё.»
 
Опции темы

  #1
Старый 04.11.2015, 16:17
sergych
Координатор
Досье
 
Аватар для sergych
Релиз Mariah Carey - MTV Unplugged


1992 - Mariah Carey - MTV Unplugged {EP}




Исполнитель/Artist: Mariah Carey
Альбом/Album: MTV Unplugged {EP}
Год/Year: 1992
Жанр/Genre: R&B, soul, pop, dance-pop
Страна/Country: Австрия
Рекорд-лейбл/Record label: Columbia / Sony Music
Номер в каталоге/Catalogue #: 471869 2
Формат/Format: Free Lossless Audio Codec (*.flac)
Качество/Quality: Lossless
Тип рипа/RIP Type: image+.cue
Продолжительность/Length: 00:28:48
Источник/Source: Собственный рип
Размер/Size: 212 MB

Сканы в комплекте

Треклист

01. Emotions [0:03:59.72]
02. If It's Over [0:03:47.63]
03. Someday [0:03:56.35]
04. Vision of Love [0:03:36.07]
05. Make It Happen [0:04:09.40]
06. I'll Be There (feat. Trey Lorenz) [0:04:42.30]
07. Can't Let Go [0:04:35.53]
[свернуть]

youtube.com

[свернуть]

Исполнители/Performers

Mariah Carey - arranger, composer, producer, vocals
Geno Morris, Darryl Douglass Workshop Company, Patrique McMillian, Trey Lorenz - vocals
Cheree Price, Henry Casper, Kelly Price, Liz Stewart, Melonie Daniels, Peggy Harley, Spencer Washington - background vocals
Walter Afanasieff - arranger, composer, piano, producer
David Cole - composer, piano
Vernon "Ice" Black - guitar
Randy Jackson - bass
Belinda Whitney-Barratt, Cecilia Hobbs, Laura Corcos, Winterton Garvey - strings
Sammy Figueroa - percussion
Lew Del Gatto - baritone saxophone
Lenny Pickett - tenor saxophone
George Young - alto saxophone
Earl Gardner - trumpet
Steve Turre - trombone
Ren Klyce - bells, celeste, timpani
Dan Shea - harmonium, harpsichord
Greg "Gigi" Gonaway - drums
[свернуть]

EAC лог

Exact Audio Copy V1.0 beta 3 from 29. August 2011

EAC extraction logfile from 9. October 2015, 23:38

Mariah Carey / MTV Unplugged

Used drive : ATAPI iHAS124 D Adapter: 0 ID: 2

Read mode : Secure
Utilize accurate stream : Yes
Defeat audio cache : Yes
Make use of C2 pointers : No

Read offset correction : 6
Overread into Lead-In and Lead-Out : No
Fill up missing offset samples with silence : Yes
Delete leading and trailing silent blocks : No
Null samples used in CRC calculations : Yes
Used interface : Installed external ASPI interface

Used output format : User Defined Encoder
Selected bitrate : 1024 kBit/s
Quality : High
Add ID3 tag : No
Command line compressor : C:\Program Files (x86)\Exact Audio Copy\Flac\flac.exe
Additional command line options : -6 -V -T "ARTIST=%artist%" -T "TITLE=%title%" -T "ALBUM=%albumtitle%" -T "DATE=%year%" -T "TRACKNUMBER=%tracknr%" -T "GENRE=%genre%" -T "COMMENT=%comment%" -T "BAND=%albuminterpret%" -T "COMPOSER=%composer%" %haslyrics%--tag-from-file=LYRICS="%lyricsfile%"%haslyrics% -T "DISCNUMBER=%cdnumber%" -T "TOTALDISCS=%totalcds%" -T "TOTALTRACKS=%numtracks%" %hascover%--picture="%coverfile%"%hascover% %source% -o %dest%


TOC of the extracted CD

Track | Start | Length | Start sector | End sector
---------------------------------------------------------
1 | 0:00.00 | 3:59.72 | 0 | 17996
2 | 3:59.72 | 3:47.63 | 17997 | 35084
3 | 7:47.60 | 3:56.35 | 35085 | 52819
4 | 11:44.20 | 3:36.07 | 52820 | 69026
5 | 15:20.27 | 4:09.40 | 69027 | 87741
6 | 19:29.67 | 4:42.30 | 87742 | 108921
7 | 24:12.22 | 4:35.53 | 108922 | 129599


Range status and errors

Selected range

Filename C:\mm\Mariah Carey\1992 - MTV Unplugged {EP} [471869 2]\Mariah Carey - MTV Unplugged.wav

Peak level 97.7 %
Extraction speed 2.7 X
Range quality 100.0 %
Test CRC 2A94A4F5
Copy CRC 2A94A4F5
Copy OK

No errors occurred


AccurateRip summary

Track 1 accurately ripped (confidence 17) [1414C250] (AR v2)
Track 2 accurately ripped (confidence 17) [FC975002] (AR v2)
Track 3 accurately ripped (confidence 17) [B1AEF1AC] (AR v2)
Track 4 accurately ripped (confidence 17) [66D0E176] (AR v2)
Track 5 accurately ripped (confidence 17) [CAEDBD8D] (AR v2)
Track 6 accurately ripped (confidence 17) [02B43430] (AR v2)
Track 7 accurately ripped (confidence 17) [99CEF55C] (AR v2)

All tracks accurately ripped

End of status report
[свернуть]

Файл CUE

REM GENRE Pop
REM DATE 1992
REM DISCID 4E06C007
REM COMMENT "ExactAudioCopy v1.0b3"
PERFORMER "Mariah Carey"
TITLE "MTV Unplugged"
FILE "Mariah Carey - MTV Unplugged.flac" WAVE
TRACK 01 AUDIO
TITLE "Emotions"
PERFORMER "Mariah Carey"
INDEX 01 00:00:00
TRACK 02 AUDIO
TITLE "If It's Over"
PERFORMER "Mariah Carey"
INDEX 01 03:59:72
TRACK 03 AUDIO
TITLE "Someday"
PERFORMER "Mariah Carey"
INDEX 01 07:47:60
TRACK 04 AUDIO
TITLE "Vision of Love"
PERFORMER "Mariah Carey"
INDEX 01 11:44:20
TRACK 05 AUDIO
TITLE "Make It Happen"
PERFORMER "Mariah Carey"
INDEX 01 15:20:27
TRACK 06 AUDIO
TITLE "I'll Be There (feat. Trey Lorenz)"
PERFORMER "Mariah Carey"
INDEX 01 19:29:67
TRACK 07 AUDIO
TITLE "Can't Let Go"
PERFORMER "Mariah Carey"
INDEX 01 24:12:22
[свернуть]

Лог проверки качества

AUDIOCHECKER v2.0 beta (build 457) - by Dester -
~~~~~~~~~~~~~~~~~~~~~~~~~~~~~~~~~~
-=== НЕ РЕДАКТИРУЙТЕ ЭТОТ ФАЙЛ! ===-

Путь: ...\1992 - MTV Unplugged {EP} [471869 2]

1 -=- Mariah Carey - MTV Unplugged.flac -=- CDDA (99%)

219448452
[свернуть]

Спектр частот

[свернуть]

Скачать Mariah Carey - MTV Unplugged



password: sergych
[свернуть]
My opinion of release: 10/10
__________________
TAIFUN.Wings of Soul

Вверх
3 пользователя(ей) сказали cпасибо:
Показать список поблагодаривших
  #2
Старый 14.07.2017, 21:52
sergych
Координатор
Досье
 
Аватар для sergych
По умолчанию Re: Mariah Carey - MTV Unplugged


1992 - Mariah Carey - MTV Unplugged {EP}




Исполнитель/Artist: Mariah Carey
Альбом/Album: MTV Unplugged {EP}
Год/Year: 1992
Жанр/Genre: R&B, soul, pop, dance-pop
Страна/Country: Япония
Рекорд-лейбл/Record label: Sony Music
Номер в каталоге/Catalogue #: SRCS 5912
Формат/Format: Free Lossless Audio Codec (*.flac)
Качество/Quality: Lossless
Тип рипа/RIP Type: image+.cue
Продолжительность/Length: 00:28:49
Источник/Source: Собственный рип
Размер/Size: 241 MB

Сканы в комплекте

Треклист

01. Emotions [0:03:59.50]
02. If It's Over [0:03:46.12]
03. Someday [0:03:58.15]
04. Vision Of Love [0:03:36.05]
05. Make It Happen [0:04:09.40]
06. I'll Be There [0:04:42.30]
07. Can't Let Go [0:04:36.68]
[свернуть]

youtube.com

[свернуть]

Исполнители/Performers

Mariah Carey - arranger, composer, producer, vocals
Geno Morris, Darryl Douglass Workshop Company, Patrique McMillian, Trey Lorenz - vocals
Cheree Price, Henry Casper, Kelly Price, Liz Stewart, Melonie Daniels, Peggy Harley, Spencer Washington - background vocals
Walter Afanasieff - arranger, composer, piano, producer
David Cole - composer, piano
Vernon "Ice" Black - guitar
Randy Jackson - bass
Belinda Whitney-Barratt, Cecilia Hobbs, Laura Corcos, Winterton Garvey - strings
Sammy Figueroa - percussion
Lew Del Gatto - baritone saxophone
Lenny Pickett - tenor saxophone
George Young - alto saxophone
Earl Gardner - trumpet
Steve Turre - trombone
Ren Klyce - bells, celeste, timpani
Dan Shea - harmonium, harpsichord
Greg "Gigi" Gonaway - drums
[свернуть]

EAC лог

Exact Audio Copy V1.3 from 2. September 2016

EAC extraction logfile from 13. July 2017, 8:05

Mariah Carey / MTV Unplugged {EP}

Used drive : PLEXTOR DVDR PX-716A Adapter: 1 ID: 0

Read mode : Secure
Utilize accurate stream : Yes
Defeat audio cache : Yes
Make use of C2 pointers : No

Read offset correction : 30
Overread into Lead-In and Lead-Out : No
Fill up missing offset samples with silence : Yes
Delete leading and trailing silent blocks : No
Null samples used in CRC calculations : Yes
Used interface : Installed external ASPI interface

Used output format : User Defined Encoder
Selected bitrate : 1024 kBit/s
Quality : High
Add ID3 tag : No
Command line compressor : C:\Program Files (x86)\Exact Audio Copy\Flac\flac.exe
Additional command line options : -6 -V -T "ARTIST=%artist%" -T "TITLE=%title%" -T "ALBUM=%albumtitle%" -T "DATE=%year%" -T "TRACKNUMBER=%tracknr%" -T "GENRE=%genre%" -T "COMMENT=%comment%" -T "BAND=%albuminterpret%" -T "ALBUMARTIST=%albuminterpret%" -T "COMPOSER=%composer%" %haslyrics%--tag-from-file=LYRICS="%lyricsfile%"%haslyrics% -T "DISCNUMBER=%cdnumber%" -T "TOTALDISCS=%totalcds%" -T "TOTALTRACKS=%numtracks%" %hascover%--picture="%coverfile%"%hascover% %source% -o %dest%


TOC of the extracted CD

Track | Start | Length | Start sector | End sector
---------------------------------------------------------
1 | 0:00.00 | 3:59.50 | 0 | 17974
2 | 3:59.50 | 3:46.12 | 17975 | 34936
3 | 7:45.62 | 3:58.15 | 34937 | 52801
4 | 11:44.02 | 3:36.05 | 52802 | 69006
5 | 15:20.07 | 4:09.40 | 69007 | 87721
6 | 19:29.47 | 4:42.30 | 87722 | 108901
7 | 24:12.02 | 4:36.68 | 108902 | 129669


Range status and errors

Selected range

Filename C:\mm\Mariah Carey\1992 - MTV Unplugged {EP} [SRCS 5912]\Mariah Carey - MTV Unplugged {EP}.wav

Peak level 97.7 %
Extraction speed 10.8 X
Range quality 100.0 %
Test CRC 87BBAC18
Copy CRC 87BBAC18
Copy OK

No errors occurred

End of status report

---- CUETools DB Plugin V2.1.6

[CTDB TOCID: U.pdn6Bz2v4bqO9uh60Fdm8F3dU-] found
Submit result: U.pdn6Bz2v4bqO9uh60Fdm8F3dU- has been confirmed
Track | CTDB Status
1 | (75/75) Accurately ripped
2 | (75/75) Accurately ripped
3 | (75/75) Accurately ripped
4 | (75/75) Accurately ripped
5 | (75/75) Accurately ripped
6 | (74/75) Accurately ripped
7 | (75/75) Accurately ripped
[свернуть]

Файл CUE

REM GENRE Pop
REM DATE 1992
REM DISCID 4C06C007
REM COMMENT "ExactAudioCopy v1.3"
PERFORMER "Mariah Carey"
TITLE "MTV Unplugged {EP}"
REM COMPOSER ""
FILE "Mariah Carey - MTV Unplugged {EP}.flac" WAVE
TRACK 01 AUDIO
TITLE "Emotions"
PERFORMER "Mariah Carey"
REM COMPOSER ""
INDEX 01 00:00:00
TRACK 02 AUDIO
TITLE "If It's Over"
PERFORMER "Mariah Carey"
REM COMPOSER ""
INDEX 01 03:59:50
TRACK 03 AUDIO
TITLE "Someday"
PERFORMER "Mariah Carey"
REM COMPOSER ""
INDEX 01 07:45:62
TRACK 04 AUDIO
TITLE "Vision Of Love"
PERFORMER "Mariah Carey"
REM COMPOSER ""
INDEX 01 11:44:02
TRACK 05 AUDIO
TITLE "Make It Happen"
PERFORMER "Mariah Carey"
REM COMPOSER ""
INDEX 01 15:20:07
TRACK 06 AUDIO
TITLE "I'll Be There"
PERFORMER "Mariah Carey"
REM COMPOSER ""
INDEX 01 19:29:47
TRACK 07 AUDIO
TITLE "Can't Let Go"
PERFORMER "Mariah Carey"
REM COMPOSER ""
INDEX 01 24:12:02
[свернуть]

Лог проверки качества

AUDIOCHECKER v2.0 beta (build 457) - by Dester -
~~~~~~~~~~~~~~~~~~~~~~~~~~~~~~~~~~
-=== НЕ РЕДАКТИРУЙТЕ ЭТОТ ФАЙЛ! ===-

Путь: ...\1992 - MTV Unplugged {EP} [SRCS 5912]

1 -=- Mariah Carey - MTV Unplugged {EP}.flac -=- CDDA (100%)

96231108
[свернуть]

Спектр частот

[свернуть]

Скачать Mariah Carey - MTV Unplugged {EP}



password: sergych
[свернуть]

Контрольная сумма (хеш-сумма) архива

MD5: 639b112d840b6a39953e41e956225a47
[свернуть]
My opinion of release: 10/10

Release info RInfo

Собственно, такой же как ранее выложенный, только японец
__________________
TAIFUN.Wings of Soul

Вверх
3 пользователя(ей) сказали cпасибо:
Показать список поблагодаривших
Похожие темы
Тема Автор Раздел Ответов Последнее сообщение
Сборник Mariah Carey - #1's sergych R&B 1 14.10.2017 22:35
Альбом Mariah Carey - Butterfly sergych R&B 1 13.10.2017 18:07
Альбом Mariah Carey - Mariah Carey sergych R&B 0 17.09.2015 19:37
Релиз Mariah Carey - Lovesongs PUPOKIN R&B 0 19.02.2010 09:09
Альбом Mariah Carey - E=MC2 LUСIAN R&B 0 19.04.2008 23:25


Метки
1992 , dance-pop , mariah carey , mtv unplugged {ep} , pop , r&b , soul

Опции темы

Ваши права в разделе
Вы не можете создавать новые темы
Вы не можете отвечать в темах
Вы не можете прикреплять вложения
Вы не можете редактировать свои сообщения

Быстрый переход



Текущее время: 18:25. Часовой пояс GMT +3.
Powered by vBulletin® Version 3.8.10
Copyright ©2000 - 2018, vBulletin Solutions, Inc. Перевод: zCarot
© 2008 - 2018 Taifun With Song
Яндекс.Метрика