TAIFUN With Song
Навигация
Вернуться   TAIFUN With Song > Music (обменник) > Rock > Pop Rock
Расширенный поиск
Pop Rock Поп-рок — жанр музыки, объединяющий элементы поп-музыки и рок-музыки. Песни характеризуются простой структурой, запоминающимися мелодиями, повторением музыкальных фраз (от попа), использованием в качестве основных инструментов электрогитар и ударных и агрессивным настроением (от рока).

А знаете ли Вы, что...
Откуда взялось выражение «играть на нервах»?
«Когда древние врачи открыли значение нервов в организме человека, они назвали их по сходству со струнами музыкальных инструментов тем же словом — nervus. Отсюда возникло выражение для раздражающих действий — «играть на нервах».»
 
Опции темы

  #1
Старый 01.05.2014, 22:46
sergych
Координатор
Досье
 
Аватар для sergych
Релиз Phil Collins - Both Sides


1993 - Phil Collins - Both Sides




Исполнитель/Artist: Phil Collins
Альбом/Album: Both Sides
Год/Year: 1993
Жанр/Genre: Pop, pop rock
Страна/Country: Соединённые Штаты
Рекорд-лейбл/Record label: Atlantic
Номер в каталоге/Catalogue #: 82550-2
Формат/Format: Free Lossless Audio Codec (*.flac)
Качество/Quality: Lossless
Тип рипа/RIP Type: image+.cue
Продолжительность/Length: 01:07:15
Источник/Source: Собственный рип
Размер/Size: 439.7 MB

Сканы в комплекте

Треклист

01. Both Sides Of The Story [0:06:42.68]
02. Can't Turn Back The Years [0:04:40.45]
03. Everyday [0:05:43.62]
04. I've Forgotten Everything [0:05:15.05]
05. We're Sons Of Our Fathers [0:06:24.48]
06. Can't Find My Way [0:05:09.05]
07. Survivors [0:06:05.12]
08. We Fly So Close [0:07:33.48]
09. There's A Place For Us [0:06:52.70]
10. We Wait And We Wonder [0:07:01.07]
11. Please Come Out Tonight [0:05:46.45]
[свернуть]

youtube.com

[свернуть]

EAC лог

Exact Audio Copy V1.0 beta 3 from 29. August 2011

EAC extraction logfile from 2. May 2014, 0:00

Phil Collins / Both Sides

Used drive : ATAPI iHAS124 D Adapter: 0 ID: 2

Read mode : Secure
Utilize accurate stream : Yes
Defeat audio cache : Yes
Make use of C2 pointers : No

Read offset correction : 6
Overread into Lead-In and Lead-Out : No
Fill up missing offset samples with silence : Yes
Delete leading and trailing silent blocks : No
Null samples used in CRC calculations : Yes
Used interface : Installed external ASPI interface

Used output format : User Defined Encoder
Selected bitrate : 1024 kBit/s
Quality : High
Add ID3 tag : No
Command line compressor : C:\Program Files (x86)\Exact Audio Copy\Flac\flac.exe
Additional command line options : -6 -V -T "ARTIST=%artist%" -T "TITLE=%title%" -T "ALBUM=%albumtitle%" -T "DATE=%year%" -T "TRACKNUMBER=%tracknr%" -T "GENRE=%genre%" -T "COMMENT=%comment%" -T "BAND=%albuminterpret%" -T "COMPOSER=%composer%" %haslyrics%--tag-from-file=LYRICS="%lyricsfile%"%haslyrics% -T "DISCNUMBER=%cdnumber%" -T "TOTALDISCS=%totalcds%" -T "TOTALTRACKS=%numtracks%" %hascover%--picture="%coverfile%"%hascover% %source% -o %dest%


TOC of the extracted CD

Track | Start | Length | Start sector | End sector
---------------------------------------------------------
1 | 0:00.32 | 6:42.68 | 32 | 30249
2 | 6:43.25 | 4:40.45 | 30250 | 51294
3 | 11:23.70 | 5:43.62 | 51295 | 77081
4 | 17:07.57 | 5:15.05 | 77082 | 100711
5 | 22:22.62 | 6:24.48 | 100712 | 129559
6 | 28:47.35 | 5:09.05 | 129560 | 152739
7 | 33:56.40 | 6:05.12 | 152740 | 180126
8 | 40:01.52 | 7:33.48 | 180127 | 214149
9 | 47:35.25 | 6:52.70 | 214150 | 245119
10 | 54:28.20 | 7:01.07 | 245120 | 276701
11 | 61:29.27 | 5:46.45 | 276702 | 302696


Range status and errors

Selected range

Filename C:\mm\Phil Collins\1993 - Both Sides [82550-2]\Phil Collins - Both Sides.wav

Peak level 97.7 %
Extraction speed 3.7 X
Range quality 100.0 %
Test CRC E6023BB7
Copy CRC E6023BB7
Copy OK

No errors occurred


AccurateRip summary

Track 1 accurately ripped (confidence 75) [B05F3083] (AR v2)
Track 2 accurately ripped (confidence 78) [BD376461] (AR v2)
Track 3 accurately ripped (confidence 78) [49C3C79F] (AR v2)
Track 4 accurately ripped (confidence 79) [B3453DD5] (AR v2)
Track 5 accurately ripped (confidence 79) [482189A8] (AR v2)
Track 6 accurately ripped (confidence 79) [70543B6B] (AR v2)
Track 7 accurately ripped (confidence 77) [990EA3E9] (AR v2)
Track 8 accurately ripped (confidence 78) [2FB1B5C1] (AR v2)
Track 9 accurately ripped (confidence 75) [9E3B8283] (AR v2)
Track 10 accurately ripped (confidence 72) [29BFB707] (AR v2)
Track 11 accurately ripped (confidence 67) [84A427BE] (AR v2)

All tracks accurately ripped

End of status report
[свернуть]

Файл CUE

REM GENRE Rock
REM DATE 1993
REM DISCID 940FC30B
REM COMMENT "ExactAudioCopy v1.0b3"
PERFORMER "Phil Collins"
TITLE "Both Sides"
FILE "Phil Collins - Both Sides.flac" WAVE
TRACK 01 AUDIO
TITLE "Both Sides Of The Story"
PERFORMER "Phil Collins"
INDEX 00 00:00:00
INDEX 01 00:00:32
TRACK 02 AUDIO
TITLE "Can't Turn Back The Years"
PERFORMER "Phil Collins"
INDEX 00 06:39:35
INDEX 01 06:43:25
TRACK 03 AUDIO
TITLE "Everyday"
PERFORMER "Phil Collins"
INDEX 00 11:21:18
INDEX 01 11:23:70
TRACK 04 AUDIO
TITLE "I've Forgotten Everything"
PERFORMER "Phil Collins"
INDEX 00 17:06:33
INDEX 01 17:07:57
TRACK 05 AUDIO
TITLE "We're Sons Of Our Fathers"
PERFORMER "Phil Collins"
INDEX 01 22:22:62
TRACK 06 AUDIO
TITLE "Can't Find My Way"
PERFORMER "Phil Collins"
INDEX 00 28:44:70
INDEX 01 28:47:35
TRACK 07 AUDIO
TITLE "Survivors"
PERFORMER "Phil Collins"
INDEX 00 33:51:58
INDEX 01 33:56:40
TRACK 08 AUDIO
TITLE "We Fly So Close"
PERFORMER "Phil Collins"
INDEX 01 40:01:52
TRACK 09 AUDIO
TITLE "There's A Place For Us"
PERFORMER "Phil Collins"
INDEX 01 47:35:25
TRACK 10 AUDIO
TITLE "We Wait And We Wonder"
PERFORMER "Phil Collins"
INDEX 00 54:25:70
INDEX 01 54:28:20
TRACK 11 AUDIO
TITLE "Please Come Out Tonight"
PERFORMER "Phil Collins"
INDEX 00 61:26:20
INDEX 01 61:29:27
[свернуть]

Лог проверки качества

AUDIOCHECKER v2.0 beta (build 457) - by Dester -
~~~~~~~~~~~~~~~~~~~~~~~~~~~~~~~~~~
-=== НЕ РЕДАКТИРУЙТЕ ЭТОТ ФАЙЛ! ===-

Путь: ...\1993 - Both Sides [82550-2]

1 -=- Phil Collins - Both Sides.flac -=- CDDA (100%)

199066740
[свернуть]

Спектр частот

[свернуть]

Скачать Phil Collins - Both Sides



password: sergych
[свернуть]
My opinion of release: 10/10
__________________
TAIFUN.Wings of Soul

Вверх
3 пользователя(ей) сказали cпасибо:
Показать список поблагодаривших
  #2
Старый 02.05.2014, 02:42
TAIFUN
Admin
Досье
 
Аватар для TAIFUN
По умолчанию Re: Phil Collins - Both Sides

Это уже не смешно
Нажмите на изображение для увеличения
Название: Ashampoo_Snap_2014.05.02_02h29m00s_001_.png
Просмотров: 153
Размер:	17.9 Кб
ID:	287


Прослушивая пару дней назад творчество этого певца и музыканта, я вспомнил отрывок из детства, которым поделился с одной интересной девушкой:
отец раньше частенько катал меня по городу на велосипеде рассказывая о рок-группах и музыкантах. Эдакая энциклопедия на колёсах.
Не знаю почему, но из всех поездок мне запомнилась больше всего та, которая была посвящена Филу Коллинзу и группе Genesis в частности.
Отец рассказывал что, петь и играть на ударных одновременно очень сложно, именно такие роли были раньше у Фила Коллинза в группе Genesis... Я по приезду домой решил попробовать, но у меня ничего не вышло, действительно сложно. )
Очень хорошо помню атмосферу той поездки и видео на котором Фил играет на ударных и поёт одновременно.
Мне очень нравится голос этого певца, музыканта. Не зря он входит в тройку музыкантов альбомы которых были проданы в кол-ве более 100 млн. экземпляров, ох не зря.

Спасибо за релиз!
__________________
I love the music
FAQ по форуму
Правила форума
Жизнь человека - это не самое главное в его жизни...

Вверх
2 пользователя(ей) сказали cпасибо:
sergych (02.05.2014), swint68 (23.02.2018)
  #3
Старый 23.02.2018, 09:08
sergych
Координатор
Досье
 
Аватар для sergych
Релиз Re: Phil Collins - Both Sides


1993 - Phil Collins - Both Sides {Deluxe Edition}




Исполнитель/Artist: Phil Collins
Альбом/Album: Both Sides {Deluxe Edition}
Год/Year: 1993
Ремастеринг/Remaster: 2015
Жанр/Genre: Rock, pop rock, pop
Страна/Country: Германия
Рекорд-лейбл/Record label: Atlantic
Номер в каталоге/Catalogue #: 081227953966
Формат/Format: Free Lossless Audio Codec (*.flac)
Качество/Quality: Lossless
Тип рипа/RIP Type: image+.cue
Продолжительность/Length: 02:08:16
Источник/Source: Собственный рип
Размер/Size: 8788.8 MB

Сканы в комплекте

Треклист

CD1
CD2
[свернуть]

youtube.com

[свернуть]

EAC лог

CD1
CD2
[свернуть]

Файл CUE

CD1
CD2
[свернуть]

Лог проверки качества

AUDIOCHECKER v2.0 beta (build 457) - by Dester -
~~~~~~~~~~~~~~~~~~~~~~~~~~~~~~~~~~
-=== НЕ РЕДАКТИРУЙТЕ ЭТОТ ФАЙЛ! ===-

Путь: ...\2015 - Both Sides {Deluxe Edition} [081227953966]

1 -=- Phil Collins - Both Sides (Deluxe Edition)(CD1).flac -=- CDDA (100%)
2 -=- Phil Collins - Both Sides (Deluxe Edition)(CD2).flac -=- CDDA (100%)

Сводка 100,00% CDDA

40041828
[свернуть]

Спектр частот



[свернуть]

Скачать Phil Collins - Both Sides



password: sergych
[свернуть]

Контрольная сумма (хеш-сумма) архива

MD5: 4156d755d22fce364aae04f50ce620c7
[свернуть]
My opinion of release: 10/10
__________________
TAIFUN.Wings of Soul


Последний раз редактировалось sergych, 24.03.2018 в 09:10. Причина: перезаливка
Вверх
3 пользователя(ей) сказали cпасибо:
Показать список поблагодаривших
  #4
Старый 24.02.2018, 19:46
johnsilver
Меломан
Досье
 
Аватар для johnsilver
По умолчанию Re: Phil Collins - Both Sides

sergych, по ходу настройки привода слетели...

Read offset correction: 0. Должно быть +6, как у Вас на рипе с обычного издания.

В этой базе есть такой привод:

Вы уж извините, за дотошность... И, спасибо, конечно!

Всех мужиков - с прошедшим праздником!

Вверх
2 пользователя(ей) сказали cпасибо:
sergych (26.02.2018), TAIFUN (27.02.2018)
  #5
Старый 26.02.2018, 06:06
sergych
Координатор
Досье
 
Аватар для sergych
По умолчанию Re: Phil Collins - Both Sides

johnsilver, Спасибо, чего-то февраль нынче подглючил, - с начала месяца все рипы с таким смещением
Постараюсь на этой неделе переделать и перезалить все.
__________________
TAIFUN.Wings of Soul

Вверх
2 пользователя(ей) сказали cпасибо:
johnsilver (26.02.2018), TAIFUN (27.02.2018)
  #6
Старый 27.02.2018, 19:03
TAIFUN
Admin
Досье
 
Аватар для TAIFUN
По умолчанию Re: Phil Collins - Both Sides

johnsilver, спасибо за бдительность!
__________________
I love the music
FAQ по форуму
Правила форума
Жизнь человека - это не самое главное в его жизни...

Вверх
2 пользователя(ей) сказали cпасибо:
johnsilver (24.03.2018), sergych (28.02.2018)
  #7
Старый 24.03.2018, 09:11
sergych
Координатор
Досье
 
Аватар для sergych
По умолчанию Re: Phil Collins - Both Sides

перезалито новым рипом с исправленными настройками EAC
__________________
TAIFUN.Wings of Soul

Вверх
2 пользователя(ей) сказали cпасибо:
johnsilver (24.03.2018), TAIFUN (25.03.2018)
Похожие темы
Тема Автор Раздел Ответов Последнее сообщение
Сборник Phil Collins - The Lost Album & Demos PUPOKIN Pop Rock 0 22.01.2012 09:30
Альбом Stacie Collins - Sometimes Ya Gotta PUPOKIN Rock 0 27.03.2011 09:44
Релиз Phil Collins - A Little Bit Of Something For The Weekend PUPOKIN Pop Rock 0 01.09.2010 09:48
Альбом Phil Collins - ...But Seriously PUPOKIN Art Rock 0 01.11.2009 08:53
Альбом Phil Collins - No Jacket Required TAIFUN Art Rock 0 22.09.2008 03:02


Метки
1993 , 2015 , both sides , both sides {deluxe edition} , phil collins , pop , pop rock , rock

Опции темы

Ваши права в разделе
Вы не можете создавать новые темы
Вы не можете отвечать в темах
Вы не можете прикреплять вложения
Вы не можете редактировать свои сообщения

Быстрый переход



Текущее время: 20:01. Часовой пояс GMT +3.
Powered by vBulletin® Version 3.8.10
Copyright ©2000 - 2018, vBulletin Solutions, Inc. Перевод: zCarot
© 2008 - 2018 Taifun With Song
Яндекс.Метрика