TAIFUN With Song
Навигация
Jazz и Blues Гибкая ритмика, импровизационное начало, гармонии и мелодии - все это Jazz. Blues - жизнеутверждающая музыка, рожденная из душевной боли

А знаете ли Вы, что...
Как реагировала Монсеррат Кабалье, если кто-либо из зрителей записывал концерт на магнитофон?
«Монсеррат Кабалье иногда на своих концертах прибегала к следующей шутке. Если кто-либо из зрителей записывал концерт на магнитофон, и в какой-то момент ему надо было перевернуть кассету, Кабалье прекращала петь. Помолчав несколько секунд, она говорила: «Кивните мне, когда можно будет продолжать».»
 
Опции темы

  #1
Старый 27.09.2013, 08:19
sergych
Координатор
Досье
 
Аватар для sergych
Релиз Diana Krall - Glad Rag Doll


2012 - Diana Krall - Glad Rag Doll {Deluxe Edition}




Исполнитель/Artist: Diana Krall
Альбом/Album: Glad Rag Doll {Deluxe Edition}
Год/Year: 2012
Жанр/Genre: Smooth Jazz, Contemporary Jazz, Vocal jazz
Страна/Country: Австрия
Рекорд-лейбл/Record label: Verve
Номер в каталоге/Catalogue #: 0602537126934
Формат/Format: Free Lossless Audio Codec (*.flac)
Качество/Quality: Lossless
Тип рипа/RIP Type: image+.cue
Продолжительность/Length: 01:08:31
Источник/Source: Собственный рип
Размер/Size: 374.5 MB

Сканы в комплекте

Треклист

01 - We Just Couldn't Say Goodbye
02 - There Ain't No Sweet Man That's Worth The Salt Of My Tears
03 - Just Like A Butterfly That's Caught In The Rain
04 - You Know - I Know Ev'rything's Made For Love
05 - Glad Rag Doll
06 - I'm A Little Mixed Up
07 - Prairie Lullaby
08 - Here Lies Love
09 - I Used To Love You But It's All Over Now
10 - Let It Rain
11 - Lonely Avenue
12 - Wide River To Cross
13 - When The Curtain Comes Down

Bonus Tracks:
14 - As Long As I Love
15 - Glad Rag Doll (Alternate Version)
16 - Garden In The Rain
17 - There Ain't No Sweet Man That's Worth The Salt Of My Tears (Alternate Version)
[свернуть]

youtube.com

[свернуть]

Исполнители/Performers

Diana Krall – vocals, piano
Jay Bellerose – drums
Keefus Ciancia – keyboards
Howard Coward – guitar, ukulele
Dennis Crouch – bass
Colin Linden – guitar
Marc Ribot – banjo, guitar, ukulele
Bryan Sutton – guitar
[свернуть]

EAC лог

Exact Audio Copy V1.3 from 2. September 2016

EAC extraction logfile from 25. March 2018, 21:01

Diana Krall / Glad Rag Doll (Deluxe Edition)

Used drive : ATAPI iHAS124 D Adapter: 0 ID: 2

Read mode : Secure
Utilize accurate stream : Yes
Defeat audio cache : Yes
Make use of C2 pointers : No

Read offset correction : 6
Overread into Lead-In and Lead-Out : No
Fill up missing offset samples with silence : Yes
Delete leading and trailing silent blocks : No
Null samples used in CRC calculations : Yes
Used interface : Installed external ASPI interface

Used output format : User Defined Encoder
Selected bitrate : 1024 kBit/s
Quality : High
Add ID3 tag : No
Command line compressor : C:\Program Files (x86)\Exact Audio Copy\Flac\flac.exe
Additional command line options : -6 -V -T "ARTIST=%artist%" -T "TITLE=%title%" -T "ALBUM=%albumtitle%" -T "DATE=%year%" -T "TRACKNUMBER=%tracknr%" -T "GENRE=%genre%" -T "COMMENT=%comment%" -T "BAND=%albuminterpret%" -T "ALBUMARTIST=%albuminterpret%" -T "COMPOSER=%composer%" %haslyrics%--tag-from-file=LYRICS="%lyricsfile%"%haslyrics% -T "DISCNUMBER=%cdnumber%" -T "TOTALDISCS=%totalcds%" -T "TOTALTRACKS=%numtracks%" %hascover%--picture="%coverfile%"%hascover% %source% -o %dest%


TOC of the extracted CD

Track | Start | Length | Start sector | End sector
---------------------------------------------------------
1 | 0:00.00 | 3:07.06 | 0 | 14030
2 | 3:07.06 | 4:29.39 | 14031 | 34244
3 | 7:36.45 | 3:43.08 | 34245 | 50977
4 | 11:19.53 | 3:47.24 | 50978 | 68026
5 | 15:07.02 | 4:34.36 | 68027 | 88612
6 | 19:41.38 | 4:36.63 | 88613 | 109375
7 | 24:18.26 | 4:22.19 | 109376 | 129044
8 | 28:40.45 | 5:08.74 | 129045 | 152218
9 | 33:49.44 | 2:50.34 | 152219 | 165002
10 | 36:40.03 | 5:44.18 | 165003 | 190820
11 | 42:24.21 | 6:57.26 | 190821 | 222121
12 | 49:21.47 | 3:51.19 | 222122 | 239465
13 | 53:12.66 | 4:51.51 | 239466 | 261341
14 | 58:04.42 | 2:29.59 | 261342 | 272575
15 | 60:34.26 | 2:54.71 | 272576 | 285696
16 | 63:29.22 | 2:55.20 | 285697 | 298841
17 | 66:24.42 | 2:06.58 | 298842 | 308349


Range status and errors

Selected range

Filename C:\mm\Diana Krall\2012 - Glad Rag Doll {Deluxe Edition} [0602537126934]\Diana Krall - Glad Rag Doll (Deluxe Edition).wav

Peak level 98.8 %
Extraction speed 2.0 X
Range quality 100.0 %
Test CRC 67FC135D
Copy CRC 67FC135D
Copy OK

No errors occurred

End of status report

---- CUETools DB Plugin V2.1.6

[CTDB TOCID: _Kg0L1ibZMjOrSigVVpJTqyuOjw-] found
Submit result: _Kg0L1ibZMjOrSigVVpJTqyuOjw- has been confirmed
Track | CTDB Status
1 | (433/433) Accurately ripped
2 | (430/433) Accurately ripped
3 | (432/433) Accurately ripped
4 | (431/433) Accurately ripped, or (2/433) differs in 72 samples @03:40:73-03:40:74
5 | (432/433) Accurately ripped
6 | (432/433) Accurately ripped
7 | (429/433) Accurately ripped
8 | (430/433) Accurately ripped
9 | (429/433) Accurately ripped
10 | (432/433) Accurately ripped
11 | (431/433) Accurately ripped
12 | (432/433) Accurately ripped
13 | (432/433) Accurately ripped
14 | (431/433) Accurately ripped
15 | (431/433) Accurately ripped
16 | (424/433) Accurately ripped
17 | (419/433) Accurately ripped, or (2/433) differs in 3868 samples @02:06:34-02:06:47
[свернуть]

Файл CUE

REM GENRE Jazz
REM DATE 2012
REM DISCID FA100F11
REM COMMENT "ExactAudioCopy v1.3"
PERFORMER "Diana Krall"
TITLE "Glad Rag Doll (Deluxe Edition)"
REM COMPOSER ""
FILE "Diana Krall - Glad Rag Doll (Deluxe Edition).flac" WAVE
TRACK 01 AUDIO
TITLE "We Just Couldn't Say Goodbye"
PERFORMER "Diana Krall"
REM COMPOSER ""
INDEX 01 00:00:00
TRACK 02 AUDIO
TITLE "There Ain't No Sweet Man That's Worth The Salt Of My Tears"
PERFORMER "Diana Krall"
REM COMPOSER ""
INDEX 01 03:07:06
TRACK 03 AUDIO
TITLE "Just Like A Butterfly That's Caught In The Rain"
PERFORMER "Diana Krall"
REM COMPOSER ""
INDEX 01 07:36:45
TRACK 04 AUDIO
TITLE "You Know – I Know Ev'rything's Made For Love"
PERFORMER "Diana Krall"
REM COMPOSER ""
INDEX 01 11:19:53
TRACK 05 AUDIO
TITLE "Glad Rag Doll"
PERFORMER "Diana Krall"
REM COMPOSER ""
INDEX 01 15:07:02
TRACK 06 AUDIO
TITLE "I'm A Little Mixed Up"
PERFORMER "Diana Krall"
REM COMPOSER ""
INDEX 01 19:41:38
TRACK 07 AUDIO
TITLE "Prairie Lullaby"
PERFORMER "Diana Krall"
REM COMPOSER ""
INDEX 01 24:18:26
TRACK 08 AUDIO
TITLE "Here Lies Love"
PERFORMER "Diana Krall"
REM COMPOSER ""
INDEX 01 28:40:45
TRACK 09 AUDIO
TITLE "I Used To Love You But It's All Over Now"
PERFORMER "Diana Krall"
REM COMPOSER ""
INDEX 01 33:49:44
TRACK 10 AUDIO
TITLE "Let It Rain"
PERFORMER "Diana Krall"
REM COMPOSER ""
INDEX 01 36:40:03
TRACK 11 AUDIO
TITLE "Lonely Avenue"
PERFORMER "Diana Krall"
REM COMPOSER ""
INDEX 01 42:24:21
TRACK 12 AUDIO
TITLE "Wide River To Cross"
PERFORMER "Diana Krall"
REM COMPOSER ""
INDEX 01 49:21:47
TRACK 13 AUDIO
TITLE "When The Curtain Comes Down"
PERFORMER "Diana Krall"
REM COMPOSER ""
INDEX 01 53:12:66
TRACK 14 AUDIO
TITLE "As Long As I Love"
PERFORMER "Diana Krall"
REM COMPOSER ""
INDEX 01 58:04:42
TRACK 15 AUDIO
TITLE "Glad Rag Doll (Alternate Version)"
PERFORMER "Diana Krall"
REM COMPOSER ""
INDEX 01 60:34:26
TRACK 16 AUDIO
TITLE "Garden In The Rain"
PERFORMER "Diana Krall"
REM COMPOSER ""
INDEX 01 63:29:22
TRACK 17 AUDIO
TITLE "There Ain't No Sweet Man That's Worth The Salt Of My Tears (Alternate Version)"
PERFORMER "Diana Krall"
REM COMPOSER ""
INDEX 01 66:24:42
[свернуть]

Лог проверки качества

AUDIOCHECKER v2.0 beta (build 457) - by Dester -
~~~~~~~~~~~~~~~~~~~~~~~~~~~~~~~~~~
-=== НЕ РЕДАКТИРУЙТЕ ЭТОТ ФАЙЛ! ===-

Путь: ...\2012 - Glad Rag Doll {Deluxe Edition} [0602537126934]

1 -=- Diana Krall - Glad Rag Doll (Deluxe Edition).flac -=- CDDA (100%)

223641300
[свернуть]

Спектр частот

[свернуть]

Скачать Diana Krall - Glad Rag Doll



password: sergych
[свернуть]

Контрольная сумма (хеш-сумма) архива

MD5: 9f76511137ee42b158e70f2050bbcc5d
[свернуть]
__________________
TAIFUN.Wings of Soul


Последний раз редактировалось sergych, 30.03.2018 в 19:38. Причина: замена инетовского рипа собственным
Вверх
2 пользователя(ей) сказали cпасибо:
Lighting1981 (03.09.2017), swint68 (31.03.2018)
  #2
Старый 31.03.2018, 06:54
sergych
Координатор
Досье
 
Аватар для sergych
По умолчанию Re: Diana Krall - Glad Rag Doll

заменил инетовский рип собственнным
__________________
TAIFUN.Wings of Soul

Вверх
3 пользователя(ей) сказали cпасибо:
Показать список поблагодаривших
Похожие темы
Тема Автор Раздел Ответов Последнее сообщение
Сборник Diana Krall - The Very Best Of Diana Krall sergych Jazz и Blues 2 29.10.2017 20:26
Альбом Diana Krall - When I Look In Your Eyes sergych Jazz и Blues 1 13.01.2016 17:56
Альбом Diana Krall - The Look Of Love sergych Jazz и Blues 1 15.03.2014 13:16
Альбом Diana Krall - Stepping Out sergych Jazz и Blues 0 23.09.2013 18:47
Релиз Diana Krall - Glad Rag Doll (Deluxe Edition) PUPOKIN Jazz и Blues 0 28.09.2012 09:34


Метки
2012 , contemporary jazz , diana krall , glad rag doll [deluxe edition] , smooth jazz , vocal jazz

Опции темы

Ваши права в разделе
Вы не можете создавать новые темы
Вы не можете отвечать в темах
Вы не можете прикреплять вложения
Вы не можете редактировать свои сообщения

Быстрый переход



Текущее время: 00:31. Часовой пояс GMT +3.
Powered by vBulletin® Version 3.8.10
Copyright ©2000 - 2018, vBulletin Solutions, Inc. Перевод: zCarot
© 2008 - 2018 Taifun With Song
Яндекс.Метрика