TAIFUN With Song
Навигация
Jazz и Blues Гибкая ритмика, импровизационное начало, гармонии и мелодии - все это Jazz. Blues - жизнеутверждающая музыка, рожденная из душевной боли

А знаете ли Вы, что...
Какая консерватория носит имя композитора, которому отказала в приёме?
«Миланская консерватория носит имя Джузеппе Верди, хотя в 1833 году отказала ему в зачислении. Юному Верди было сказано, что он на 4 года старше обычного возраста принимаемых, не является гражданином Ломбардо-Венецианского королевства и лишён музыкального таланта.»
 
Опции темы

  #1
Старый 24.09.2013, 19:22
sergych
Координатор
Досье
 
Аватар для sergych
Релиз


2002 - Diana Krall - Live in Paris




Исполнитель/Artist: Diana Krall
Альбом/Album: Live in Paris {Canadian Exclusive}
Год/Year: 2002
Жанр/Genre: Smooth Jazz, Contemporary Jazz, Vocal jazz
Страна/Country: Канада
Рекорд-лейбл/Record label: Verve
Номер в каталоге/Catalogue #: 4400652522
Формат/Format: Free Lossless Audio Codec (*.flac)
Качество/Quality: Lossless
Тип рипа/RIP Type: tracks+.cue
Продолжительность/Length: 01:12:53
Источник/Source: Из интернета
Размер/Size: 453.9 MB


Треклист

01 - I Love Being Here With You
02 - Let's Fall In Love
03 - 'Deed I Do
04 - The Look Of Love
05 - East Of The Sun (And West Of The Moon)
06 - I've Got You Under My Skin
07 - Devil May Care
08 - Maybe You'll Be There
09 - 'S Wonderful
10 - Fly Me To The Moon
11 - A Case Of You
12 - Just The Way You Are

**Canadian Exclusive**
13 - Charmed Life
[свернуть]

youtube.com

[свернуть]

Исполнители/Performers

Diana Krall - piano, vocals, Fender Rhodes
Michael Brecker - tenor saxophone
Alan Broadbent - conductor
John Clayton - bass
Paulinho Da Costa - percussion
Jeff Hamilton - drums
Christian McBride - bass
Rob Mounsey - keyboard
Lewis Nash - drums
John Pisano - acoustic guitar
Luis Quintero - percussion
Anthony Wilson - guitar
[свернуть]

EAC лог

Exact Audio Copy V0.99 prebeta 4 from 23. January 2008

EAC extraction logfile from 22. August 2008, 12:28

Diana Krall / Live In Paris

Used drive : HL-DT-STDVDRAM GH20NS10 Adapter: 3 ID: 0

Read mode : Secure
Utilize accurate stream : Yes
Defeat audio cache : Yes
Make use of C2 pointers : No

Read offset correction : 667
Overread into Lead-In and Lead-Out : No
Fill up missing offset samples with silence : Yes
Delete leading and trailing silent blocks : No
Null samples used in CRC calculations : Yes
Used interface : Native Win32 interface for Win NT & 2000
Gap handling : Appended to previous track

Used output format : User Defined Encoder
Selected bitrate : 768 kBit/s
Quality : High
Add ID3 tag : No
Command line compressor : C:\Program Files\FLAC\flac.exe
Additional command line options : -V -8 -T "artist=%a" -T "title=%t" -T "album=%g" -T "date=%y" -T "tracknumber=%n" %s


TOC of the extracted CD

Track | Start | Length | Start sector | End sector
---------------------------------------------------------
1 | 0:00.00 | 5:12.68 | 0 | 23467
2 | 5:12.68 | 4:34.08 | 23468 | 44025
3 | 9:47.01 | 5:17.63 | 44026 | 67863
4 | 15:04.64 | 5:00.00 | 67864 | 90363
5 | 20:04.64 | 5:58.52 | 90364 | 117265
6 | 26:03.41 | 7:24.03 | 117266 | 150568
7 | 33:27.44 | 6:52.28 | 150569 | 181496
8 | 40:19.72 | 5:47.56 | 181497 | 207577
9 | 46:07.53 | 5:59.60 | 207578 | 234562
10 | 52:07.38 | 6:05.53 | 234563 | 261990
11 | 58:13.16 | 7:04.45 | 261991 | 293835
12 | 65:17.61 | 5:01.49 | 293836 | 316459
13 | 70:19.35 | 2:49.52 | 316460 | 329186


Track 1

Filename C:\Hi there RIAA, What's up IFPI\Diana Krall - Live In Paris\01 - I Love Being Here With You.wav

Pre-gap length 0:00:02.00

Peak level 97.4 %
Track quality 100.0 %
Test CRC 90DF2A71
Copy CRC 90DF2A71
Accurately ripped (confidence 24) [0028AF7C]
Copy OK

Track 2

Filename C:\Hi there RIAA, What's up IFPI\Diana Krall - Live In Paris\02 - Let's Fall In Love.wav

Peak level 97.4 %
Track quality 100.0 %
Test CRC AB7ECEE1
Copy CRC AB7ECEE1
Accurately ripped (confidence 25) [9D085E7E]
Copy OK

Track 3

Filename C:\Hi there RIAA, What's up IFPI\Diana Krall - Live In Paris\03 - 'Deed I Do.wav

Peak level 97.4 %
Track quality 100.0 %
Test CRC DA6B991D
Copy CRC DA6B991D
Accurately ripped (confidence 25) [1CFBE0E9]
Copy OK

Track 4

Filename C:\Hi there RIAA, What's up IFPI\Diana Krall - Live In Paris\04 - The Look Of Love.wav

Peak level 97.4 %
Track quality 100.0 %
Test CRC 083BE459
Copy CRC 083BE459
Accurately ripped (confidence 25) [6C645A5C]
Copy OK

Track 5

Filename C:\Hi there RIAA, What's up IFPI\Diana Krall - Live In Paris\05 - East Of The Sun (And West Of The Moon).wav

Peak level 97.4 %
Track quality 100.0 %
Test CRC 62D37A0A
Copy CRC 62D37A0A
Accurately ripped (confidence 25) [D8610D9D]
Copy OK

Track 6

Filename C:\Hi there RIAA, What's up IFPI\Diana Krall - Live In Paris\06 - I've Got You Under My Skin.wav

Peak level 97.4 %
Track quality 100.0 %
Test CRC ACCD306E
Copy CRC ACCD306E
Accurately ripped (confidence 25) [746ABE53]
Copy OK

Track 7

Filename C:\Hi there RIAA, What's up IFPI\Diana Krall - Live In Paris\07 - Devil May Care.wav

Peak level 97.4 %
Track quality 100.0 %
Test CRC CD2EFE7B
Copy CRC CD2EFE7B
Accurately ripped (confidence 25) [40DC2A25]
Copy OK

Track 8

Filename C:\Hi there RIAA, What's up IFPI\Diana Krall - Live In Paris\08 - Maybe You'll Be There.wav

Peak level 87.6 %
Track quality 100.0 %
Test CRC FBE9608E
Copy CRC FBE9608E
Accurately ripped (confidence 25) [83C5FE5A]
Copy OK

Track 9

Filename C:\Hi there RIAA, What's up IFPI\Diana Krall - Live In Paris\09 - 'S Wonderful.wav

Peak level 97.4 %
Track quality 100.0 %
Test CRC 79AD91BD
Copy CRC 79AD91BD
Accurately ripped (confidence 25) [E2A1D651]
Copy OK

Track 10

Filename C:\Hi there RIAA, What's up IFPI\Diana Krall - Live In Paris\10 - Fly Me To The Moon.wav

Peak level 97.4 %
Track quality 100.0 %
Test CRC 118D6B0D
Copy CRC 118D6B0D
Accurately ripped (confidence 25) [988A4095]
Copy OK

Track 11

Filename C:\Hi there RIAA, What's up IFPI\Diana Krall - Live In Paris\11 - A Case Of You.wav

Peak level 97.4 %
Track quality 100.0 %
Test CRC 1070EDE3
Copy CRC 1070EDE3
Accurately ripped (confidence 24) [2CAF41DE]
Copy OK

Track 12

Filename C:\Hi there RIAA, What's up IFPI\Diana Krall - Live In Paris\12 - Just The Way You Are.wav

Pre-gap length 0:00:14.09

Peak level 97.4 %
Track quality 100.0 %
Test CRC D0DB7A19
Copy CRC D0DB7A19
Accurately ripped (confidence 25) [554B18FF]
Copy OK

Track 13

Filename C:\Hi there RIAA, What's up IFPI\Diana Krall - Live In Paris\13 - Charmed Life.wav

Pre-gap length 0:00:01.34

Peak level 100.0 %
Track quality 99.9 %
Test CRC 8B1050B1
Copy CRC 8B1050B1
Accurately ripped (confidence 25) [756F0D01]
Copy OK


All tracks accurately ripped

No errors occurred

End of status report
[свернуть]

Файл CUE

REM DATE 2002
REM DISCID B811250D
REM COMMENT "ExactAudioCopy v0.99pb4"
PERFORMER "Diana Krall"
TITLE "Live In Paris"
FILE "01 - I Love Being Here With You.flac" WAVE
TRACK 01 AUDIO
TITLE "I Love Being Here With You"
PERFORMER "Diana Krall"
INDEX 01 00:00:00
FILE "02 - Let's Fall In Love.flac" WAVE
TRACK 02 AUDIO
TITLE "Let's Fall In Love"
PERFORMER "Diana Krall"
INDEX 01 00:00:00
FILE "03 - 'Deed I Do.flac" WAVE
TRACK 03 AUDIO
TITLE "'Deed I Do"
PERFORMER "Diana Krall"
INDEX 01 00:00:00
FILE "04 - The Look Of Love.flac" WAVE
TRACK 04 AUDIO
TITLE "The Look Of Love"
PERFORMER "Diana Krall"
INDEX 01 00:00:00
FILE "05 - East Of The Sun (And West Of The Moon).flac" WAVE
TRACK 05 AUDIO
TITLE "East Of The Sun (And West Of The Moon)"
PERFORMER "Diana Krall"
INDEX 01 00:00:00
FILE "06 - I've Got You Under My Skin.flac" WAVE
TRACK 06 AUDIO
TITLE "I've Got You Under My Skin"
PERFORMER "Diana Krall"
INDEX 01 00:00:00
FILE "07 - Devil May Care.flac" WAVE
TRACK 07 AUDIO
TITLE "Devil May Care"
PERFORMER "Diana Krall"
INDEX 01 00:00:00
FILE "08 - Maybe You'll Be There.flac" WAVE
TRACK 08 AUDIO
TITLE "Maybe You'll Be There"
PERFORMER "Diana Krall"
INDEX 01 00:00:00
FILE "09 - 'S Wonderful.flac" WAVE
TRACK 09 AUDIO
TITLE "'S Wonderful"
PERFORMER "Diana Krall"
INDEX 01 00:00:00
FILE "10 - Fly Me To The Moon.flac" WAVE
TRACK 10 AUDIO
TITLE "Fly Me To The Moon"
PERFORMER "Diana Krall"
INDEX 01 00:00:00
FILE "11 - A Case Of You.flac" WAVE
TRACK 11 AUDIO
TITLE "A Case Of You"
PERFORMER "Diana Krall"
INDEX 01 00:00:00
TRACK 12 AUDIO
TITLE "Just The Way You Are"
PERFORMER "Diana Krall"
INDEX 00 06:50:38
FILE "12 - Just The Way You Are.flac" WAVE
INDEX 01 00:00:00
TRACK 13 AUDIO
TITLE "Charmed Life"
PERFORMER "Diana Krall"
INDEX 00 05:00:23
FILE "13 - Charmed Life.flac" WAVE
INDEX 01 00:00:00
[свернуть]

Лог проверки качества

AUDIOCHECKER v2.0 beta (build 457) - by Dester -
~~~~~~~~~~~~~~~~~~~~~~~~~~~~~~~~~~
-=== НЕ РЕДАКТИРУЙТЕ ЭТОТ ФАЙЛ! ===-

Путь: ...\Diana Krall - 2002 - Live In Paris (Canadian exclusive release)

01 -=- 01 - I Love Being Here With You.flac -=- CDDA (100%)
02 -=- 02 - Let's Fall In Love.flac -=- CDDA (100%)
03 -=- 03 - 'Deed I Do.flac -=- CDDA (100%)
04 -=- 04 - The Look Of Love.flac -=- CDDA (100%)
05 -=- 05 - East Of The Sun (And West Of The Moon).flac -=- CDDA (100%)
06 -=- 06 - I've Got You Under My Skin.flac -=- CDDA (100%)
07 -=- 07 - Devil May Care.flac -=- CDDA (100%)
08 -=- 08 - Maybe You'll Be There.flac -=- CDDA (99%)
09 -=- 09 - 'S Wonderful.flac -=- CDDA (100%)
10 -=- 10 - Fly Me To The Moon.flac -=- CDDA (100%)
11 -=- 11 - A Case Of You.flac -=- CDDA (100%)
12 -=- 12 - Just The Way You Are.flac -=- CDDA (100%)
13 -=- 13 - Charmed Life.flac -=- CDDA (100%)

Сводка 99,92% CDDA

54250100
[свернуть]

Скачать Diana Krall - Live in Paris



password: sergych
[свернуть]
My opinion of release: 10/10
__________________
TAIFUN.Wings of Soul

Вверх
2 пользователя(ей) сказали cпасибо:
burnett_s (30.08.2017), swint68 (29.08.2017)
  #2
Старый 28.08.2017, 23:29
sergych
Координатор
Досье
 
Аватар для sergych
Релиз Re: Diana Krall - Live in Paris


2002 - Diana Krall - Live in Paris




Исполнитель/Artist: Diana Krall
Альбом/Album: Live in Paris
Год/Year: 2002
Жанр/Genre: Smooth Jazz, Contemporary Jazz, Vocal jazz
Страна/Country: Аргентина
Рекорд-лейбл/Record label: Verve / Universal Music
Номер в каталоге/Catalogue #: 065109-2
Формат/Format: Free Lossless Audio Codec (*.flac)
Качество/Quality: Lossless
Тип рипа/RIP Type: image+.cue
Продолжительность/Length: 01:10:19
Источник/Source: Собственный рип
Размер/Size: 465 MB

Сканы в комплекте

Треклист

01. I Love Being Here With You [0:05:12.63]
02. Let's Fall in Love [0:04:33.37]
03. 'Deed I Do [0:05:18.57]
04. The Look of Love [0:05:00.07]
05. East of the Sun (and West of the Moon) [0:05:58.65]
06. I've Got You Under My Skin [0:07:24.05]
07. Devil May Care [0:06:52.16]
08. Maybe You'll Be There [0:05:47.35]
09. 'S Wonderful [0:06:00.05]
10. Fly Me to The Moon [0:06:05.43]
11. A Case of You [0:07:02.18]
12. Just the Way You are [0:05:02.73]
[свернуть]

youtube.com

[свернуть]

Исполнители/Performers

Diana Krall - piano, vocals, Fender Rhodes
Michael Brecker - tenor saxophone
Alan Broadbent - conductor
Christian McBride, John Clayton - bass
Luis Quintero, Paulinho Da Costa - percussion
Jeff Hamilton, Lewis Nash - drums
Rob Mounsey - keyboard
John Pisano - acoustic guitar
Anthony Wilson - guitar
[свернуть]

EAC лог

Exact Audio Copy V1.3 from 2. September 2016

EAC extraction logfile from 22. August 2017, 1:14

Diana Krall / Live in Paris

Used drive : PLEXTOR DVDR PX-716A Adapter: 1 ID: 0

Read mode : Secure
Utilize accurate stream : Yes
Defeat audio cache : Yes
Make use of C2 pointers : No

Read offset correction : 30
Overread into Lead-In and Lead-Out : No
Fill up missing offset samples with silence : Yes
Delete leading and trailing silent blocks : No
Null samples used in CRC calculations : Yes
Used interface : Installed external ASPI interface

Used output format : User Defined Encoder
Selected bitrate : 1024 kBit/s
Quality : High
Add ID3 tag : No
Command line compressor : C:\Program Files (x86)\Exact Audio Copy\Flac\flac.exe
Additional command line options : -6 -V -T "ARTIST=%artist%" -T "TITLE=%title%" -T "ALBUM=%albumtitle%" -T "DATE=%year%" -T "TRACKNUMBER=%tracknr%" -T "GENRE=%genre%" -T "COMMENT=%comment%" -T "BAND=%albuminterpret%" -T "ALBUMARTIST=%albuminterpret%" -T "COMPOSER=%composer%" %haslyrics%--tag-from-file=LYRICS="%lyricsfile%"%haslyrics% -T "DISCNUMBER=%cdnumber%" -T "TOTALDISCS=%totalcds%" -T "TOTALTRACKS=%numtracks%" %hascover%--picture="%coverfile%"%hascover% %source% -o %dest%


TOC of the extracted CD

Track | Start | Length | Start sector | End sector
---------------------------------------------------------
1 | 0:00.00 | 5:12.63 | 0 | 23462
2 | 5:12.63 | 4:33.37 | 23463 | 43974
3 | 9:46.25 | 5:18.57 | 43975 | 67881
4 | 15:05.07 | 5:00.07 | 67882 | 90388
5 | 20:05.14 | 5:58.65 | 90389 | 117303
6 | 26:04.04 | 7:24.05 | 117304 | 150608
7 | 33:28.09 | 6:52.16 | 150609 | 181524
8 | 40:20.25 | 5:47.35 | 181525 | 207584
9 | 46:07.60 | 6:00.05 | 207585 | 234589
10 | 52:07.65 | 6:05.43 | 234590 | 262007
11 | 58:13.33 | 7:02.18 | 262008 | 293675
12 | 65:15.51 | 5:02.73 | 293676 | 316398


Range status and errors

Selected range

Filename C:\mm\Diana Krall\2002 - Live In Paris [065109-2]\Diana Krall - Live in Paris.wav

Peak level 100.0 %
Extraction speed 13.7 X
Range quality 100.0 %
Test CRC 20DFFEEC
Copy CRC 20DFFEEC
Copy OK

No errors occurred

End of status report

---- CUETools DB Plugin V2.1.6

[CTDB TOCID: j5lHnEpz8ZTUpFvSk3qekaV0AQU-] found
Submit result: j5lHnEpz8ZTUpFvSk3qekaV0AQU- has been confirmed
Track | CTDB Status
1 | (27/27) Accurately ripped
2 | (27/27) Accurately ripped
3 | (26/27) Accurately ripped
4 | (27/27) Accurately ripped
5 | (27/27) Accurately ripped
6 | (27/27) Accurately ripped
7 | (27/27) Accurately ripped
8 | (26/27) Accurately ripped
9 | (27/27) Accurately ripped
10 | (27/27) Accurately ripped
11 | (27/27) Accurately ripped
12 | (25/27) Accurately ripped
[свернуть]

Файл CUE

REM GENRE Jazz
REM DATE 2002
REM DISCID A8107A0C
REM COMMENT "ExactAudioCopy v1.3"
PERFORMER "Diana Krall"
TITLE "Live in Paris"
REM COMPOSER ""
FILE "Diana Krall - Live in Paris.flac" WAVE
TRACK 01 AUDIO
TITLE "I Love Being Here With You"
PERFORMER "Diana Krall"
REM COMPOSER ""
INDEX 01 00:00:00
TRACK 02 AUDIO
TITLE "Let's Fall in Love"
PERFORMER "Diana Krall"
REM COMPOSER ""
INDEX 01 05:12:63
TRACK 03 AUDIO
TITLE "'Deed I Do"
PERFORMER "Diana Krall"
REM COMPOSER ""
INDEX 01 09:46:25
TRACK 04 AUDIO
TITLE "The Look of Love"
PERFORMER "Diana Krall"
REM COMPOSER ""
INDEX 01 15:05:07
TRACK 05 AUDIO
TITLE "East of the Sun (and West of the Moon)"
PERFORMER "Diana Krall"
REM COMPOSER ""
INDEX 01 20:05:14
TRACK 06 AUDIO
TITLE "I've Got You Under My Skin"
PERFORMER "Diana Krall"
REM COMPOSER ""
INDEX 01 26:04:04
TRACK 07 AUDIO
TITLE "Devil May Care"
PERFORMER "Diana Krall"
REM COMPOSER ""
INDEX 01 33:28:09
TRACK 08 AUDIO
TITLE "Maybe You'll Be There"
PERFORMER "Diana Krall"
REM COMPOSER ""
INDEX 01 40:20:25
TRACK 09 AUDIO
TITLE "'S Wonderful"
PERFORMER "Diana Krall"
REM COMPOSER ""
INDEX 01 46:07:60
TRACK 10 AUDIO
TITLE "Fly Me to The Moon"
PERFORMER "Diana Krall"
REM COMPOSER ""
INDEX 01 52:07:65
TRACK 11 AUDIO
TITLE "A Case of You"
PERFORMER "Diana Krall"
REM COMPOSER ""
INDEX 01 58:13:33
TRACK 12 AUDIO
TITLE "Just the Way You are"
PERFORMER "Diana Krall"
REM COMPOSER ""
INDEX 01 65:15:51
[свернуть]

Лог проверки качества

AUDIOCHECKER v2.0 beta (build 457) - by Dester -
~~~~~~~~~~~~~~~~~~~~~~~~~~~~~~~~~~
-=== НЕ РЕДАКТИРУЙТЕ ЭТОТ ФАЙЛ! ===-

Путь: ...\2002 - Live In Paris [065109-2]

1 -=- Diana Krall - Live in Paris.flac -=- CDDA (100%)

235894596
[свернуть]

Спектр частот

[свернуть]

Скачать Diana Krall - Live in Paris



password: sergych
[свернуть]

Контрольная сумма (хеш-сумма) архива

MD5: 25830007df21b776ffb089c76833bc52
[свернуть]
My opinion of release: 10/10
__________________
TAIFUN.Wings of Soul

Вверх
3 пользователя(ей) сказали cпасибо:
Показать список поблагодаривших
Похожие темы
Тема Автор Раздел Ответов Последнее сообщение
Альбом Diana Krall - When I Look In Your Eyes sergych Jazz и Blues 1 13.01.2016 17:56
Альбом Diana Krall - The Look Of Love sergych Jazz и Blues 1 15.03.2014 13:16
Альбом Diana Krall - Love Scenes sergych Jazz и Blues 0 24.09.2013 13:27
Альбом Diana Krall - Only Trust Your Heart sergych Jazz и Blues 0 23.09.2013 20:08
Альбом Diana Krall - Stepping Out sergych Jazz и Blues 0 23.09.2013 18:47


Метки
2002 , contemporary jazz , diana krall , live in paris , smooth jazz , vocal jazz

Опции темы

Ваши права в разделе
Вы не можете создавать новые темы
Вы не можете отвечать в темах
Вы не можете прикреплять вложения
Вы не можете редактировать свои сообщения

Быстрый переход



Текущее время: 11:49. Часовой пояс GMT +3.
Powered by vBulletin® Version 3.8.10
Copyright ©2000 - 2018, vBulletin Solutions, Inc. Перевод: zCarot
© 2008 - 2018 Taifun With Song
Яндекс.Метрика