TAIFUN With Song
Навигация
Вернуться   TAIFUN With Song > Music (обменник) > Другие направления музыки > Jazz и Blues
Расширенный поиск
Jazz и Blues Гибкая ритмика, импровизационное начало, гармонии и мелодии - все это Jazz. Blues - жизнеутверждающая музыка, рожденная из душевной боли

А знаете ли Вы, что...
Какая песня, часто приписываемая Элвису Пресли, никогда им не записывалась?
«Песню «Only You» часто приписывают Элвису Пресли, хотя на самом деле наиболее известными её исполнителями является группа «The Platters». Элвис пел «Only You» на некоторых концертах, но не существует ни одной аудио- или видеозаписи этой композиции в его исполнении.»
 
Опции темы

  #1
Старый 23.09.2013, 21:38
sergych
Координатор
Досье
 
Аватар для sergych
Релиз Diana Krall - All for You: A Dedication to the Nat King Cole Trio


1996 - Diana Krall - All for You: A Dedication to the Nat King Cole Trio




Исполнитель/Artist: Diana Krall
Альбом/Album: All for You: A Dedication to the Nat King Cole Trio
Год/Year: 1996
Ремастеринг/Remaster: 2005
Жанр/Genre: Smooth Jazz, Contemporary Jazz, Vocal jazz
Страна/Country: Австрия
Рекорд-лейбл/Record label: Impulse! / Sony
Номер в каталоге/Catalogue #: 0602498840160
Формат/Format: Free Lossless Audio Codec (*.flac)
Качество/Quality: Lossless
Тип рипа/RIP Type: image+.cue
Продолжительность/Length: 00:59:17
Источник/Source: Собственный рип
Размер/Size: 285.5 MB

Сканы в комплекте

Треклист

01. I'm An Errand Girl For Rhythm [0:02:56.13]
02. Gee Baby, Ain't I Good To You [0:04:07.20]
03. You Call It Madness [0:04:37.10]
04. Frim Fram Sauce [0:05:00.52]
05. Boulevard Of Broken Dreams [0:06:27.15]
06. Baby Baby All The Time [0:03:36.10]
07. Hit That Jive Jack [0:04:16.55]
08. You're Looking At Me [0:05:33.10]
09. I'm Thru With Love [0:04:25.73]
10. Deed I Do [0:03:31.52]
11. A Blossom Fell [0:05:12.58]
12. If I Had You [0:04:56.67]
13. When I Grow Too Old To Dream [0:04:35.00]
[свернуть]

youtube.com

[свернуть]

Исполнители/Performers

Diana Krall – lead vocals, piano
Benny Green – piano (on "If I Had You")
Paul Keller – bass
Steve Kroon - percussion (on "Boulevard of Broken Dreams")
Russell Malone – guitar
[свернуть]

EAC лог

Exact Audio Copy V1.3 from 2. September 2016

EAC extraction logfile from 11. April 2018, 12:19

Diana Krall / All For You

Used drive : ATAPI iHAS124 D Adapter: 0 ID: 2

Read mode : Secure
Utilize accurate stream : Yes
Defeat audio cache : Yes
Make use of C2 pointers : No

Read offset correction : 6
Overread into Lead-In and Lead-Out : No
Fill up missing offset samples with silence : Yes
Delete leading and trailing silent blocks : No
Null samples used in CRC calculations : Yes
Used interface : Installed external ASPI interface

Used output format : User Defined Encoder
Selected bitrate : 1024 kBit/s
Quality : High
Add ID3 tag : No
Command line compressor : C:\Program Files (x86)\Exact Audio Copy\Flac\flac.exe
Additional command line options : -6 -V -T "ARTIST=%artist%" -T "TITLE=%title%" -T "ALBUM=%albumtitle%" -T "DATE=%year%" -T "TRACKNUMBER=%tracknr%" -T "GENRE=%genre%" -T "COMMENT=%comment%" -T "BAND=%albuminterpret%" -T "ALBUMARTIST=%albuminterpret%" -T "COMPOSER=%composer%" %haslyrics%--tag-from-file=LYRICS="%lyricsfile%"%haslyrics% -T "DISCNUMBER=%cdnumber%" -T "TOTALDISCS=%totalcds%" -T "TOTALTRACKS=%numtracks%" %hascover%--picture="%coverfile%"%hascover% %source% -o %dest%


TOC of the extracted CD

Track | Start | Length | Start sector | End sector
---------------------------------------------------------
1 | 0:00.32 | 2:56.13 | 32 | 13244
2 | 2:56.45 | 4:07.20 | 13245 | 31789
3 | 7:03.65 | 4:37.10 | 31790 | 52574
4 | 11:41.00 | 5:00.52 | 52575 | 75126
5 | 16:41.52 | 6:27.15 | 75127 | 104166
6 | 23:08.67 | 3:36.10 | 104167 | 120376
7 | 26:45.02 | 4:16.55 | 120377 | 139631
8 | 31:01.57 | 5:33.10 | 139632 | 164616
9 | 36:34.67 | 4:25.73 | 164617 | 184564
10 | 41:00.65 | 3:31.52 | 184565 | 200441
11 | 44:32.42 | 5:12.58 | 200442 | 223899
12 | 49:45.25 | 4:56.67 | 223900 | 246166
13 | 54:42.17 | 4:35.00 | 246167 | 266791


Range status and errors

Selected range

Filename C:\mm\Diana Krall\1996(2005) - All For You (A Dedication To The Nat King Cole Trio)[0602498840160]\Diana Krall - All For You.wav

Peak level 100.0 %
Extraction speed 1.8 X
Range quality 100.0 %
Test CRC 62D37429
Copy CRC 62D37429
Copy OK

No errors occurred

End of status report

---- CUETools DB Plugin V2.1.6

[CTDB TOCID: Id5jKwbleSnOncxf7bfLCNIvZMw-] found
Submit result: Id5jKwbleSnOncxf7bfLCNIvZMw- has been confirmed
Track | CTDB Status
1 | (984/1006) Accurately ripped
2 | (998/1006) Accurately ripped
3 | (998/1006) Accurately ripped
4 | (999/1006) Accurately ripped
5 | (995/1006) Accurately ripped
6 | (997/1006) Accurately ripped
7 | (995/1006) Accurately ripped
8 | (986/1006) Accurately ripped
9 | (995/1006) Accurately ripped
10 | (991/1006) Accurately ripped
11 | (991/1006) Accurately ripped
12 | (991/1006) Accurately ripped
13 | (972/1006) Accurately ripped
[свернуть]

Файл CUE

REM GENRE Jazz
REM DATE 1996
REM DISCID B60DE50D
REM COMMENT "ExactAudioCopy v1.3"
PERFORMER "Diana Krall"
TITLE "All For You"
REM COMPOSER ""
FILE "Diana Krall - All For You.flac" WAVE
TRACK 01 AUDIO
TITLE "I'm An Errand Girl For Rhythm"
PERFORMER "Diana Krall"
REM COMPOSER ""
INDEX 00 00:00:00
INDEX 01 00:00:32
TRACK 02 AUDIO
TITLE "Gee Baby, Ain't I Good To You"
PERFORMER "Diana Krall"
REM COMPOSER ""
INDEX 01 02:56:45
TRACK 03 AUDIO
TITLE "You Call It Madness"
PERFORMER "Diana Krall"
REM COMPOSER ""
INDEX 01 07:03:65
TRACK 04 AUDIO
TITLE "Frim Fram Sauce"
PERFORMER "Diana Krall"
REM COMPOSER ""
INDEX 01 11:41:00
TRACK 05 AUDIO
TITLE "Boulevard Of Broken Dreams"
PERFORMER "Diana Krall"
REM COMPOSER ""
INDEX 01 16:41:52
TRACK 06 AUDIO
TITLE "Baby Baby All The Time"
PERFORMER "Diana Krall"
REM COMPOSER ""
INDEX 01 23:08:67
TRACK 07 AUDIO
TITLE "Hit That Jive Jack"
PERFORMER "Diana Krall"
REM COMPOSER ""
INDEX 01 26:45:02
TRACK 08 AUDIO
TITLE "You're Looking At Me"
PERFORMER "Diana Krall"
REM COMPOSER ""
INDEX 01 31:01:57
TRACK 09 AUDIO
TITLE "I'm Thru With Love"
PERFORMER "Diana Krall"
REM COMPOSER ""
INDEX 01 36:34:67
TRACK 10 AUDIO
TITLE "Deed I Do"
PERFORMER "Diana Krall"
REM COMPOSER ""
INDEX 01 41:00:65
TRACK 11 AUDIO
TITLE "A Blossom Fell"
PERFORMER "Diana Krall"
REM COMPOSER ""
INDEX 01 44:32:42
TRACK 12 AUDIO
TITLE "If I Had You"
PERFORMER "Diana Krall"
REM COMPOSER ""
INDEX 01 49:45:25
TRACK 13 AUDIO
TITLE "When I Grow Too Old To Dream"
PERFORMER "Diana Krall"
REM COMPOSER ""
INDEX 00 54:40:42
INDEX 01 54:42:17
[свернуть]

Лог проверки качества

AUDIOCHECKER v2.0 beta (build 457) - by Dester -
~~~~~~~~~~~~~~~~~~~~~~~~~~~~~~~~~~
-=== НЕ РЕДАКТИРУЙТЕ ЭТОТ ФАЙЛ! ===-

Путь: ...\1996(2005) - All For You (A Dedication To The Nat King Cole Trio)[0602498840160]

1 -=- Diana Krall - All For You.flac -=- CDDA (99%)

185491316
[свернуть]

Спектр частот

[свернуть]

Скачать Diana Krall - All for You: A Dedication to the Nat King Cole Trio



password: sergych
[свернуть]

Контрольная сумма (хеш-сумма) архива

MD5: 17e867f279634cee9dc5710edb1f3bce
[свернуть]
My opinion of release: 10/10
__________________
TAIFUN.Wings of Soul


Последний раз редактировалось sergych, 11.04.2018 в 23:32. Причина: замена инетовского рипа собственным
Вверх
3 пользователя(ей) сказали cпасибо:
Показать список поблагодаривших
  #2
Старый 11.04.2018, 23:33
sergych
Координатор
Досье
 
Аватар для sergych
По умолчанию Re: Diana Krall - All for You: A Dedication to the Nat King Cole Trio

заменил инетовский рип собственным
__________________
TAIFUN.Wings of Soul

Вверх
3 пользователя(ей) сказали cпасибо:
Показать список поблагодаривших
Похожие темы
Тема Автор Раздел Ответов Последнее сообщение
Альбом Diana Krall - Only Trust Your Heart sergych Jazz и Blues 0 23.09.2013 21:08
Альбом Diana Krall - Stepping Out sergych Jazz и Blues 0 23.09.2013 19:47
Альбом George Benson - Inspiration A Tribute To Nat King Cole aheron Jazz и Blues 0 06.06.2013 18:39
Релиз Diana Krall - Glad Rag Doll (Deluxe Edition) PUPOKIN Jazz и Blues 0 28.09.2012 10:34
Альбом Oscar Peterson Trio - The Complete Cole Porter Songbooks fly123 Jazz и Blues 2 03.12.2011 13:26


Метки
1996 , 2005 , all for you: a dedication to the nat king cole trio , contemporary jazz , diana krall , smooth jazz , vocal jazz

Опции темы

Ваши права в разделе
Вы не можете создавать новые темы
Вы не можете отвечать в темах
Вы не можете прикреплять вложения
Вы не можете редактировать свои сообщения

Быстрый переход



Текущее время: 12:52. Часовой пояс GMT +3.
Powered by vBulletin® Version 3.8.10
Copyright ©2000 - 2018, vBulletin Solutions, Inc. Перевод: zCarot
© 2008 - 2018 Taifun With Song
Яндекс.Метрика