TAIFUN With Song
Навигация
Jazz и Blues Гибкая ритмика, импровизационное начало, гармонии и мелодии - все это Jazz. Blues - жизнеутверждающая музыка, рожденная из душевной боли

А знаете ли Вы, что...
Какой русский поп-певец имеет самую большую армию поклонников?
«Витас — самый популярный современный русский исполнитель в Китае, что ставит его на первое место среди всех русских исполнителей по общему числу поклонников в мире.»
 
Опции темы

  #1
Старый 04.11.2016, 17:32
sergych
Координатор
Досье
 
Аватар для sergych
Релиз Cassandra Wilson - Blue Skies


1988 - Cassandra Wilson - Blue Skies




Исполнитель/Artist: Cassandra Wilson
Альбом/Album: Blue Skies
Год/Year: 1988
Жанр/Genre: Jazz
Страна/Country: Германия
Рекорд-лейбл/Record label: JMT
Номер в каталоге/Catalogue #: 834 419-2
Формат/Format: Free Lossless Audio Codec (*.flac)
Качество/Quality: Lossless
Тип рипа/RIP Type: image+.cue
Продолжительность/Length: 00:51:07
Источник/Source: Собственный рип
Размер/Size: 251.3 MB

Сканы в комплекте

Треклист

01. Shall We Dance [0:07:20.00]
02. Polka Dots and Moonbeams [0:05:46.25]
03. I've Grown Accustomed To His Face [0:05:15.50]
04. I Didn't Know What Time It Was [0:04:51.25]
05. Gee Baby Ain't I Good To You [0:05:04.00]
06. I'm Old Fashioned [0:03:07.00]
07. Sweet Lorraine [0:05:31.37]
08. My One and Only Love [0:06:02.38]
09. Autumn Nocturne [0:05:01.00]
10. Blue Skies [0:03:07.30]
[свернуть]

youtube.com

[свернуть]

Исполнители/Performers

Cassandra Wilson – vocals
Mulgrew Miller – piano
Lonnie Plaxico – bass
Terri Lyne Carrington – drums
[свернуть]

EAC лог

Exact Audio Copy V1.2 from 12. August 2016

EAC extraction logfile from 30. October 2016, 21:41

Cassandra Wilson / Blue Skies

Used drive : ATAPI iHAS124 D Adapter: 1 ID: 0

Read mode : Secure
Utilize accurate stream : Yes
Defeat audio cache : Yes
Make use of C2 pointers : No

Read offset correction : 6
Overread into Lead-In and Lead-Out : No
Fill up missing offset samples with silence : Yes
Delete leading and trailing silent blocks : No
Null samples used in CRC calculations : Yes
Used interface : Native Win32 interface for Win NT & 2000

Used output format : User Defined Encoder
Selected bitrate : 1024 kBit/s
Quality : High
Add ID3 tag : No
Command line compressor : C:\Program Files (x86)\Exact Audio Copy\FLAC\FLAC.EXE
Additional command line options : -6 -V -T "ARTIST=%artist%" -T "TITLE=%title%" -T "ALBUM=%albumtitle%" -T "DATE=%year%" -T "TRACKNUMBER=%tracknr%" -T "GENRE=%genre%" -T "COMMENT=%comment%" -T "BAND=%albuminterpret%" -T "ALBUMARTIST=%albuminterpret%" -T "COMPOSER=%composer%" %haslyrics%--tag-from-file=LYRICS="%lyricsfile%"%haslyrics% -T "DISCNUMBER=%cdnumber%" -T "TOTALDISCS=%totalcds%" -T "TOTALTRACKS=%numtracks%" %hascover%--picture="%coverfile%"%hascover% %source% -o %dest%


TOC of the extracted CD

Track | Start | Length | Start sector | End sector
---------------------------------------------------------
1 | 0:00.33 | 7:20.00 | 33 | 33032
2 | 7:20.33 | 5:46.25 | 33033 | 59007
3 | 13:06.58 | 5:15.50 | 59008 | 82682
4 | 18:22.33 | 4:51.25 | 82683 | 104532
5 | 23:13.58 | 5:04.00 | 104533 | 127332
6 | 28:17.58 | 3:07.00 | 127333 | 141357
7 | 31:24.58 | 5:31.37 | 141358 | 166219
8 | 36:56.20 | 6:02.38 | 166220 | 193407
9 | 42:58.58 | 5:01.00 | 193408 | 215982
10 | 47:59.58 | 3:07.30 | 215983 | 230037


Range status and errors

Selected range

Filename C:\mm\Cassandra Wilson\1988 - Blue Skies [834 419-2]\Cassandra Wilson - Blue Skies.wav

Peak level 100.0 %
Extraction speed 8.4 X
Range quality 100.0 %
Test CRC 2653E451
Copy CRC 2653E451
Copy OK

No errors occurred


AccurateRip summary

Track 1 accurately ripped (confidence 29) [6D50A141] (AR v2)
Track 2 accurately ripped (confidence 29) [89516D42] (AR v2)
Track 3 accurately ripped (confidence 29) [49E6FFCE] (AR v2)
Track 4 accurately ripped (confidence 29) [CA3CB2F4] (AR v2)
Track 5 accurately ripped (confidence 29) [FC3D0C7D] (AR v2)
Track 6 accurately ripped (confidence 29) [E475F21B] (AR v2)
Track 7 accurately ripped (confidence 29) [1775D442] (AR v2)
Track 8 accurately ripped (confidence 29) [E92FE81A] (AR v2)
Track 9 accurately ripped (confidence 29) [39BBE613] (AR v2)
Track 10 accurately ripped (confidence 29) [3B60E339] (AR v2)

All tracks accurately ripped

End of status report

---- CUETools DB Plugin V2.1.6

[CTDB TOCID: gydLUfuuwUgXEH2q7M_cZW1TNL4-] found
Submit result: gydLUfuuwUgXEH2q7M_cZW1TNL4- has been confirmed
Track | CTDB Status
1 | (26/27) Accurately ripped
2 | (26/27) Accurately ripped
3 | (26/27) Accurately ripped
4 | (27/27) Accurately ripped
5 | (26/27) Accurately ripped
6 | (25/27) Accurately ripped
7 | (24/27) Accurately ripped
8 | (25/27) Accurately ripped
9 | (24/27) Accurately ripped
10 | (25/27) Accurately ripped
[свернуть]

Файл CUE

REM GENRE Jazz
REM DATE 1988
REM DISCID 9A0BFB0A
REM COMMENT "ExactAudioCopy v1.2"
PERFORMER "Cassandra Wilson"
TITLE "Blue Skies"
REM COMPOSER ""
FILE "Cassandra Wilson - Blue Skies.flac" WAVE
TRACK 01 AUDIO
TITLE "Shall We Dance"
PERFORMER "Cassandra Wilson"
REM COMPOSER ""
INDEX 00 00:00:00
INDEX 01 00:00:33
TRACK 02 AUDIO
TITLE "Polka Dots and Moonbeams"
PERFORMER "Cassandra Wilson"
REM COMPOSER ""
INDEX 00 07:17:70
INDEX 01 07:20:33
TRACK 03 AUDIO
TITLE "I've Grown Accustomed To His Face"
PERFORMER "Cassandra Wilson"
REM COMPOSER ""
INDEX 00 13:04:25
INDEX 01 13:06:58
TRACK 04 AUDIO
TITLE "I Didn't Know What Time It Was"
PERFORMER "Cassandra Wilson"
REM COMPOSER ""
INDEX 00 18:20:33
INDEX 01 18:22:33
TRACK 05 AUDIO
TITLE "Gee Baby Ain't I Good To You"
PERFORMER "Cassandra Wilson"
REM COMPOSER ""
INDEX 00 23:11:38
INDEX 01 23:13:58
TRACK 06 AUDIO
TITLE "I'm Old Fashioned"
PERFORMER "Cassandra Wilson"
REM COMPOSER ""
INDEX 00 28:14:58
INDEX 01 28:17:58
TRACK 07 AUDIO
TITLE "Sweet Lorraine"
PERFORMER "Cassandra Wilson"
REM COMPOSER ""
INDEX 00 31:21:13
INDEX 01 31:24:58
TRACK 08 AUDIO
TITLE "My One and Only Love"
PERFORMER "Cassandra Wilson"
REM COMPOSER ""
INDEX 00 36:53:08
INDEX 01 36:56:20
TRACK 09 AUDIO
TITLE "Autumn Nocturne"
PERFORMER "Cassandra Wilson"
REM COMPOSER ""
INDEX 00 42:56:25
INDEX 01 42:58:58
TRACK 10 AUDIO
TITLE "Blue Skies"
PERFORMER "Cassandra Wilson"
REM COMPOSER ""
INDEX 00 47:58:20
INDEX 01 47:59:58
[свернуть]

Лог проверки качества

AUDIOCHECKER v2.0 beta (build 457) - by Dester - [Ссылки могут видеть только зарегистрированные и активированные пользователи.]
[Only registered and activated users can see links.]
~~~~~~~~~~~~~~~~~~~~~~~~~~~~~~~~~~
-=== НЕ РЕДАКТИРУЙТЕ ЭТОТ ФАЙЛ! ===-

Путь: ...\1988 - Blue Skies [834 419-2]

1 -=- Cassandra Wilson - Blue Skies.flac -=- CDDA (100%)

133394372
[свернуть]

Спектр частот

[свернуть]

Скачать Cassandra Wilson - Blue Skies

[Ссылки могут видеть только зарегистрированные и активированные пользователи.]
[Only registered and activated users can see links.]

password: sergych
[свернуть]

Контрольная сумма (хеш-сумма) архива

MD5: 8b9967e57778af61d01a5841f769bc2c
[свернуть]
My opinion of release: 9/10
__________________
TAIFUN.Wings of Soul


Последний раз редактировалось sergych, 25.11.2018 в 07:52. Причина: заменил ссылку на скачивание из-за личеров
Вверх
Пользователь сказал cпасибо:
swint68 (04.11.2016)
Похожие темы
Тема Автор Раздел Ответов Последнее сообщение
Альбом Cassandra Wilson - Blue Light 'Til Dawn sergych Jazz и Blues 0 15.05.2016 10:50
Альбом Cassandra Wilson - Thunderbird sergych Jazz и Blues 0 11.11.2015 19:29
Альбом Cassandra Wilson - Belly of The Sun sergych Jazz и Blues 0 11.11.2015 18:55


Метки
1988 , blue skies , cassandra wilson , jazz

Опции темы

Ваши права в разделе
Вы не можете создавать новые темы
Вы не можете отвечать в темах
Вы не можете прикреплять вложения
Вы не можете редактировать свои сообщения

Быстрый переход



Текущее время: 01:31. Часовой пояс GMT +3.
Powered by vBulletin® Version 3.8.10
Copyright ©2000 - 2018, vBulletin Solutions, Inc. Перевод: zCarot
© 2008 - 2018 Taifun With Song
Яндекс.Метрика