TAIFUN With Song
Навигация
Jazz и Blues Гибкая ритмика, импровизационное начало, гармонии и мелодии - все это Jazz. Blues - жизнеутверждающая музыка, рожденная из душевной боли

А знаете ли Вы, что...
Каким образом исполняет музыку глухонемой финский рэпер Signmark?
«Финский рэп-исполнитель Марко Вуорихеймо, выступающий под ником Signmark, с рождения глухонемой. Его альбомы выходят одновременно на CD, где записаны звуковые дорожки с вокальными версиями (в исполнении приглашённых рэперов), и DVD, где артист «читает» каждый трек на языке жестов. Signmark даёт много концертов по всему миру, ориентируясь в ритме по вибрации бита и басовой линии. Он стал первым глухим музыкантом, подписавшим контракт с одним из ведущих лейблов — Warner Music.»
 
Опции темы

  #1
Старый 11.11.2015, 19:29
sergych
Координатор
Досье
 
Аватар для sergych
Релиз Cassandra Wilson - Thunderbird


2006 - Cassandra Wilson - Thunderbird




Исполнитель/Artist: Cassandra Wilson
Альбом/Album: Thunderbird
Год/Year: 2006
Жанр/Genre: Jazz
Страна/Country: Соединённые Штаты
Рекорд-лейбл/Record label: Blue Note
Номер в каталоге/Catalogue #: 7243 8 63398 2 9
Формат/Format: Free Lossless Audio Codec (*.flac)
Качество/Quality: Lossless
Тип рипа/RIP Type: image+.cue
Продолжительность/Length: 00:49:56
Источник/Source: Собственный рип
Размер/Size: 347.3 MB

Сканы в комплекте

Треклист

01. Go to Mexico [0:04:14.60]
02. Closer to You [0:05:49.15]
03. Easy Rider [0:07:03.52]
04. It Would Be So Easy [0:05:10.18]
05. Red River Valley [0:05:52.35]
06. Poet [0:05:27.02]
07. I Want to Be Loved [0:04:03.30]
08. Lost [0:03:34.45]
09. Strike a Match [0:04:47.50]
10. Tarot [0:03:51.73]
[свернуть]

youtube.com

[свернуть]

EAC лог

Exact Audio Copy V1.0 beta 3 from 29. August 2011

EAC extraction logfile from 22. September 2015, 8:48

Cassandra Wilson / Thunderbird

Used drive : ATAPI iHAS124 D Adapter: 0 ID: 2

Read mode : Secure
Utilize accurate stream : Yes
Defeat audio cache : Yes
Make use of C2 pointers : No

Read offset correction : 6
Overread into Lead-In and Lead-Out : No
Fill up missing offset samples with silence : Yes
Delete leading and trailing silent blocks : No
Null samples used in CRC calculations : Yes
Used interface : Installed external ASPI interface

Used output format : User Defined Encoder
Selected bitrate : 1024 kBit/s
Quality : High
Add ID3 tag : No
Command line compressor : C:\Program Files (x86)\Exact Audio Copy\Flac\flac.exe
Additional command line options : -6 -V -T "ARTIST=%artist%" -T "TITLE=%title%" -T "ALBUM=%albumtitle%" -T "DATE=%year%" -T "TRACKNUMBER=%tracknr%" -T "GENRE=%genre%" -T "COMMENT=%comment%" -T "BAND=%albuminterpret%" -T "COMPOSER=%composer%" %haslyrics%--tag-from-file=LYRICS="%lyricsfile%"%haslyrics% -T "DISCNUMBER=%cdnumber%" -T "TOTALDISCS=%totalcds%" -T "TOTALTRACKS=%numtracks%" %hascover%--picture="%coverfile%"%hascover% %source% -o %dest%


TOC of the extracted CD

Track | Start | Length | Start sector | End sector
---------------------------------------------------------
1 | 0:00.00 | 4:14.60 | 0 | 19109
2 | 4:14.60 | 5:49.15 | 19110 | 45299
3 | 10:04.00 | 7:03.52 | 45300 | 77076
4 | 17:07.52 | 5:10.18 | 77077 | 100344
5 | 22:17.70 | 5:52.35 | 100345 | 126779
6 | 28:10.30 | 5:27.02 | 126780 | 151306
7 | 33:37.32 | 4:03.30 | 151307 | 169561
8 | 37:40.62 | 3:34.45 | 169562 | 185656
9 | 41:15.32 | 4:47.50 | 185657 | 207231
10 | 46:03.07 | 3:51.73 | 207232 | 224629


Range status and errors

Selected range

Filename C:\mm\Cassandra Wilson\2006 - Thunderbird [7243 8 63398 2 9]\Cassandra Wilson - Thunderbird.wav

Peak level 100.0 %
Extraction speed 8.6 X
Range quality 100.0 %
Test CRC 128B2210
Copy CRC 128B2210
Copy OK

No errors occurred


AccurateRip summary

Track 1 accurately ripped (confidence 53) [ECFC9AD9] (AR v2)
Track 2 accurately ripped (confidence 53) [DC590C1F] (AR v2)
Track 3 accurately ripped (confidence 53) [DD7184F1] (AR v2)
Track 4 accurately ripped (confidence 54) [26F80E98] (AR v2)
Track 5 accurately ripped (confidence 53) [E13EA05A] (AR v2)
Track 6 accurately ripped (confidence 52) [FA84E3DE] (AR v2)
Track 7 accurately ripped (confidence 54) [E4E136EA] (AR v2)
Track 8 accurately ripped (confidence 55) [1C6D9246] (AR v2)
Track 9 accurately ripped (confidence 53) [D83F4C7B] (AR v2)
Track 10 accurately ripped (confidence 55) [AE6F9BF7] (AR v2)

All tracks accurately ripped

End of status report
[свернуть]

Файл CUE

REM GENRE "Vocal Jazz"
REM DATE 2006
REM DISCID 890BB30A
REM COMMENT "ExactAudioCopy v1.0b3"
PERFORMER "Cassandra Wilson"
TITLE "Thunderbird"
FILE "Cassandra Wilson - Thunderbird.flac" WAVE
TRACK 01 AUDIO
TITLE "Go to Mexico"
PERFORMER "Cassandra Wilson"
INDEX 01 00:00:00
TRACK 02 AUDIO
TITLE "Closer to You"
PERFORMER "Cassandra Wilson"
INDEX 01 04:14:60
TRACK 03 AUDIO
TITLE "Easy Rider"
PERFORMER "Cassandra Wilson"
INDEX 01 10:04:00
TRACK 04 AUDIO
TITLE "It Would Be So Easy"
PERFORMER "Cassandra Wilson"
INDEX 01 17:07:52
TRACK 05 AUDIO
TITLE "Red River Valley"
PERFORMER "Cassandra Wilson"
INDEX 01 22:17:70
TRACK 06 AUDIO
TITLE "Poet"
PERFORMER "Cassandra Wilson"
INDEX 01 28:10:30
TRACK 07 AUDIO
TITLE "I Want to Be Loved"
PERFORMER "Cassandra Wilson"
INDEX 01 33:37:32
TRACK 08 AUDIO
TITLE "Lost"
PERFORMER "Cassandra Wilson"
INDEX 01 37:40:62
TRACK 09 AUDIO
TITLE "Strike a Match"
PERFORMER "Cassandra Wilson"
INDEX 01 41:15:32
TRACK 10 AUDIO
TITLE "Tarot"
PERFORMER "Cassandra Wilson"
INDEX 01 46:03:07
[свернуть]

Лог проверки качества

AUDIOCHECKER v2.0 beta (build 457) - by Dester - [Ссылки могут видеть только зарегистрированные и активированные пользователи.]
[Only registered and activated users can see links.]
~~~~~~~~~~~~~~~~~~~~~~~~~~~~~~~~~~
-=== НЕ РЕДАКТИРУЙТЕ ЭТОТ ФАЙЛ! ===-

Путь: ...\2006 - Thunderbird [7243 8 63398 2 9]

1 -=- Cassandra Wilson - Thunderbird.flac -=- CDDA (100%)

26050404
[свернуть]

Спектр частот

[свернуть]

Скачать Cassandra Wilson - Thunderbird

[Ссылки могут видеть только зарегистрированные и активированные пользователи.]
[Only registered and activated users can see links.]

password: sergych
[свернуть]
My opinion of release: 8/10
__________________
TAIFUN.Wings of Soul

Вверх
Пользователь сказал cпасибо:
Dmitri (13.11.2015)
Похожие темы
Тема Автор Раздел Ответов Последнее сообщение
Альбом Cassandra Wilson - Belly of The Sun sergych Jazz и Blues 0 11.11.2015 18:55


Метки
2006 , cassandra wilson , jazz , thunderbird

Опции темы

Ваши права в разделе
Вы не можете создавать новые темы
Вы не можете отвечать в темах
Вы не можете прикреплять вложения
Вы не можете редактировать свои сообщения

Быстрый переход



Текущее время: 10:49. Часовой пояс GMT +3.
Powered by vBulletin® Version 3.8.10
Copyright ©2000 - 2019, vBulletin Solutions, Inc. Перевод: zCarot
© 2008 - 2019 Taifun With Song
Яндекс.Метрика